osu file format v14

[General]
AudioFilename: audio.mp3
AudioLeadIn: 0
PreviewTime: -1
Countdown: 1
SampleSet: None
StackLeniency: 0.7
Mode: 1
LetterboxInBreaks: 0
WidescreenStoryboard: 0

[Editor]
DistanceSpacing: 0.8
BeatDivisor: 4
GridSize: 32
TimelineZoom: 1

[Metadata]
Title:hot chocolate
TitleUnicode:hot chocolate
Artist:dark cat
ArtistUnicode:dark cat
Creator:worst player
Version:sugar rush
Source:
Tags:
BeatmapID:1907498
BeatmapSetID:913133

[Difficulty]
HPDrainRate:5
CircleSize:5
OverallDifficulty:5
ApproachRate:5
SliderMultiplier:1.4
SliderTickRate:1

[Events]
//Background and Video events
0,0,"chocolate girl.jpg",0,0
//Break Periods
//Storyboard Layer 0 (Background)
//Storyboard Layer 1 (Fail)
//Storyboard Layer 2 (Pass)
//Storyboard Layer 3 (Foreground)
//Storyboard Sound Samples

[TimingPoints]
1470,375,4,2,0,100,1,0
1470,-133.333333333333,4,2,0,100,0,0
7095,-125,4,2,0,100,0,0
7282,-111.111111111111,4,2,0,100,0,0
7470,-100,4,2,0,100,0,0
7845,-133.333333333333,4,2,0,100,0,0
12907,-121.951219512195,4,2,0,100,0,0
13095,-114.285714285714,4,2,0,100,0,0
13282,-106.382978723404,4,2,0,100,0,0
13470,-100,4,2,0,100,0,0
24063,-98.0392156862745,4,2,0,100,0,0
24157,-96.1538461538461,4,2,0,100,0,0
24251,-94.3396226415094,4,2,0,100,0,0
24345,-92.5925925925926,4,2,0,100,0,0
24438,-90.9090909090909,4,2,0,100,0,0
24532,-89.2857142857143,4,2,0,100,0,0
24626,-87.719298245614,4,2,0,100,0,0
24720,-86.2068965517241,4,2,0,100,0,0
25095,-133.333333333333,4,2,0,100,0,0
34282,-121.951219512195,4,2,0,100,0,0
34376,-113.636363636364,4,2,0,100,0,0
34470,-106.382978723404,4,2,0,100,0,0
34657,-100,4,2,0,100,0,0
34845,-98.0392156862745,4,2,0,100,0,0
35032,-96.1538461538461,4,2,0,100,0,0
35220,-94.3396226415094,4,2,0,100,0,0
35407,-92.5925925925926,4,2,0,100,0,0
35595,-90.9090909090909,4,2,0,100,0,0
35782,-89.2857142857143,4,2,0,100,0,0
35970,-87.719298245614,4,2,0,100,0,0
36063,-86.2068965517241,4,2,0,100,0,0
36157,-84.7457627118644,4,2,0,100,0,0
36251,-83.3333333333333,4,2,0,100,0,0
36345,-81.9672131147541,4,2,0,100,0,0
36438,-80.6451612903226,4,2,0,100,0,0
36532,-79.3650793650794,4,2,0,100,0,0
36626,-78.125,4,2,0,100,0,0
36720,-76.9230769230769,4,2,0,100,0,0
37095,-100,4,2,0,100,0,0
37470,-100,4,2,0,100,0,1
43095,-100,4,2,0,100,0,0
43470,-100,4,2,0,100,0,1
49095,-100,4,2,0,100,0,0
49470,-100,4,2,0,100,0,1
54907,-100,4,2,0,100,0,0
55470,-100,4,2,0,100,0,1
61095,-100,4,2,0,100,0,0
61470,-113.636363636364,4,2,0,100,0,0
64470,-133.333333333333,4,2,0,100,0,0
66907,-113.636363636364,4,2,0,100,0,0
67095,-100,4,2,0,100,0,0
67470,-133.333333333333,4,2,0,100,0,0
78157,-129.87012987013,4,2,0,100,0,0
78251,-126.582278481013,4,2,0,100,0,0
78345,-123.456790123457,4,2,0,100,0,0
78438,-120.481927710843,4,2,0,100,0,0
78532,-117.647058823529,4,2,0,100,0,0
78626,-114.942528735632,4,2,0,100,0,0
78720,-112.359550561798,4,2,0,100,0,0
79095,-133.333333333333,4,2,0,100,0,0
83970,-100,4,2,0,100,0,0
85095,-133.333333333333,4,2,0,100,0,0
89970,-100,4,2,0,100,0,0
91095,-90.9090909090909,4,2,0,100,0,0
91188,-100,4,2,0,100,0,0
91282,-111.111111111111,4,2,0,100,0,0
91376,-125,4,2,0,100,0,0
91470,-133.333333333333,4,2,0,100,0,0
94282,-133.333333333333,4,2,0,100,0,0
94845,-133.333333333333,4,2,0,100,0,0
100282,-133.333333333333,4,2,0,100,0,0
100845,-133.333333333333,4,2,0,100,0,0
103470,-133.333333333333,4,2,0,100,0,0
113970,-129.87012987013,4,2,0,100,0,0
114063,-126.582278481013,4,2,0,100,0,0
114157,-123.456790123457,4,2,0,100,0,0
114251,-120.481927710843,4,2,0,100,0,0
114345,-117.647058823529,4,2,0,100,0,0
114438,-114.942528735632,4,2,0,100,0,0
114532,-112.359550561798,4,2,0,100,0,0
114626,-109.89010989011,4,2,0,100,0,0
114720,-107.52688172043,4,2,0,100,0,0
118470,-200,4,2,0,100,0,0
121282,-133.333333333333,4,2,0,100,0,0
133470,-133.333333333333,4,2,0,100,0,0
134220,-123.456790123457,4,2,0,100,0,0
134970,-113.636363636364,4,2,0,100,0,0
135720,-106.382978723404,4,2,0,100,0,0
136470,-100,4,2,0,100,0,0
136657,-98.0392156862745,4,2,0,100,0,0
136845,-96.1538461538461,4,2,0,100,0,0
137032,-94.3396226415094,4,2,0,100,0,0
137220,-92.5925925925926,4,2,0,100,0,0
137407,-90.9090909090909,4,2,0,100,0,0
137595,-89.2857142857143,4,2,0,100,0,0
137782,-87.719298245614,4,2,0,100,0,0
137970,-86.2068965517241,4,2,0,100,0,0
138063,-84.7457627118644,4,2,0,100,0,0
138157,-83.3333333333333,4,2,0,100,0,0
138251,-81.9672131147541,4,2,0,100,0,0
138345,-80.6451612903226,4,2,0,100,0,0
138438,-79.3650793650794,4,2,0,100,0,0
138532,-78.125,4,2,0,100,0,0
138626,-76.9230769230769,4,2,0,100,0,0
138720,-75.7575757575758,4,2,0,100,0,0
139095,-100,4,2,0,100,0,0
139470,-100,4,2,0,100,0,1
145095,-100,4,2,0,100,0,0
145470,-100,4,2,0,100,0,1
151095,-100,4,2,0,100,0,0
151470,-100,4,2,0,100,0,1
156904,-100,4,2,0,100,0,0
157470,-100,4,2,0,100,0,1
163095,-100,4,2,0,100,0,0
163470,-113.636363636364,4,2,0,100,0,0
166470,-133.333333333333,4,2,0,100,0,0
169095,-123.456790123457,4,2,0,100,0,0
169188,-113.636363636364,4,2,0,100,0,0
169282,-106.382978723404,4,2,0,100,0,0
169376,-100,4,2,0,100,0,0
169470,-94.3396226415094,4,2,0,100,0,0
169845,-133.333333333333,4,2,0,100,0,0
175095,-125,4,2,0,100,0,0
175282,-111.111111111111,4,2,0,100,0,0
175470,-100,4,2,0,100,0,0
180907,-121.951219512195,4,2,0,100,0,0
181095,-113.636363636364,4,2,0,100,0,0
181282,-106.382978723404,4,2,0,100,0,0
181470,-100,4,2,0,100,0,0

[HitObjects]
448,320,1470,5,4,0:0:0:0:
448,320,1845,1,0,0:0:0:0:
448,320,2032,1,8,0:0:0:0:
480,320,2407,1,0,0:0:0:0:
448,384,2595,1,0,0:0:0:0:
448,352,2782,1,8,0:0:0:0:
448,352,3157,1,0,0:0:0:0:
448,352,3345,1,8,0:0:0:0:
448,352,3532,1,8,0:0:0:0:
480,320,3907,1,0,0:0:0:0:
480,320,4095,1,8,0:0:0:0:
448,384,4282,1,0,0:0:0:0:
480,384,4845,1,8,0:0:0:0:
448,288,5220,1,0,0:0:0:0:
448,320,5595,1,0,0:0:0:0:
448,320,5782,1,8,0:0:0:0:
480,352,6157,1,0,0:0:0:0:
416,320,6345,1,0,0:0:0:0:
448,352,6532,1,8,0:0:0:0:
480,320,6907,1,0,0:0:0:0:
480,320,7095,1,8,0:0:0:0:
448,352,7282,1,0,0:0:0:0:
480,320,7470,1,4,0:0:0:0:
480,352,7845,1,8,0:0:0:0:
480,352,8220,1,0,0:0:0:0:
480,352,8595,1,0,0:0:0:0:
480,352,8782,1,8,0:0:0:0:
480,352,9157,1,0,0:0:0:0:
480,352,9345,1,0,0:0:0:0:
480,352,9532,1,0,0:0:0:0:
480,352,10095,1,8,0:0:0:0:
480,384,10845,1,8,0:0:0:0:
480,384,11220,1,0,0:0:0:0:
448,288,11595,1,0,0:0:0:0:
448,352,11782,1,8,0:0:0:0:
480,352,12157,1,0,0:0:0:0:
416,320,12345,1,8,0:0:0:0:
480,352,12532,1,8,0:0:0:0:
480,352,12907,1,0,0:0:0:0:
480,352,13095,1,8,0:0:0:0:
480,352,13282,1,0,0:0:0:0:
480,352,13470,1,0,0:0:0:0:
448,352,13563,1,0,0:0:0:0:
416,352,13657,1,8,0:0:0:0:
448,352,13751,1,0,0:0:0:0:
448,352,13845,1,0,0:0:0:0:
448,352,13938,1,0,0:0:0:0:
448,352,14032,1,8,0:0:0:0:
480,352,14126,1,0,0:0:0:0:
512,352,14220,1,8,0:0:0:0:
448,352,14407,1,8,0:0:0:0:
448,352,14595,1,8,0:0:0:0:
448,352,14688,1,0,0:0:0:0:
448,384,14782,1,8,0:0:0:0:
448,384,14876,1,8,0:0:0:0:
448,384,14970,1,0,0:0:0:0:
448,384,15063,1,0,0:0:0:0:
448,384,15157,1,8,0:0:0:0:
480,352,15251,1,0,0:0:0:0:
480,352,15345,1,8,0:0:0:0:
384,288,15720,1,0,0:0:0:0:
416,352,15907,1,8,0:0:0:0:
448,352,16095,1,8,0:0:0:0:
448,352,16188,1,8,0:0:0:0:
480,288,16470,1,0,0:0:0:0:
448,320,16563,1,0,0:0:0:0:
448,320,16657,1,8,0:0:0:0:
448,320,16751,1,8,0:0:0:0:
448,320,16845,1,0,0:0:0:0:
448,320,16938,1,8,0:0:0:0:
448,320,17032,1,0,0:0:0:0:
448,320,17126,1,0,0:0:0:0:
448,320,17220,1,8,0:0:0:0:
512,320,17407,1,8,0:0:0:0:
480,352,17595,1,8,0:0:0:0:
480,352,17688,1,8,0:0:0:0:
480,352,17782,1,0,0:0:0:0:
480,352,17876,1,8,0:0:0:0:
480,352,17970,1,8,0:0:0:0:
480,352,18063,1,8,0:0:0:0:
480,352,18157,1,0,0:0:0:0:
480,352,18251,1,0,0:0:0:0:
480,352,18345,1,8,0:0:0:0:
480,320,18438,1,8,0:0:0:0:
480,320,18532,1,8,0:0:0:0:
480,320,18626,1,8,0:0:0:0:
480,320,18720,1,0,0:0:0:0:
448,320,18813,1,8,0:0:0:0:
480,320,18907,1,0,0:0:0:0:
448,320,19001,1,8,0:0:0:0:
480,320,19095,1,0,0:0:0:0:
480,352,19188,1,0,0:0:0:0:
480,384,19282,1,0,0:0:0:0:
480,384,19376,1,0,0:0:0:0:
448,352,19470,1,8,0:0:0:0:
448,384,19563,1,8,0:0:0:0:
416,384,19657,1,0,0:0:0:0:
384,384,19751,1,0,0:0:0:0:
352,384,19845,1,0,0:0:0:0:
384,384,19938,1,0,0:0:0:0:
416,384,20032,1,0,0:0:0:0:
448,384,20126,1,0,0:0:0:0:
480,384,20220,1,8,0:0:0:0:
448,320,20407,1,8,0:0:0:0:
480,352,20595,1,8,0:0:0:0:
480,352,20688,1,8,0:0:0:0:
480,352,20970,1,0,0:0:0:0:
480,352,21063,1,0,0:0:0:0:
480,352,21157,1,8,0:0:0:0:
480,352,21251,1,0,0:0:0:0:
480,352,21345,1,8,0:0:0:0:
480,352,21438,1,8,0:0:0:0:
480,352,21720,1,0,0:0:0:0:
448,320,21813,1,0,0:0:0:0:
416,320,21907,1,8,0:0:0:0:
352,288,22095,1,8,0:0:0:0:
320,288,22188,1,8,0:0:0:0:
256,256,22470,1,0,0:0:0:0:
224,256,22563,1,8,0:0:0:0:
224,224,22657,1,0,0:0:0:0:
224,224,22751,1,0,0:0:0:0:
224,256,22845,1,8,0:0:0:0:
224,256,22938,1,8,0:0:0:0:
224,256,23032,1,0,0:0:0:0:
256,256,23126,1,0,0:0:0:0:
288,256,23220,1,8,0:0:0:0:
320,288,23407,1,8,0:0:0:0:
384,288,23595,1,8,0:0:0:0:
416,288,23688,1,8,0:0:0:0:
480,352,23970,1,8,0:0:0:0:
448,320,24063,1,8,0:0:0:0:
448,352,24157,1,8,0:0:0:0:
448,352,24251,1,8,0:0:0:0:
448,352,24345,1,8,0:0:0:0:
448,352,24438,1,8,0:0:0:0:
448,352,24532,1,8,0:0:0:0:
448,352,24626,1,8,0:0:0:0:
448,352,24720,1,12,0:0:0:0:
480,352,25095,1,0,0:0:0:0:
384,288,25470,1,12,0:0:0:0:
480,352,25845,1,8,0:0:0:0:
448,320,26032,1,0,0:0:0:0:
480,384,26220,1,8,0:0:0:0:
448,320,26407,1,8,0:0:0:0:
480,352,26595,1,0,0:0:0:0:
480,352,26970,1,0,0:0:0:0:
448,352,27157,1,8,0:0:0:0:
480,352,27345,1,0,0:0:0:0:
448,352,27532,1,0,0:0:0:0:
416,352,27720,1,8,0:0:0:0:
480,352,27907,1,0,0:0:0:0:
480,352,28188,1,8,0:0:0:0:
480,352,28282,1,8,0:0:0:0:
480,352,28376,1,8,0:0:0:0:
480,352,28470,1,0,0:0:0:0:
480,384,28845,1,0,0:0:0:0:
448,352,29032,1,8,0:0:0:0:
480,384,29220,1,0,0:0:0:0:
512,288,29595,1,0,0:0:0:0:
480,352,29970,1,0,0:0:0:0:
448,320,30157,1,8,0:0:0:0:
480,384,30345,1,0,0:0:0:0:
480,288,30720,1,0,0:0:0:0:
480,352,30907,1,0,0:0:0:0:
480,352,31095,1,8,0:0:0:0:
480,352,31282,1,0,0:0:0:0:
480,352,31376,1,8,0:0:0:0:
480,352,31470,1,0,0:0:0:0:
384,320,31845,1,0,0:0:0:0:
448,320,32032,1,8,0:0:0:0:
288,256,32220,1,0,0:0:0:0:
192,256,32595,1,0,0:0:0:0:
288,256,32970,1,0,0:0:0:0:
352,288,33157,1,8,0:0:0:0:
384,320,33345,1,0,0:0:0:0:
416,320,33532,1,0,0:0:0:0:
448,352,33720,1,0,0:0:0:0:
448,352,33907,1,0,0:0:0:0:
480,352,34282,1,0,0:0:0:0:
480,352,34376,1,0,0:0:0:0:
480,352,34470,1,8,0:0:0:0:
480,352,34657,1,8,0:0:0:0:
480,352,34845,1,8,0:0:0:0:
480,352,35032,1,8,0:0:0:0:
480,352,35220,1,8,0:0:0:0:
480,352,35407,1,8,0:0:0:0:
480,352,35595,1,8,0:0:0:0:
480,352,35782,1,8,0:0:0:0:
480,352,35970,1,8,0:0:0:0:
448,352,36063,1,0,0:0:0:0:
448,352,36157,1,0,0:0:0:0:
448,352,36251,1,0,0:0:0:0:
448,352,36345,1,0,0:0:0:0:
448,352,36438,1,0,0:0:0:0:
448,352,36532,1,0,0:0:0:0:
448,352,36626,1,0,0:0:0:0:
448,352,36720,1,8,0:0:0:0:
320,288,37095,1,8,0:0:0:0:
352,288,37188,1,0,0:0:0:0:
352,224,37282,1,8,0:0:0:0:
384,256,37376,1,8,0:0:0:0:
416,288,37470,1,0,0:0:0:0:
480,384,37845,1,8,0:0:0:0:
448,320,38032,1,8,0:0:0:0:
512,288,38220,1,0,0:0:0:0:
480,288,38313,1,0,0:0:0:0:
480,320,38407,1,8,0:0:0:0:
448,384,38595,1,8,0:0:0:0:
480,320,38782,1,0,0:0:0:0:
480,320,38970,1,8,0:0:0:0:
448,352,39157,1,8,0:0:0:0:
448,320,39251,1,8,0:0:0:0:
448,320,39345,1,0,0:0:0:0:
480,352,39532,1,8,0:0:0:0:
448,288,39720,1,0,0:0:0:0:
448,320,39813,1,8,0:0:0:0:
480,320,39907,1,8,0:0:0:0:
480,384,40095,1,8,0:0:0:0:
448,320,40282,1,0,0:0:0:0:
384,288,40470,1,4,0:0:0:0:
288,256,40845,1,8,0:0:0:0:
224,224,41032,1,8,0:0:0:0:
288,256,41220,1,0,0:0:0:0:
320,256,41313,1,8,0:0:0:0:
352,256,41407,1,8,0:0:0:0:
384,288,41595,1,8,0:0:0:0:
416,320,41782,1,0,0:0:0:0:
448,352,41970,1,8,0:0:0:0:
448,352,42157,1,8,0:0:0:0:
448,352,42251,1,0,0:0:0:0:
448,352,42345,1,0,0:0:0:0:
448,384,42532,1,0,0:0:0:0:
448,320,42720,1,0,0:0:0:0:
416,320,42813,1,8,0:0:0:0:
448,320,42907,1,0,0:0:0:0:
448,384,43095,1,8,0:0:0:0:
448,352,43188,1,8,0:0:0:0:
448,352,43282,1,8,0:0:0:0:
448,352,43376,1,8,0:0:0:0:
448,320,43470,1,0,0:0:0:0:
416,320,43563,1,0,0:0:0:0:
384,320,43657,1,8,0:0:0:0:
352,320,43751,1,0,0:0:0:0:
320,320,43845,1,8,0:0:0:0:
288,320,43938,1,8,0:0:0:0:
256,320,44032,1,0,0:0:0:0:
224,288,44126,1,0,0:0:0:0:
192,256,44220,1,8,0:0:0:0:
192,320,44407,1,8,0:0:0:0:
192,320,44595,1,8,0:0:0:0:
288,352,44970,1,8,0:0:0:0:
352,352,45157,1,8,0:0:0:0:
384,352,45251,1,0,0:0:0:0:
416,352,45345,1,8,0:0:0:0:
480,352,45532,1,8,0:0:0:0:
416,384,45720,1,8,0:0:0:0:
448,384,45813,1,0,0:0:0:0:
448,352,45907,1,0,0:0:0:0:
448,352,46095,1,0,0:0:0:0:
512,384,46282,1,0,0:0:0:0:
448,384,46470,1,0,0:0:0:0:
480,352,46563,1,8,0:0:0:0:
448,384,46657,1,0,0:0:0:0:
480,352,46751,1,0,0:0:0:0:
448,384,46845,1,8,0:0:0:0:
448,384,46938,1,8,0:0:0:0:
448,384,47032,1,0,0:0:0:0:
448,384,47126,1,0,0:0:0:0:
448,384,47220,1,8,0:0:0:0:
448,320,47407,1,8,0:0:0:0:
448,320,47595,1,8,0:0:0:0:
448,320,47970,1,8,0:0:0:0:
448,320,48157,1,0,0:0:0:0:
448,320,48251,1,8,0:0:0:0:
448,320,48345,1,8,0:0:0:0:
448,352,48720,1,8,0:0:0:0:
480,352,48813,1,0,0:0:0:0:
480,352,48907,1,0,0:0:0:0:
480,352,49001,1,0,0:0:0:0:
480,320,49095,1,8,0:0:0:0:
480,352,49188,1,0,0:0:0:0:
480,352,49282,1,0,0:0:0:0:
480,352,49376,1,0,0:0:0:0:
480,352,49470,1,0,0:0:0:0:
384,320,49845,1,0,0:0:0:0:
416,320,49938,1,8,0:0:0:0:
448,320,50032,1,0,0:0:0:0:
448,352,50126,1,8,0:0:0:0:
448,320,50220,1,8,0:0:0:0:
448,320,50407,1,8,0:0:0:0:
384,288,50595,1,8,0:0:0:0:
448,288,50782,1,0,0:0:0:0:
448,288,50876,1,0,0:0:0:0:
448,288,50970,1,8,0:0:0:0:
448,288,51063,1,8,0:0:0:0:
448,288,51157,1,8,0:0:0:0:
448,352,51345,1,0,0:0:0:0:
448,288,51532,1,8,0:0:0:0:
416,352,51720,1,0,0:0:0:0:
448,288,51907,1,0,0:0:0:0:
480,288,52001,1,8,0:0:0:0:
416,352,52095,1,0,0:0:0:0:
480,384,52282,1,8,0:0:0:0:
416,352,52470,1,0,0:0:0:0:
384,352,52563,1,8,0:0:0:0:
352,352,52657,1,8,0:0:0:0:
352,352,52751,1,8,0:0:0:0:
352,352,52845,1,0,0:0:0:0:
352,352,52938,1,0,0:0:0:0:
352,352,53032,1,8,0:0:0:0:
352,352,53126,1,8,0:0:0:0:
352,352,53220,1,0,0:0:0:0:
416,352,53407,1,8,0:0:0:0:
480,352,53595,1,8,0:0:0:0:
480,352,53782,1,0,0:0:0:0:
480,352,53970,1,8,0:0:0:0:
480,352,54063,1,0,0:0:0:0:
480,352,54157,1,0,0:0:0:0:
480,384,54345,1,8,0:0:0:0:
480,384,54532,1,0,0:0:0:0:
480,384,54720,1,0,0:0:0:0:
448,352,54907,1,0,0:0:0:0:
480,352,55095,1,8,0:0:0:0:
480,352,55188,1,8,0:0:0:0:
448,352,55282,1,0,0:0:0:0:
416,320,55376,1,0,0:0:0:0:
448,352,55470,1,8,0:0:0:0:
448,352,55657,1,0,0:0:0:0:
448,352,55845,1,8,0:0:0:0:
480,352,55938,1,8,0:0:0:0:
448,352,56032,1,0,0:0:0:0:
448,384,56220,1,8,0:0:0:0:
448,384,56407,1,0,0:0:0:0:
480,352,56595,1,8,0:0:0:0:
480,352,56688,1,0,0:0:0:0:
448,384,56782,1,0,0:0:0:0:
480,352,56876,1,0,0:0:0:0:
448,384,56970,1,8,0:0:0:0:
416,352,57157,1,0,0:0:0:0:
480,352,57345,1,8,0:0:0:0:
480,352,57438,1,8,0:0:0:0:
480,352,57532,1,0,0:0:0:0:
480,352,57720,1,8,0:0:0:0:
480,352,57907,1,0,0:0:0:0:
480,352,58095,1,8,0:0:0:0:
480,352,58188,1,8,0:0:0:0:
480,352,58282,1,0,0:0:0:0:
480,352,58376,1,0,0:0:0:0:
480,352,58470,1,8,0:0:0:0:
480,352,58657,1,0,0:0:0:0:
480,352,58845,1,8,0:0:0:0:
480,320,58938,1,0,0:0:0:0:
480,352,59032,1,0,0:0:0:0:
480,352,59220,1,8,0:0:0:0:
480,352,59407,1,0,0:0:0:0:
480,352,59595,1,8,0:0:0:0:
480,352,59688,1,0,0:0:0:0:
480,352,59782,1,0,0:0:0:0:
480,352,59876,1,8,0:0:0:0:
480,320,59970,1,8,0:0:0:0:
480,320,60157,1,0,0:0:0:0:
480,384,60345,1,8,0:0:0:0:
480,352,60438,1,0,0:0:0:0:
480,352,60532,1,0,0:0:0:0:
480,352,60720,1,0,0:0:0:0:
480,352,60907,1,0,0:0:0:0:
480,352,61095,1,8,0:0:0:0:
384,288,61470,1,12,0:0:0:0:
352,256,61657,1,0,0:0:0:0:
320,224,61845,1,8,0:0:0:0:
352,224,61938,1,8,0:0:0:0:
288,192,62032,1,0,0:0:0:0:
288,192,62220,1,8,0:0:0:0:
288,192,62407,1,0,0:0:0:0:
288,192,62595,1,8,0:0:0:0:
320,224,62688,1,8,0:0:0:0:
288,192,62782,1,0,0:0:0:0:
320,224,62876,1,0,0:0:0:0:
288,256,62970,1,8,0:0:0:0:
288,192,63157,1,0,0:0:0:0:
288,256,63345,1,8,0:0:0:0:
320,256,63438,1,8,0:0:0:0:
288,192,63532,1,0,0:0:0:0:
288,256,63720,1,8,0:0:0:0:
288,192,63907,1,0,0:0:0:0:
320,256,64095,1,8,0:0:0:0:
256,192,64470,1,8,0:0:0:0:
288,224,64657,1,0,0:0:0:0:
320,256,64845,1,8,0:0:0:0:
352,256,64938,1,0,0:0:0:0:
384,256,65032,1,0,0:0:0:0:
352,256,65220,1,8,0:0:0:0:
320,256,65407,1,0,0:0:0:0:
352,288,65595,1,8,0:0:0:0:
384,288,65688,1,8,0:0:0:0:
384,288,65782,1,0,0:0:0:0:
384,288,65876,1,8,0:0:0:0:
384,288,65970,1,8,0:0:0:0:
384,288,66157,1,0,0:0:0:0:
384,288,66345,1,8,0:0:0:0:
384,288,66438,1,0,0:0:0:0:
384,288,66532,1,0,0:0:0:0:
416,320,66720,1,8,0:0:0:0:
448,320,66907,1,0,0:0:0:0:
480,320,67095,1,8,0:0:0:0:
416,288,67470,1,0,0:0:0:0:
384,288,67563,1,0,0:0:0:0:
352,288,67657,1,8,0:0:0:0:
352,288,67751,1,8,0:0:0:0:
352,288,67845,1,0,0:0:0:0:
352,256,67938,1,8,0:0:0:0:
352,256,68032,1,0,0:0:0:0:
352,256,68126,1,0,0:0:0:0:
352,256,68220,1,8,0:0:0:0:
384,288,68407,1,8,0:0:0:0:
416,320,68595,1,8,0:0:0:0:
448,320,68688,1,0,0:0:0:0:
448,352,68782,1,8,0:0:0:0:
448,352,68876,1,8,0:0:0:0:
448,320,68970,1,0,0:0:0:0:
416,320,69063,1,0,0:0:0:0:
448,320,69157,1,8,0:0:0:0:
448,320,69251,1,8,0:0:0:0:
416,320,69345,1,0,0:0:0:0:
416,352,69438,1,0,0:0:0:0:
480,352,69532,1,8,0:0:0:0:
480,352,69626,1,0,0:0:0:0:
480,352,69720,1,8,0:0:0:0:
480,352,69907,1,8,0:0:0:0:
480,352,70095,1,8,0:0:0:0:
480,352,70188,1,0,0:0:0:0:
480,352,70282,1,8,0:0:0:0:
480,352,70376,1,8,0:0:0:0:
480,352,70470,1,0,0:0:0:0:
448,320,70657,1,8,0:0:0:0:
416,320,70751,1,8,0:0:0:0:
416,320,70845,1,0,0:0:0:0:
384,320,70938,1,8,0:0:0:0:
384,320,71032,1,8,0:0:0:0:
352,320,71126,1,0,0:0:0:0:
384,320,71220,1,0,0:0:0:0:
416,320,71407,1,0,0:0:0:0:
448,320,71595,1,8,0:0:0:0:
448,320,71688,1,8,0:0:0:0:
448,352,71782,1,8,0:0:0:0:
448,352,71876,1,8,0:0:0:0:
448,352,71970,1,0,0:0:0:0:
448,352,72063,1,0,0:0:0:0:
448,352,72157,1,8,0:0:0:0:
448,352,72251,1,8,0:0:0:0:
480,352,72438,1,8,0:0:0:0:
480,320,72532,1,0,0:0:0:0:
480,320,72626,1,0,0:0:0:0:
480,320,72720,1,0,0:0:0:0:
448,288,72907,1,0,0:0:0:0:
416,288,73095,1,0,0:0:0:0:
416,288,73188,1,0,0:0:0:0:
416,288,73282,1,0,0:0:0:0:
416,288,73376,1,0,0:0:0:0:
448,288,73470,1,8,0:0:0:0:
416,288,73563,1,8,0:0:0:0:
384,288,73657,1,0,0:0:0:0:
352,288,73751,1,0,0:0:0:0:
320,288,73845,1,8,0:0:0:0:
288,256,73938,1,0,0:0:0:0:
256,256,74032,1,8,0:0:0:0:
256,224,74126,1,0,0:0:0:0:
288,224,74220,1,8,0:0:0:0:
320,256,74407,1,8,0:0:0:0:
352,288,74595,1,8,0:0:0:0:
384,288,74688,1,8,0:0:0:0:
416,288,74782,1,0,0:0:0:0:
448,320,74970,1,0,0:0:0:0:
448,352,75063,1,8,0:0:0:0:
480,352,75157,1,8,0:0:0:0:
480,352,75251,1,0,0:0:0:0:
480,352,75345,1,8,0:0:0:0:
448,320,75532,1,0,0:0:0:0:
448,320,75626,1,0,0:0:0:0:
448,320,75720,1,8,0:0:0:0:
448,352,75907,1,8,0:0:0:0:
480,384,76095,1,8,0:0:0:0:
480,384,76188,1,0,0:0:0:0:
480,384,76282,1,8,0:0:0:0:
480,384,76376,1,8,0:0:0:0:
480,352,76470,1,0,0:0:0:0:
448,352,76563,1,0,0:0:0:0:
416,352,76657,1,8,0:0:0:0:
384,352,76751,1,0,0:0:0:0:
384,352,76845,1,8,0:0:0:0:
416,352,77032,1,8,0:0:0:0:
448,352,77126,1,0,0:0:0:0:
480,352,77220,1,8,0:0:0:0:
480,320,77407,1,8,0:0:0:0:
480,320,77595,1,8,0:0:0:0:
480,320,77688,1,0,0:0:0:0:
480,320,77782,1,8,0:0:0:0:
448,320,77876,1,8,0:0:0:0:
448,320,77970,1,0,0:0:0:0:
448,320,78063,1,0,0:0:0:0:
448,320,78157,1,8,0:0:0:0:
448,320,78251,1,8,0:0:0:0:
480,320,78345,1,8,0:0:0:0:
480,352,78438,1,8,0:0:0:0:
480,352,78532,1,8,0:0:0:0:
480,352,78626,1,8,0:0:0:0:
480,352,78720,1,0,0:0:0:0:
416,320,79095,1,0,0:0:0:0:
416,320,79157,1,8,0:0:0:0:
352,288,79470,1,8,0:0:0:0:
352,256,79657,1,0,0:0:0:0:
352,256,79845,1,8,0:0:0:0:
332,248,79938,1,8,0:0:0:0:
352,256,80032,1,0,0:0:0:0:
384,288,80220,1,8,0:0:0:0:
416,320,80407,1,0,0:0:0:0:
448,352,80595,1,8,0:0:0:0:
448,352,80688,1,8,0:0:0:0:
448,352,80782,1,0,0:0:0:0:
448,352,80970,1,8,0:0:0:0:
448,352,81157,1,0,0:0:0:0:
448,352,81345,1,8,0:0:0:0:
465,363,81438,1,0,0:0:0:0:
448,352,81532,1,0,0:0:0:0:
448,352,81720,1,8,0:0:0:0:
448,352,81907,1,0,0:0:0:0:
448,352,82095,1,8,0:0:0:0:
465,363,82188,1,0,0:0:0:0:
448,352,82282,1,0,0:0:0:0:
448,352,82470,1,8,0:0:0:0:
448,352,82563,1,8,0:0:0:0:
448,320,82657,1,0,0:0:0:0:
480,288,82845,1,8,0:0:0:0:
448,320,83032,1,0,0:0:0:0:
448,352,83126,1,0,0:0:0:0:
448,320,83220,1,8,0:0:0:0:
448,320,83407,1,0,0:0:0:0:
448,320,83595,1,8,0:0:0:0:
448,352,83688,1,0,0:0:0:0:
448,320,83782,1,0,0:0:0:0:
480,352,83970,1,12,0:0:0:0:
416,320,84345,1,4,0:0:0:0:
480,352,84720,1,4,0:0:0:0:
480,352,85095,1,8,0:0:0:0:
352,288,85470,1,8,0:0:0:0:
352,256,85657,1,0,0:0:0:0:
352,256,85845,1,8,0:0:0:0:
332,248,85938,1,8,0:0:0:0:
352,256,86032,1,0,0:0:0:0:
384,288,86220,1,8,0:0:0:0:
416,320,86407,1,0,0:0:0:0:
448,352,86595,1,8,0:0:0:0:
448,352,86688,1,8,0:0:0:0:
448,352,86782,1,0,0:0:0:0:
448,352,86970,1,8,0:0:0:0:
448,352,87157,1,0,0:0:0:0:
448,352,87345,1,8,0:0:0:0:
465,363,87438,1,0,0:0:0:0:
448,352,87532,1,0,0:0:0:0:
448,352,87720,1,8,0:0:0:0:
448,352,87907,1,0,0:0:0:0:
448,352,88095,1,8,0:0:0:0:
465,363,88188,1,0,0:0:0:0:
448,352,88282,1,0,0:0:0:0:
448,352,88470,1,8,0:0:0:0:
448,352,88563,1,8,0:0:0:0:
448,320,88657,1,0,0:0:0:0:
480,288,88845,1,8,0:0:0:0:
448,320,89032,1,0,0:0:0:0:
448,352,89126,1,0,0:0:0:0:
448,320,89220,1,8,0:0:0:0:
448,320,89407,1,0,0:0:0:0:
448,320,89595,1,8,0:0:0:0:
448,352,89688,1,0,0:0:0:0:
448,320,89782,1,0,0:0:0:0:
480,352,89970,1,12,0:0:0:0:
448,320,90345,1,4,0:0:0:0:
448,320,90720,1,4,0:0:0:0:
480,320,91095,1,8,0:0:0:0:
480,352,91188,1,8,0:0:0:0:
480,352,91282,1,8,0:0:0:0:
480,352,91376,1,8,0:0:0:0:
448,352,91470,1,0,0:0:0:0:
480,256,91845,1,0,0:0:0:0:
448,320,92220,1,8,0:0:0:0:
448,352,92595,1,0,0:0:0:0:
448,352,92970,1,0,0:0:0:0:
448,352,93345,1,0,0:0:0:0:
448,352,93720,1,8,0:0:0:0:
448,352,94095,1,0,0:0:0:0:
448,320,94282,1,0,0:0:0:0:
416,288,94470,1,0,0:0:0:0:
352,256,94845,1,0,0:0:0:0:
288,224,95220,1,8,0:0:0:0:
352,288,95595,1,0,0:0:0:0:
416,320,95970,1,0,0:0:0:0:
480,352,96345,1,0,0:0:0:0:
480,352,96720,1,8,0:0:0:0:
480,352,97095,1,8,0:0:0:0:
480,352,97188,1,0,0:0:0:0:
480,352,97282,1,8,0:0:0:0:
448,352,97376,1,8,0:0:0:0:
448,352,97470,1,0,0:0:0:0:
480,384,97845,1,0,0:0:0:0:
416,320,98220,1,8,0:0:0:0:
480,352,98595,1,0,0:0:0:0:
448,256,98970,1,0,0:0:0:0:
448,256,99345,1,0,0:0:0:0:
448,256,99720,1,8,0:0:0:0:
480,352,100095,1,0,0:0:0:0:
448,320,100282,1,0,0:0:0:0:
448,288,100470,1,0,0:0:0:0:
480,384,100845,1,0,0:0:0:0:
448,288,101220,1,8,0:0:0:0:
480,352,101595,1,0,0:0:0:0:
448,256,101970,1,0,0:0:0:0:
480,320,102345,1,0,0:0:0:0:
480,320,102720,1,8,0:0:0:0:
480,320,102813,1,0,0:0:0:0:
448,320,102907,1,8,0:0:0:0:
448,320,103001,1,8,0:0:0:0:
448,320,103095,1,0,0:0:0:0:
448,320,103188,1,8,0:0:0:0:
448,320,103282,1,8,0:0:0:0:
448,320,103376,1,8,0:0:0:0:
448,320,103470,1,0,0:0:0:0:
384,288,103845,1,0,0:0:0:0:
448,352,104220,1,8,0:0:0:0:
480,320,104407,1,0,0:0:0:0:
480,352,104782,1,0,0:0:0:0:
480,352,104970,1,0,0:0:0:0:
480,384,105345,1,0,0:0:0:0:
480,352,105532,1,0,0:0:0:0:
480,352,105720,1,8,0:0:0:0:
480,352,105907,1,0,0:0:0:0:
480,352,106095,1,0,0:0:0:0:
480,320,106282,1,0,0:0:0:0:
480,320,106345,1,0,0:0:0:0:
480,320,106407,1,0,0:0:0:0:
480,320,106470,1,0,0:0:0:0:
480,320,106845,1,0,0:0:0:0:
480,320,107032,1,0,0:0:0:0:
480,320,107220,1,8,0:0:0:0:
480,320,107407,1,0,0:0:0:0:
480,320,107595,1,0,0:0:0:0:
480,352,107970,1,0,0:0:0:0:
480,352,108157,1,0,0:0:0:0:
448,256,108532,1,0,0:0:0:0:
448,288,108720,1,8,0:0:0:0:
480,352,109095,1,0,0:0:0:0:
480,352,109282,1,0,0:0:0:0:
480,352,109376,1,0,0:0:0:0:
480,352,109470,1,0,0:0:0:0:
480,352,109845,1,0,0:0:0:0:
480,352,110032,1,0,0:0:0:0:
480,352,110220,1,8,0:0:0:0:
480,352,110407,1,0,0:0:0:0:
480,352,110595,1,0,0:0:0:0:
480,352,110970,1,0,0:0:0:0:
480,352,111157,1,0,0:0:0:0:
480,384,111532,1,0,0:0:0:0:
480,384,111720,1,8,0:0:0:0:
448,288,112095,1,0,0:0:0:0:
416,256,112282,1,0,0:0:0:0:
416,256,112376,1,0,0:0:0:0:
416,288,112470,1,0,0:0:0:0:
448,320,112657,1,0,0:0:0:0:
480,352,112845,1,0,0:0:0:0:
480,384,113032,1,0,0:0:0:0:
480,384,113220,1,0,0:0:0:0:
448,352,113407,1,0,0:0:0:0:
480,384,113595,1,0,0:0:0:0:
448,352,113782,1,0,0:0:0:0:
480,384,113970,1,0,0:0:0:0:
480,352,114063,1,0,0:0:0:0:
480,352,114157,1,0,0:0:0:0:
480,352,114251,1,0,0:0:0:0:
480,352,114345,1,0,0:0:0:0:
480,352,114438,1,0,0:0:0:0:
480,352,114532,1,0,0:0:0:0:
480,320,114626,1,0,0:0:0:0:
480,320,114720,1,8,0:0:0:0:
256,192,114813,12,0,117720,0:0:0:0:
224,160,118470,5,0,0:0:0:0:
256,160,121282,1,8,0:0:0:0:
256,160,121345,1,8,0:0:0:0:
256,160,121407,1,8,0:0:0:0:
256,160,121470,1,0,0:0:0:0:
288,160,121563,1,0,0:0:0:0:
320,160,121657,1,0,0:0:0:0:
352,160,121751,1,0,0:0:0:0:
352,192,121845,1,8,0:0:0:0:
320,192,122032,1,0,0:0:0:0:
352,224,122220,1,0,0:0:0:0:
352,256,122313,1,8,0:0:0:0:
352,256,122407,1,0,0:0:0:0:
384,288,122595,1,0,0:0:0:0:
416,320,122782,1,8,0:0:0:0:
448,352,122970,1,0,0:0:0:0:
480,384,123157,1,8,0:0:0:0:
448,384,123251,1,8,0:0:0:0:
448,384,123345,1,0,0:0:0:0:
448,384,123532,1,0,0:0:0:0:
448,384,123720,1,0,0:0:0:0:
448,384,123813,1,0,0:0:0:0:
448,352,123907,1,8,0:0:0:0:
480,384,124095,1,8,0:0:0:0:
448,352,124282,1,8,0:0:0:0:
416,320,124470,1,0,0:0:0:0:
448,352,124657,1,8,0:0:0:0:
480,352,124751,1,0,0:0:0:0:
480,352,124845,1,8,0:0:0:0:
480,352,125032,1,8,0:0:0:0:
480,352,125220,1,0,0:0:0:0:
480,352,125313,1,0,0:0:0:0:
480,352,125407,1,8,0:0:0:0:
480,384,125595,1,8,0:0:0:0:
448,352,125782,1,8,0:0:0:0:
480,384,125970,1,0,0:0:0:0:
448,352,126157,1,0,0:0:0:0:
448,352,126251,1,8,0:0:0:0:
448,352,126345,1,8,0:0:0:0:
480,352,126532,1,8,0:0:0:0:
480,352,126720,1,0,0:0:0:0:
480,352,126813,1,8,0:0:0:0:
448,352,126907,1,0,0:0:0:0:
448,352,127095,1,0,0:0:0:0:
384,320,127470,1,0,0:0:0:0:
352,288,127657,1,0,0:0:0:0:
320,288,127751,1,0,0:0:0:0:
288,288,127845,1,8,0:0:0:0:
320,288,128032,1,0,0:0:0:0:
352,320,128220,1,8,0:0:0:0:
384,320,128313,1,8,0:0:0:0:
448,352,128407,1,0,0:0:0:0:
448,352,128595,1,8,0:0:0:0:
448,352,128782,1,8,0:0:0:0:
448,352,128970,1,0,0:0:0:0:
448,352,129157,1,0,0:0:0:0:
448,352,129251,1,8,0:0:0:0:
448,352,129345,1,0,0:0:0:0:
448,352,129532,1,0,0:0:0:0:
448,352,129720,1,8,0:0:0:0:
448,352,129813,1,8,0:0:0:0:
448,352,129907,1,0,0:0:0:0:
480,384,130095,1,8,0:0:0:0:
448,352,130282,1,0,0:0:0:0:
448,352,130470,1,8,0:0:0:0:
448,384,130657,1,8,0:0:0:0:
448,384,130751,1,0,0:0:0:0:
448,384,130845,1,8,0:0:0:0:
448,384,131032,1,0,0:0:0:0:
448,384,131220,1,0,0:0:0:0:
448,384,131313,1,8,0:0:0:0:
448,352,131407,1,8,0:0:0:0:
480,384,131595,1,0,0:0:0:0:
448,352,131782,1,8,0:0:0:0:
480,384,131970,1,0,0:0:0:0:
448,352,132157,1,0,0:0:0:0:
448,384,132251,1,0,0:0:0:0:
448,384,132345,1,8,0:0:0:0:
416,352,132532,1,0,0:0:0:0:
256,224,133470,1,8,0:0:0:0:
224,192,133657,1,0,0:0:0:0:
192,192,133845,1,8,0:0:0:0:
160,192,134032,1,0,0:0:0:0:
160,192,134220,1,8,0:0:0:0:
160,192,134407,1,0,0:0:0:0:
160,192,134595,1,8,0:0:0:0:
160,192,134782,1,0,0:0:0:0:
160,192,134970,1,8,0:0:0:0:
128,192,135157,1,0,0:0:0:0:
96,224,135345,1,8,0:0:0:0:
96,224,135532,1,0,0:0:0:0:
96,224,135720,1,8,0:0:0:0:
96,224,135907,1,0,0:0:0:0:
96,224,136095,1,8,0:0:0:0:
96,224,136282,1,0,0:0:0:0:
96,224,136470,1,8,0:0:0:0:
128,224,136657,1,8,0:0:0:0:
192,224,136845,1,8,0:0:0:0:
256,224,137032,1,8,0:0:0:0:
320,224,137220,1,8,0:0:0:0:
384,256,137407,1,8,0:0:0:0:
448,288,137595,1,8,0:0:0:0:
512,288,137782,1,8,0:0:0:0:
448,288,137970,1,8,0:0:0:0:
448,320,138063,1,0,0:0:0:0:
448,320,138157,1,0,0:0:0:0:
448,320,138251,1,0,0:0:0:0:
448,320,138345,1,0,0:0:0:0:
480,288,138438,1,0,0:0:0:0:
448,320,138532,1,0,0:0:0:0:
480,320,138626,1,0,0:0:0:0:
480,320,138720,1,8,0:0:0:0:
384,256,139095,1,8,0:0:0:0:
352,256,139188,1,0,0:0:0:0:
320,256,139282,1,8,0:0:0:0:
288,224,139376,1,8,0:0:0:0:
256,192,139470,1,0,0:0:0:0:
352,256,139845,1,8,0:0:0:0:
384,288,140032,1,8,0:0:0:0:
416,320,140220,1,8,0:0:0:0:
448,352,140313,1,0,0:0:0:0:
480,384,140407,1,8,0:0:0:0:
448,352,140595,1,8,0:0:0:0:
448,352,140782,1,0,0:0:0:0:
448,352,140970,1,8,0:0:0:0:
448,352,141157,1,8,0:0:0:0:
448,352,141251,1,8,0:0:0:0:
448,352,141345,1,0,0:0:0:0:
448,384,141532,1,0,0:0:0:0:
480,352,141720,1,8,0:0:0:0:
448,384,141813,1,0,0:0:0:0:
448,384,141907,1,0,0:0:0:0:
448,384,142095,1,0,0:0:0:0:
448,384,142282,1,8,0:0:0:0:
448,384,142470,1,4,0:0:0:0:
352,320,142845,1,8,0:0:0:0:
320,288,143032,1,8,0:0:0:0:
384,320,143220,1,8,0:0:0:0:
416,320,143313,1,8,0:0:0:0:
448,320,143407,1,0,0:0:0:0:
480,352,143595,1,8,0:0:0:0:
416,320,143782,1,0,0:0:0:0:
480,352,143970,1,0,0:0:0:0:
416,352,144157,1,0,0:0:0:0:
448,352,144251,1,0,0:0:0:0:
480,352,144345,1,8,0:0:0:0:
416,352,144532,1,0,0:0:0:0:
480,352,144720,1,8,0:0:0:0:
448,352,144813,1,0,0:0:0:0:
448,352,144907,1,8,0:0:0:0:
448,352,145095,1,8,0:0:0:0:
448,352,145188,1,8,0:0:0:0:
448,352,145282,1,8,0:0:0:0:
448,352,145376,1,8,0:0:0:0:
448,352,145470,1,0,0:0:0:0:
448,320,145563,1,8,0:0:0:0:
416,320,145657,1,8,0:0:0:0:
416,320,145751,1,8,0:0:0:0:
416,320,145845,1,0,0:0:0:0:
416,320,145938,1,8,0:0:0:0:
416,320,146032,1,0,0:0:0:0:
416,320,146126,1,8,0:0:0:0:
416,320,146220,1,8,0:0:0:0:
448,352,146407,1,8,0:0:0:0:
480,384,146595,1,8,0:0:0:0:
448,320,146782,1,0,0:0:0:0:
480,384,146970,1,8,0:0:0:0:
448,352,147157,1,8,0:0:0:0:
480,384,147251,1,8,0:0:0:0:
480,352,147345,1,0,0:0:0:0:
480,384,147532,1,0,0:0:0:0:
480,384,147720,1,8,0:0:0:0:
448,352,147907,1,0,0:0:0:0:
480,320,148095,1,0,0:0:0:0:
480,320,148282,1,8,0:0:0:0:
480,320,148470,1,0,0:0:0:0:
480,320,148563,1,8,0:0:0:0:
480,320,148657,1,0,0:0:0:0:
480,320,148751,1,0,0:0:0:0:
480,320,148845,1,8,0:0:0:0:
480,320,148938,1,8,0:0:0:0:
480,320,149032,1,0,0:0:0:0:
480,320,149126,1,0,0:0:0:0:
480,320,149220,1,8,0:0:0:0:
480,384,149407,1,8,0:0:0:0:
480,320,149595,1,8,0:0:0:0:
416,352,149782,1,0,0:0:0:0:
480,352,149970,1,8,0:0:0:0:
480,384,150157,1,8,0:0:0:0:
480,384,150251,1,0,0:0:0:0:
480,384,150345,1,0,0:0:0:0:
448,352,150532,1,8,0:0:0:0:
480,352,150626,1,0,0:0:0:0:
480,352,150720,1,0,0:0:0:0:
480,352,150813,1,0,0:0:0:0:
480,352,150907,1,0,0:0:0:0:
480,352,151001,1,0,0:0:0:0:
448,352,151095,1,8,0:0:0:0:
480,352,151188,1,8,0:0:0:0:
480,352,151282,1,8,0:0:0:0:
480,352,151376,1,8,0:0:0:0:
480,352,151470,1,0,0:0:0:0:
448,320,151657,1,8,0:0:0:0:
448,352,151750,1,0,0:0:0:0:
448,352,151844,1,8,0:0:0:0:
448,352,151938,1,8,0:0:0:0:
448,352,152032,1,0,0:0:0:0:
448,352,152125,1,0,0:0:0:0:
448,352,152219,1,8,0:0:0:0:
384,320,152407,1,8,0:0:0:0:
352,288,152595,1,8,0:0:0:0:
384,288,152688,1,8,0:0:0:0:
416,288,152782,1,0,0:0:0:0:
448,352,152970,1,8,0:0:0:0:
448,352,153063,1,0,0:0:0:0:
448,352,153157,1,8,0:0:0:0:
448,352,153251,1,8,0:0:0:0:
448,352,153345,1,0,0:0:0:0:
448,352,153532,1,0,0:0:0:0:
480,384,153720,1,8,0:0:0:0:
480,384,153907,1,0,0:0:0:0:
448,352,154095,1,0,0:0:0:0:
416,320,154282,1,8,0:0:0:0:
352,320,154470,1,0,0:0:0:0:
384,320,154563,1,0,0:0:0:0:
384,320,154657,1,8,0:0:0:0:
384,320,154751,1,8,0:0:0:0:
384,320,154845,1,0,0:0:0:0:
384,320,154938,1,8,0:0:0:0:
352,320,155032,1,0,0:0:0:0:
352,320,155126,1,0,0:0:0:0:
352,320,155220,1,8,0:0:0:0:
416,352,155407,1,8,0:0:0:0:
480,384,155595,1,8,0:0:0:0:
448,384,155688,1,0,0:0:0:0:
448,384,155782,1,0,0:0:0:0:
448,352,155876,1,8,0:0:0:0:
448,352,155970,1,0,0:0:0:0:
448,352,156063,1,0,0:0:0:0:
448,352,156157,1,8,0:0:0:0:
480,352,156251,1,8,0:0:0:0:
448,320,156345,1,0,0:0:0:0:
384,320,156532,1,8,0:0:0:0:
448,352,156720,1,8,0:0:0:0:
448,352,156907,1,8,0:0:0:0:
416,320,157095,1,8,0:0:0:0:
448,352,157188,1,0,0:0:0:0:
448,352,157282,1,0,0:0:0:0:
320,256,157376,1,8,0:0:0:0:
352,256,157470,1,8,0:0:0:0:
224,192,157657,1,0,0:0:0:0:
256,224,157845,1,8,0:0:0:0:
288,224,157938,1,8,0:0:0:0:
320,256,158032,1,0,0:0:0:0:
352,288,158220,1,8,0:0:0:0:
288,288,158407,1,0,0:0:0:0:
480,320,158595,1,8,0:0:0:0:
416,320,158688,1,8,0:0:0:0:
416,320,158782,1,0,0:0:0:0:
416,320,158876,1,0,0:0:0:0:
448,352,158970,1,8,0:0:0:0:
480,288,159157,1,0,0:0:0:0:
448,352,159345,1,8,0:0:0:0:
448,320,159438,1,0,0:0:0:0:
448,320,159532,1,8,0:0:0:0:
448,384,159720,1,0,0:0:0:0:
448,320,159907,1,8,0:0:0:0:
448,384,160095,1,0,0:0:0:0:
448,352,160188,1,0,0:0:0:0:
480,352,160282,1,8,0:0:0:0:
448,352,160376,1,0,0:0:0:0:
480,352,160470,1,0,0:0:0:0:
480,352,160657,1,8,0:0:0:0:
448,320,160845,1,0,0:0:0:0:
448,320,160938,1,8,0:0:0:0:
448,320,161032,1,8,0:0:0:0:
480,352,161220,1,0,0:0:0:0:
480,352,161407,1,8,0:0:0:0:
480,384,161595,1,0,0:0:0:0:
480,384,161688,1,8,0:0:0:0:
480,384,161782,1,8,0:0:0:0:
480,384,161876,1,8,0:0:0:0:
480,384,161970,1,0,0:0:0:0:
448,320,162157,1,8,0:0:0:0:
480,384,162345,1,0,0:0:0:0:
480,384,162438,1,0,0:0:0:0:
480,384,162532,1,8,0:0:0:0:
448,352,162720,1,0,0:0:0:0:
448,352,162907,1,8,0:0:0:0:
480,320,163095,1,8,0:0:0:0:
384,288,163470,1,12,0:0:0:0:
320,288,163657,1,0,0:0:0:0:
288,256,163845,1,8,0:0:0:0:
256,224,163938,1,0,0:0:0:0:
224,224,164032,1,0,0:0:0:0:
256,256,164220,1,8,0:0:0:0:
288,288,164407,1,0,0:0:0:0:
352,288,164595,1,8,0:0:0:0:
384,288,164688,1,0,0:0:0:0:
416,288,164782,1,0,0:0:0:0:
416,320,164876,1,0,0:0:0:0:
448,320,164970,1,8,0:0:0:0:
480,352,165157,1,0,0:0:0:0:
448,320,165345,1,8,0:0:0:0:
480,352,165438,1,8,0:0:0:0:
448,320,165532,1,0,0:0:0:0:
480,352,165720,1,8,0:0:0:0:
448,384,165907,1,0,0:0:0:0:
448,384,166095,1,8,0:0:0:0:
448,288,166470,1,8,0:0:0:0:
448,320,166657,1,0,0:0:0:0:
448,352,166845,1,8,0:0:0:0:
448,352,166938,1,8,0:0:0:0:
448,352,167032,1,0,0:0:0:0:
416,320,167220,1,8,0:0:0:0:
384,288,167407,1,0,0:0:0:0:
384,288,167595,1,8,0:0:0:0:
384,288,167688,1,0,0:0:0:0:
384,288,167782,1,0,0:0:0:0:
384,288,167876,1,8,0:0:0:0:
384,288,167970,1,8,0:0:0:0:
384,288,168157,1,0,0:0:0:0:
384,288,168345,1,8,0:0:0:0:
384,288,168438,1,0,0:0:0:0:
384,288,168532,1,0,0:0:0:0:
384,288,168720,1,8,0:0:0:0:
384,288,168907,1,0,0:0:0:0:
384,288,169095,1,8,0:0:0:0:
384,288,169188,1,8,0:0:0:0:
384,288,169282,1,0,0:0:0:0:
384,288,169376,1,0,0:0:0:0:
384,288,169470,1,8,0:0:0:0:
320,256,169845,1,0,0:0:0:0:
352,288,170032,1,8,0:0:0:0:
416,320,170407,1,0,0:0:0:0:
448,320,170595,1,0,0:0:0:0:
448,320,170782,1,8,0:0:0:0:
448,352,171157,1,0,0:0:0:0:
448,352,171345,1,8,0:0:0:0:
448,352,171532,1,8,0:0:0:0:
448,352,171907,1,0,0:0:0:0:
448,352,172095,1,8,0:0:0:0:
448,352,172282,1,0,0:0:0:0:
448,352,172845,1,8,0:0:0:0:
448,352,173220,1,0,0:0:0:0:
448,352,173595,1,0,0:0:0:0:
448,352,173782,1,8,0:0:0:0:
448,352,174157,1,0,0:0:0:0:
448,352,174345,1,0,0:0:0:0:
448,320,174532,1,8,0:0:0:0:
448,320,174907,1,0,0:0:0:0:
448,320,175095,1,8,0:0:0:0:
448,320,175282,1,0,0:0:0:0:
416,320,175470,1,4,0:0:0:0:
480,384,175845,1,8,0:0:0:0:
416,352,176220,1,0,0:0:0:0:
448,384,176595,1,0,0:0:0:0:
480,352,176782,1,8,0:0:0:0:
416,320,177157,1,0,0:0:0:0:
448,352,177345,1,0,0:0:0:0:
448,352,177532,1,8,0:0:0:0:
480,320,178095,1,8,0:0:0:0:
448,352,178845,1,8,0:0:0:0:
448,352,179220,1,0,0:0:0:0:
448,352,179595,1,0,0:0:0:0:
448,352,179782,1,8,0:0:0:0:
448,352,180157,1,0,0:0:0:0:
448,352,180345,1,0,0:0:0:0:
448,352,180532,1,8,0:0:0:0:
448,352,180907,1,0,0:0:0:0:
448,352,181095,1,8,0:0:0:0:
448,352,181282,1,0,0:0:0:0:
448,352,181470,1,0,0:0:0:0:
416,352,181563,1,0,0:0:0:0:
384,352,181657,1,8,0:0:0:0:
352,320,181751,1,0,0:0:0:0:
320,288,181845,1,8,0:0:0:0:
288,288,181938,1,8,0:0:0:0:
256,288,182032,1,0,0:0:0:0:
224,256,182126,1,0,0:0:0:0:
192,224,182220,1,8,0:0:0:0:
256,256,182407,1,8,0:0:0:0:
320,288,182595,1,8,0:0:0:0:
352,288,182688,1,8,0:0:0:0:
448,320,182970,1,8,0:0:0:0:
416,320,183063,1,8,0:0:0:0:
384,288,183157,1,0,0:0:0:0:
384,288,183251,1,0,0:0:0:0:
384,288,183345,1,8,0:0:0:0:
448,384,183438,1,8,0:0:0:0:
448,320,183720,1,8,0:0:0:0:
480,384,183907,1,8,0:0:0:0:
448,320,184095,1,8,0:0:0:0:
448,352,184188,1,8,0:0:0:0:
448,384,184470,1,0,0:0:0:0:
448,384,184563,1,8,0:0:0:0:
448,352,184657,1,0,0:0:0:0:
448,384,184751,1,8,0:0:0:0:
448,384,184845,1,0,0:0:0:0:
448,384,184938,1,0,0:0:0:0:
448,384,185032,1,8,0:0:0:0:
448,384,185126,1,8,0:0:0:0:
416,352,185220,1,8,0:0:0:0:
448,384,185407,1,8,0:0:0:0:
448,384,185595,1,8,0:0:0:0:
448,384,185688,1,8,0:0:0:0:
448,288,185970,1,0,0:0:0:0:
448,320,186063,1,0,0:0:0:0:
448,320,186157,1,8,0:0:0:0:
448,320,186251,1,8,0:0:0:0:
448,352,186345,1,0,0:0:0:0:
448,320,186438,1,0,0:0:0:0:
448,320,186532,1,8,0:0:0:0:
448,352,186626,1,8,0:0:0:0:
448,320,186720,1,0,0:0:0:0:
448,320,186813,1,8,0:0:0:0:
448,320,186907,1,0,0:0:0:0:
448,320,187001,1,0,0:0:0:0:
448,320,187095,1,8,0:0:0:0:
448,320,187188,1,8,0:0:0:0:
448,320,187282,1,0,0:0:0:0:
448,320,187376,1,0,0:0:0:0:
448,352,187470,1,0,0:0:0:0:
448,352,187563,1,0,0:0:0:0:
448,352,187657,1,8,0:0:0:0:
448,352,187751,1,0,0:0:0:0:
448,352,187845,1,0,0:0:0:0:
448,352,187938,1,8,0:0:0:0:
448,352,188032,1,8,0:0:0:0:
448,352,188126,1,0,0:0:0:0:
448,352,188220,1,8,0:0:0:0:
448,352,188407,1,8,0:0:0:0:
448,352,188595,1,8,0:0:0:0:
448,352,188688,1,8,0:0:0:0:
448,352,188970,1,8,0:0:0:0:
448,352,189063,1,0,0:0:0:0:
448,352,189157,1,8,0:0:0:0:
448,352,189251,1,8,0:0:0:0:
480,352,189345,1,8,0:0:0:0:
416,256,189720,1,8,0:0:0:0:
448,288,189907,1,8,0:0:0:0:
480,352,190095,1,8,0:0:0:0:
480,352,190188,1,8,0:0:0:0:
384,352,190470,1,0,0:0:0:0:
416,352,190563,1,8,0:0:0:0:
448,352,190657,1,0,0:0:0:0:
416,384,190751,1,8,0:0:0:0:
448,352,190845,1,8,0:0:0:0:
416,384,190938,1,8,0:0:0:0:
448,352,191032,1,0,0:0:0:0:
416,384,191126,1,0,0:0:0:0:
448,352,191220,1,8,0:0:0:0:
448,352,191407,1,8,0:0:0:0:
448,352,191595,1,8,0:0:0:0:
480,384,191688,1,8,0:0:0:0:
448,320,191970,1,0,0:0:0:0:
448,352,192063,1,0,0:0:0:0:
448,352,192157,1,8,0:0:0:0:
448,352,192251,1,8,0:0:0:0:
448,352,192345,1,8,0:0:0:0:
448,352,192720,1,8,0:0:0:0:
448,384,192907,1,8,0:0:0:0:
448,384,193095,1,8,0:0:0:0:
448,384,193188,1,8,0:0:0:0:
448,384,193470,1,0,0:0:0:0:
