osu file format v14

[General]
AudioFilename: audio.mp3
AudioLeadIn: 0
PreviewTime: 136470
Countdown: 0
SampleSet: Soft
StackLeniency: 0.7
Mode: 2
LetterboxInBreaks: 0
WidescreenStoryboard: 1

[Editor]
Bookmarks: 1470,25470,37470,61470,79470,91470,121470,139470,163470,193470
DistanceSpacing: 1
BeatDivisor: 4
GridSize: 4
TimelineZoom: 1

[Metadata]
Title:hot chocolate
TitleUnicode:hot chocolate
Artist:dark cat
ArtistUnicode:dark cat
Creator:JBHyperion
Version:Salad
Source:osu!
Tags:catstep chiptune dubstep lounge Benita Benny- BennyBananas Ascendance JBH Hyperion featured artist FA mappers guild MG MPG fruit factory electronic instrumental
BeatmapID:2223476
BeatmapSetID:1061800

[Difficulty]
HPDrainRate:4
CircleSize:3.2
OverallDifficulty:7
ApproachRate:7
SliderMultiplier:1.6
SliderTickRate:1

[Events]
//Background and Video events
0,0,"darkcathotchoc.jpg",0,0
//Break Periods
2,79295,83070
2,85295,89070
//Storyboard Layer 0 (Background)
//Storyboard Layer 1 (Fail)
//Storyboard Layer 2 (Pass)
//Storyboard Layer 3 (Foreground)
//Storyboard Layer 4 (Overlay)
//Storyboard Sound Samples

[TimingPoints]
1470,375,4,2,1,60,1,0
2595,-100,4,2,1,65,0,0
3345,-100,4,2,1,70,0,0
4095,-100,4,2,1,75,0,0
4845,-100,4,2,1,70,0,0
6345,-100,4,2,1,75,0,0
7095,-100,4,2,1,80,0,0
7845,-100,4,2,1,70,0,0
8595,-100,4,2,1,65,0,0
9345,-100,4,2,1,60,0,0
10095,-100,4,2,1,55,0,0
10845,-100,4,2,1,60,0,0
11595,-100,4,2,1,65,0,0
12345,-100,4,2,1,70,0,0
13095,-100,4,2,1,75,0,0
13470,-100,4,2,2,60,0,0
14595,-100,4,2,1,70,0,0
15345,-100,4,2,1,65,0,0
16095,-100,4,2,1,60,0,0
17220,-100,4,2,3,60,0,0
17595,-100,4,2,1,65,0,0
18345,-100,4,2,1,70,0,0
19095,-100,4,2,1,75,0,0
19470,-100,4,2,2,65,0,0
20220,-100,4,2,3,65,0,0
20595,-100,4,2,1,70,0,0
21345,-100,4,2,1,65,0,0
22095,-100,4,2,1,60,0,0
23220,-100,4,2,3,60,0,0
23595,-100,4,2,1,60,0,0
23970,-100,4,2,1,50,0,0
24720,-100,4,2,2,60,0,0
25095,-100,4,2,2,60,0,0
27532,-100,4,2,1,60,0,0
27720,-100,4,2,2,60,0,0
27907,-100,4,2,1,60,0,0
28470,-100,4,2,2,60,0,0
30345,-100,4,2,1,60,0,0
30720,-100,4,2,2,60,0,0
31095,-100,4,2,1,60,0,0
31470,-100,4,2,2,70,0,0
32032,-100,4,2,1,70,0,0
32220,-100,4,2,2,70,0,0
32970,-100,4,2,2,75,0,0
33720,-100,4,2,2,80,0,0
34470,-100,4,2,2,60,0,0
34845,-100,4,2,2,65,0,0
35220,-100,4,2,2,70,0,0
35595,-100,4,2,2,75,0,0
35970,-100,4,2,2,50,0,0
36345,-100,4,2,2,55,0,0
36720,-100,4,2,2,60,0,0
37095,-100,4,2,77,60,0,0
37470,-100,4,2,3,90,0,1
37657,-100,4,3,1,90,0,1
42907,-100,4,2,1,70,0,1
43470,-100,4,2,3,70,0,1
43657,-100,4,3,1,90,0,1
48907,-100,4,2,1,70,0,1
49470,-100,4,2,3,90,0,1
49657,-100,4,3,1,90,0,1
55095,-100,4,2,1,70,0,0
55470,-100,4,2,3,90,0,1
55657,-100,4,3,1,90,0,1
60907,-100,4,2,1,70,0,1
61470,-100,4,2,78,70,0,0
61657,-100,4,2,1,90,0,0
62595,-100,4,2,3,70,0,0
62970,-100,4,2,1,90,0,0
64095,-100,4,2,3,70,0,0
64470,-100,4,2,1,80,0,0
65595,-100,4,2,3,60,0,0
65970,-100,4,2,1,70,0,0
66345,-100,4,2,1,60,0,0
66720,-100,4,2,1,50,0,0
67095,-100,4,2,1,40,0,0
67470,-100,4,2,1,70,0,0
67845,-100,4,2,2,70,0,0
68220,-100,4,2,1,70,0,0
68595,-100,4,2,2,70,0,0
68970,-100,4,2,1,70,0,0
69345,-100,4,2,2,70,0,0
69720,-100,4,2,1,70,0,0
70095,-100,4,2,2,70,0,0
71220,-100,4,2,1,70,0,0
71595,-100,4,2,2,70,0,0
71970,-100,4,2,1,70,0,0
72345,-100,4,2,2,70,0,0
72720,-100,4,2,1,50,0,0
73095,-100,4,2,2,50,0,0
73470,-100,4,2,2,70,0,0
74220,-100,4,2,1,70,0,0
74595,-100,4,2,2,70,0,0
74970,-100,4,2,1,70,0,0
75345,-100,4,2,2,70,0,0
75720,-100,4,2,1,70,0,0
76095,-100,4,2,2,70,0,0
77220,-100,4,2,1,70,0,0
77595,-100,4,2,2,70,0,0
77970,-100,4,2,1,70,0,0
78345,-100,4,2,2,70,0,0
78532,-100,4,2,1,70,0,0
78720,-100,4,2,2,70,0,0
79095,-100,4,2,79,100,0,0
83970,-100,4,2,3,80,0,0
84345,-100,4,2,3,70,0,0
84720,-100,4,2,3,60,0,0
85095,-100,4,2,2,80,0,0
89970,-100,4,2,3,80,0,0
90345,-100,4,2,3,70,0,0
90720,-100,4,2,3,60,0,0
91095,-100,4,2,2,80,0,0
91282,-100,4,2,1,80,0,0
91470,-100,4,2,2,80,0,0
92220,-100,4,2,3,80,0,0
92970,-100,4,2,1,60,0,0
93720,-100,4,2,3,80,0,0
94282,-100,4,2,2,80,0,0
95220,-100,4,2,3,80,0,0
95970,-100,4,2,1,60,0,0
96720,-100,4,2,3,80,0,0
97282,-100,4,2,3,50,0,0
97470,-100,4,2,2,80,0,0
98220,-100,4,2,3,80,0,0
98970,-100,4,2,1,60,0,0
99720,-100,4,2,3,80,0,0
100282,-100,4,2,2,80,0,0
101220,-100,4,2,3,80,0,0
101970,-100,4,2,1,60,0,0
102720,-100,4,2,1,70,0,0
103095,-100,4,2,1,60,0,0
103470,-100,4,2,2,80,0,0
103845,-100,4,2,1,70,0,0
104220,-100,4,2,3,70,0,0
104407,-100,4,2,2,80,0,0
104595,-100,4,2,1,70,0,0
104782,-100,4,2,2,80,0,0
105157,-100,4,2,1,80,0,0
105720,-100,4,2,3,80,0,0
105907,-100,4,2,1,70,0,0
106282,-100,4,2,2,80,0,0
107032,-100,4,2,1,70,0,0
107220,-100,4,2,3,80,0,0
107595,-100,4,2,1,70,0,0
107970,-100,4,2,2,80,0,0
108345,-100,4,2,1,70,0,0
108532,-100,4,2,2,80,0,0
108720,-100,4,2,3,80,0,0
109095,-100,4,2,2,80,0,0
109282,-100,4,2,1,80,0,0
109470,-100,4,2,2,80,0,0
110220,-100,4,2,3,80,0,0
110595,-100,4,2,2,80,0,0
110782,-100,4,2,1,80,0,0
110970,-100,4,2,2,80,0,0
111157,-100,4,2,1,80,0,0
111720,-100,4,2,3,80,0,0
112282,-100,4,2,2,80,0,0
112470,-100,4,2,2,85,0,0
113220,-100,4,2,2,90,0,0
113970,-100,4,2,2,95,0,0
114157,-100,4,2,2,85,0,0
114345,-100,4,2,2,75,0,0
114720,-100,4,2,78,60,0,0
115095,-100,4,2,2,57,0,0
115470,-100,4,2,2,54,0,0
115845,-100,4,2,2,51,0,0
116220,-100,4,2,2,48,0,0
116595,-100,4,2,2,45,0,0
116970,-100,4,2,2,42,0,0
117345,-100,4,2,2,39,0,0
117720,-100,4,2,2,36,0,0
118095,-100,4,2,2,33,0,0
118470,-100,4,2,2,30,0,0
121470,-100,4,2,2,80,0,0
121845,-100,4,2,1,80,0,0
122032,-100,4,2,2,80,0,0
122220,-100,4,2,1,80,0,0
122407,-100,4,2,2,80,0,0
123345,-100,4,2,1,80,0,0
123532,-100,4,2,2,80,0,0
124845,-100,4,2,1,80,0,0
125032,-100,4,2,2,80,0,0
125220,-100,4,2,1,80,0,0
125407,-100,4,2,2,80,0,0
127845,-100,4,2,1,80,0,0
128032,-100,4,2,2,80,0,0
128220,-100,4,2,1,80,0,0
128407,-100,4,2,2,80,0,0
129345,-100,4,2,1,80,0,0
129532,-100,4,2,2,80,0,0
130282,-100,4,2,1,80,0,0
130469,-100,4,2,2,80,0,0
130845,-100,4,2,1,80,0,0
131032,-100,4,2,2,80,0,0
131220,-100,4,2,1,80,0,0
131407,-100,4,2,2,80,0,0
131782,-100,4,2,1,80,0,0
131969,-100,4,2,2,80,0,0
132345,-100,4,2,1,80,0,0
132532,-100,4,2,2,80,0,0
132907,-100,4,2,2,40,0,0
134970,-100,4,2,2,35,0,0
135345,-100,4,2,2,30,0,0
135720,-100,4,2,2,25,0,0
136095,-100,4,2,2,20,0,0
136470,-100,4,2,2,50,0,0
137220,-100,4,2,2,60,0,0
137970,-100,4,2,2,70,0,0
138345,-100,4,2,2,75,0,0
138720,-100,4,2,2,80,0,0
139095,-100,4,2,77,60,0,0
139470,-100,4,2,3,90,0,1
139657,-100,4,3,1,90,0,1
144907,-100,4,2,1,70,0,1
145470,-100,4,2,3,70,0,1
145657,-100,4,3,1,90,0,1
150907,-100,4,2,1,70,0,1
151470,-100,4,2,3,90,0,1
151657,-100,4,3,1,90,0,1
157095,-100,4,2,1,100,0,0
157470,-100,4,2,3,90,0,1
157657,-100,4,3,1,90,0,1
162907,-100,4,2,1,70,0,1
163470,-100,4,2,78,70,0,0
163657,-100,4,2,1,90,0,0
164595,-100,4,2,3,70,0,0
164970,-100,4,2,1,90,0,0
166095,-100,4,2,3,70,0,0
166470,-100,4,2,1,80,0,0
167595,-100,4,2,3,60,0,0
167970,-100,4,2,1,70,0,0
168345,-100,4,2,1,60,0,0
168720,-100,4,2,1,50,0,0
169095,-100,4,2,1,40,0,0
169470,-100,4,2,4,70,0,0
169845,-100,4,2,1,70,0,0
170595,-100,4,2,1,75,0,0
171345,-100,4,2,1,80,0,0
172095,-100,4,2,1,85,0,0
172845,-100,4,2,1,80,0,0
174345,-100,4,2,1,85,0,0
175095,-100,4,2,1,90,0,0
175845,-100,4,2,1,80,0,0
176595,-100,4,2,1,75,0,0
177345,-100,4,2,1,70,0,0
178095,-100,4,2,1,65,0,0
178845,-100,4,2,1,70,0,0
179595,-100,4,2,1,75,0,0
180345,-100,4,2,1,80,0,0
181095,-100,4,2,1,85,0,0
181470,-100,4,2,2,70,0,0
182595,-100,4,2,1,80,0,0
183345,-100,4,2,1,75,0,0
183720,-100,4,2,2,60,0,0
184095,-100,4,2,1,70,0,0
185220,-100,4,2,3,70,0,0
185595,-100,4,2,1,75,0,0
186345,-100,4,2,1,80,0,0
186720,-100,4,2,3,70,0,0
187095,-100,4,2,1,85,0,0
187470,-100,4,2,2,75,0,0
188220,-100,4,2,3,75,0,0
188595,-100,4,2,1,80,0,0
189345,-100,4,2,1,70,0,0
189720,-100,4,2,3,70,0,0
190095,-100,4,2,1,70,0,0
191220,-100,4,2,3,70,0,0
191595,-100,4,2,1,70,0,0
191970,-100,4,2,1,60,0,0
192720,-100,4,2,1,50,0,0
193095,-100,4,2,1,40,0,0
193470,-100,4,2,1,30,0,0

[Colours]
Combo1 : 225,100,175
Combo2 : 150,75,25
Combo3 : 255,200,75
Combo4 : 225,150,225

[HitObjects]
156,154,1470,5,8,0:0:0:0:
292,154,1845,2,0,L|296:74,1,80,0|2,0:0|0:0,0:0:0:0:
424,82,2407,2,0,L|493:42,2,80,2|0|2,0:0|0:0|0:0,0:0:0:0:
296,82,3157,5,2,0:0:0:0:
368,82,3345,1,0,0:0:0:0:
440,82,3532,1,2,0:0:0:0:
296,194,3907,2,0,L|384:194,2,80,0|2|0,0:0|0:0|0:0,0:0:0:0:
152,198,4845,6,0,P|144:114|152:34,1,160,2|0,0:0|0:0,0:0:0:0:
296,38,5595,2,0,L|219:82,1,80,0|2,0:0|0:0,0:0:0:0:
368,38,6157,5,2,0:0:0:0:
296,38,6345,1,0,0:0:0:0:
224,38,6532,1,2,0:0:0:0:
368,122,6907,1,0,0:0:0:0:
280,122,7095,2,0,L|196:122,1,80,2|0,0:0|0:0,0:0:0:0:
20,122,7470,5,12,0:0:0:0:
20,122,7845,2,0,L|180:122,1,160,2|2,0:0|0:0,0:0:0:0:
324,122,8595,2,0,L|328:30,1,80,0|2,0:0|0:0,0:0:0:0:
184,42,9157,5,2,0:0:0:0:
264,42,9345,2,0,L|268:122,1,80,0|2,0:0|0:0,0:0:0:0:
188,122,9720,2,0,L|44:194,2,160,8|2|0,0:0|0:0|0:0,0:0:0:0:
332,118,10845,6,0,P|344:230|336:278,1,160,2|0,0:0|0:0,0:0:0:0:
192,278,11595,2,0,L|264:242,1,80,0|2,0:0|0:0,0:0:0:0:
108,278,12157,5,2,0:0:0:0:
176,235,12344,1,0,0:0:0:0:
244,193,12532,1,2,0:0:0:0:
84,194,12907,1,0,0:0:0:0:
164,194,13095,2,0,L|80:194,1,80,2|8,0:0|0:0,0:0:0:0:
264,194,13470,5,10,0:0:0:0:
264,194,13845,2,0,L|104:194,1,160,8|8,0:0|0:0,0:0:0:0:
280,194,14595,2,0,L|284:114,1,80,0|2,0:0|0:0,0:0:0:0:
156,114,15157,5,2,0:0:0:0:
220,114,15345,1,0,0:0:0:0:
284,114,15532,1,2,0:0:0:0:
196,114,15720,2,0,L|192:282,1,160,0|2,0:0|0:0,0:0:0:0:
320,274,16470,5,0,0:0:0:0:
160,278,16845,2,0,L|156:114,1,160,2|8,0:0|0:0,0:0:0:0:
316,118,17595,2,0,L|243:75,1,80,0|2,0:0|0:0,0:0:0:0:
120,78,18157,5,2,0:0:0:0:
208,78,18345,2,0,L|135:35,1,80,0|2,0:0|0:0,0:0:0:0:
52,38,18720,1,0,0:0:0:0:
52,38,18907,1,0,0:0:0:0:
144,38,19095,2,0,L|64:38,1,80,2|8,0:0|0:0,0:0:0:0:
244,38,19470,5,10,0:0:0:0:
244,38,19845,2,0,L|416:38,1,160,8|8,0:0|0:0,0:0:0:0:
228,38,20595,2,0,L|224:122,1,80,0|2,0:0|0:0,0:0:0:0:
384,118,21157,5,2,0:0:0:0:
384,198,21345,1,0,0:0:0:0:
304,198,21532,1,2,0:0:0:0:
224,198,21720,2,0,L|220:38,1,160,0|2,0:0|0:0,0:0:0:0:
92,38,22470,5,0,0:0:0:0:
252,270,22845,2,0,L|392:194,2,160,2|8|0,0:0|0:0|0:0,0:0:0:0:
124,274,23970,6,0,L|120:114,1,160,2|0,0:0|0:0,0:0:0:0:
432,110,24720,2,0,B|432:190|432:190|352:194,1,160,10|2,0:0|0:0,0:0:0:0:
40,194,25470,6,0,L|188:130,1,160,12|2,0:0|0:0,0:0:0:0:
252,130,26032,1,8,0:0:0:0:
188,130,26220,1,2,0:0:0:0:
28,130,26595,2,0,L|24:42,1,80,8|2,0:0|0:2,0:0:0:0:
120,50,26970,6,0,L|208:50,1,80,2|8,0:0|0:0,0:0:0:0:
80,50,27532,1,2,0:0:0:0:
160,50,27720,2,0,L|248:50,1,80,8|2,0:0|0:0,0:0:0:0:
360,50,28282,1,0,0:0:0:0:
280,50,28470,6,0,L|276:214,1,160,8|2,0:0|0:0,0:0:0:0:
356,210,29032,1,8,0:0:0:0:
276,210,29220,1,2,0:0:0:0:
116,210,29595,2,0,L|112:302,1,80,8|0,0:0|0:0,0:0:0:0:
208,290,29970,5,2,0:0:0:0:
284,243,30157,1,8,0:0:0:0:
284,154,30345,1,2,0:0:0:0:
208,106,30532,1,2,0:0:0:0:
112,106,30720,1,8,0:0:0:0:
272,106,31095,2,0,L|276:10,1,80,2|0,0:0|0:0,0:0:0:0:
96,26,31470,6,0,L|256:26,1,160,8|2,0:0|0:0,0:0:0:0:
336,26,32032,1,2,0:0:0:0:
256,26,32220,2,0,L|416:26,1,160,2|8,0:0|0:0,0:0:0:0:
104,26,32970,5,8,0:0:0:0:
48,90,33157,1,8,0:0:0:0:
68,170,33345,1,2,0:0:0:0:
148,194,33532,1,8,0:0:0:0:
244,194,33720,2,0,L|84:170,1,160,2|2,0:0|0:0,0:0:0:0:
396,170,34470,6,0,L|400:258,1,80,8|2,0:0|0:0,0:0:0:0:
304,250,34845,2,0,L|300:170,1,80,2|8,0:0|0:0,0:0:0:0:
488,168,35220,1,8,0:0:0:0:
468,76,35407,1,2,0:0:0:0:
372,76,35595,1,8,0:0:0:0:
256,192,35970,12,8,36720,0:0:0:0:
88,192,37095,5,4,0:0:0:0:
408,192,37470,6,0,P|456:168|408:100,1,160,6|2,0:0|0:2,0:0:0:0:
320,100,38032,1,0,0:0:0:0:
416,100,38220,2,0,L|488:57,2,80,8|2|2,0:0|0:2|0:2,0:0:0:0:
96,100,38970,6,0,L|92:188,1,80,2|0,0:2|0:0,0:0:0:0:
192,180,39345,2,0,L|196:272,1,80,2|0,0:0|0:0,0:0:0:0:
100,260,39720,2,0,L|188:260,1,80,8|2,0:0|0:0,0:0:0:0:
276,260,40095,1,2,0:2:0:0:
172,260,40282,1,0,0:0:0:0:
356,260,40470,6,0,B|436:260|436:260|436:180,1,160,2|2,0:0|0:2,0:0:0:0:
348,180,41032,1,0,0:0:0:0:
260,180,41220,1,8,0:0:0:0:
340,180,41407,1,2,0:2:0:0:
420,180,41595,1,2,0:2:0:0:
100,180,41970,6,0,L|96:100,1,80,2|0,0:2|0:0,0:0:0:0:
184,100,42345,2,0,L|96:100,1,80,2|0,0:0|0:0,0:0:0:0:
16,100,42720,2,0,L|96:100,1,80,8|0,0:0|0:0,0:0:0:0:
280,100,43095,1,2,0:0:0:0:
280,100,43470,6,0,P|332:140|276:192,1,160,6|2,0:0|0:2,0:0:0:0:
184,100,44032,1,0,0:0:0:0:
280,100,44220,2,0,L|360:100,1,80,8|2,0:0|0:2,0:0:0:0:
360,100,44595,1,2,0:2:0:0:
40,100,44970,6,0,L|36:184,1,80,2|0,0:2|0:0,0:0:0:0:
132,180,45345,2,0,L|136:268,1,80,2|0,0:0|0:0,0:0:0:0:
40,260,45720,2,0,L|124:260,1,80,8|0,0:0|0:0,0:0:0:0:
216,260,46095,1,2,0:0:0:0:
112,260,46282,1,0,0:0:0:0:
296,260,46470,6,0,B|400:260|400:260|400:320,1,160,2|2,0:0|0:2,0:0:0:0:
312,340,47032,1,0,0:0:0:0:
224,340,47220,1,8,0:0:0:0:
320,340,47407,1,2,0:2:0:0:
416,340,47595,1,2,0:2:0:0:
96,340,47970,6,0,L|12:340,2,80,2|0|2,0:2|0:0|0:0,0:0:0:0:
184,340,48532,1,0,0:0:0:0:
88,340,48720,2,0,L|84:256,1,80,8|0,0:0|0:0,0:0:0:0:
268,260,49095,1,2,0:0:0:0:
268,260,49470,6,0,L|96:260,1,160,6|2,0:0|0:2,0:0:0:0:
196,260,50032,1,0,0:0:0:0:
284,260,50220,1,8,0:0:0:0:
372,260,50407,1,2,0:2:0:0:
372,260,50595,1,2,0:2:0:0:
52,260,50970,6,0,L|48:172,1,80,2|0,0:2|0:0,0:0:0:0:
152,180,51345,2,0,L|156:88,1,80,2|0,0:0|0:0,0:0:0:0:
260,100,51720,2,0,L|348:100,2,80,8|2|2,0:0|0:0|0:0,0:0:0:0:
164,100,52282,1,0,0:0:0:0:
348,104,52470,6,0,B|348:184|348:184|268:184,1,160,2|2,0:2|0:2,0:0:0:0:
172,184,53032,1,0,0:0:0:0:
260,184,53220,1,8,0:0:0:0:
180,184,53407,1,2,0:2:0:0:
100,184,53595,1,2,0:2:0:0:
420,192,53970,6,0,L|424:112,1,80,2|0,0:2|0:0,0:0:0:0:
336,112,54345,2,0,L|424:112,1,80,2|0,0:0|0:0,0:0:0:0:
320,112,54720,2,0,L|312:28,1,80,8|2,0:0|0:2,0:0:0:0:
320,112,55470,6,0,L|160:112,1,160,6|2,0:0|0:2,0:0:0:0:
72,112,56032,1,0,0:0:0:0:
168,112,56220,2,0,L|248:112,2,80,8|2|2,0:0|0:2|0:2,0:0:0:0:
480,112,56970,6,0,L|484:196,1,80,2|0,0:0|0:0,0:0:0:0:
388,192,57345,2,0,L|472:192,1,80,2|2,0:0|0:2,0:0:0:0:
380,192,57720,2,0,L|296:192,1,80,8|2,0:0|0:0,0:0:0:0:
212,192,58095,1,0,0:0:0:0:
316,192,58282,1,0,0:0:0:0:
132,192,58470,6,0,B|132:272|132:272|228:272,1,160,2|2,0:0|0:2,0:0:0:0:
300,272,59032,1,0,0:0:0:0:
212,272,59220,1,8,0:0:0:0:
308,272,59407,1,2,0:2:0:0:
404,272,59595,1,2,0:2:0:0:
84,272,59970,6,0,L|11:230,2,80,2|8|2,0:2|0:0|0:0,0:0:0:0:
172,272,60532,1,0,0:0:0:0:
76,272,60720,2,0,L|156:272,1,80,8|0,0:0|0:0,0:0:0:0:
348,272,61095,1,2,0:0:0:0:
348,272,61470,6,0,B|268:272|268:272|268:188,1,160,4|2,0:0|0:2,0:0:0:0:
356,192,62032,1,0,0:0:0:0:
444,192,62220,2,0,L|456:108,2,80,2|0|8,0:0|0:0|0:0,0:0:0:0:
284,192,62970,6,0,L|444:192,1,160,0|2,0:0|0:0,0:0:0:0:
356,192,63532,1,0,0:0:0:0:
268,192,63720,1,2,0:0:0:0:
460,192,64095,1,8,0:0:0:0:
164,192,64470,6,0,P|116:136|164:76,1,160,2|0,0:0|0:0,0:0:0:0:
248,76,65032,1,0,0:0:0:0:
152,76,65220,2,0,L|128:0,2,80,2|0|8,0:0|0:0|0:0,0:0:0:0:
312,76,65970,6,0,P|312:160|256:204,1,160,2|0,0:0|0:0,0:0:0:0:
96,200,66720,2,0,L|100:360,1,160,2|0,0:0|0:0,0:0:0:0:
404,360,67470,6,0,P|448:300|408:232,1,160,8|8,0:0|0:0,0:0:0:0:
328,232,68032,1,0,0:0:0:0:
248,232,68220,2,0,L|244:144,1,80,2|0,0:0|0:0,0:0:0:0:
336,152,68595,1,8,0:0:0:0:
176,152,68970,6,0,L|37:72,1,160,2|8,0:0|0:0,0:0:0:0:
37,72,69532,1,0,0:0:0:0:
124,72,69720,2,0,L|128:168,1,80,2|2,0:0|0:0,0:0:0:0:
40,152,70095,1,8,0:0:0:0:
136,152,70282,1,0,0:0:0:0:
312,152,70470,6,0,P|356:212|316:280,1,160,2|8,0:0|0:0,0:0:0:0:
236,280,71032,1,0,0:0:0:0:
156,280,71220,2,0,L|152:368,1,80,2|0,0:0|0:0,0:0:0:0:
244,360,71595,2,0,L|160:360,1,80,8|0,0:0|0:0,0:0:0:0:
252,360,71970,6,0,L|390:280,1,160,2|8,0:0|0:0,0:0:0:0:
390,280,72532,1,0,0:0:0:0:
304,280,72720,2,0,L|300:376,1,80,2|2,0:0|0:0,0:0:0:0:
394,360,73095,2,0,L|390:280,1,80,8|0,0:0|0:0,0:0:0:0:
212,280,73470,6,0,B|132:280|132:280|132:196,1,160,2|8,0:0|0:0,0:0:0:0:
220,192,74032,1,0,0:0:0:0:
124,200,74220,2,0,L|40:192,2,80,2|0|8,0:0|0:0|0:0,0:0:0:0:
284,200,74970,6,0,P|336:160|284:104,1,160,2|8,0:0|0:0,0:0:0:0:
204,104,75532,1,0,0:0:0:0:
292,104,75720,2,0,L|296:24,1,80,2|2,0:0|0:0,0:0:0:0:
208,24,76095,2,0,L|128:24,1,80,8|0,0:0|0:0,0:0:0:0:
304,24,76470,6,0,L|446:106,1,160,2|8,0:0|0:0,0:0:0:0:
356,104,77032,1,0,0:0:0:0:
268,104,77220,2,0,L|264:204,1,80,2|0,0:0|0:0,0:0:0:0:
352,192,77595,2,0,L|436:192,1,80,8|0,0:0|0:0,0:0:0:0:
344,192,77970,6,0,L|205:272,1,160,2|8,0:0|0:0,0:0:0:0:
292,272,78532,1,2,0:0:0:0:
468,272,78720,1,8,0:0:0:0:
340,272,79095,1,4,0:0:0:0:
152,192,83970,6,0,L|312:192,2,160,12|12|12,0:0|0:0|0:0,0:0:0:0:
152,192,84907,1,0,0:0:0:0:
332,192,85095,1,8,0:0:0:0:
384,192,89970,6,0,L|224:192,2,160,12|12|12,0:0|0:0|0:0,0:0:0:0:
80,192,91095,2,0,L|76:104,1,80,8|2,0:0|0:0,0:0:0:0:
252,116,91470,6,0,P|268:188|252:276,1,160,2|0,0:0|0:0,0:0:0:0:
108,272,92220,2,0,L|104:112,1,160,8|0,0:0|0:0,0:0:0:0:
242,192,92970,6,0,L|103:112,1,160,2|2,0:0|0:0,0:0:0:0:
280,192,93720,2,0,L|284:32,1,160,8|0,0:0|0:0,0:0:0:0:
196,32,94282,1,2,0:0:0:0:
296,32,94470,6,0,P|344:72|292:136,1,160,2|0,0:0|0:0,0:0:0:0:
136,56,95220,2,0,L|274:136,1,160,0|0,0:0|0:0,0:0:0:0:
436,136,95970,6,0,L|432:304,1,160,2|2,0:0|0:0,0:0:0:0:
272,296,96720,2,0,B|192:296|192:296|192:216,1,160,8|0,0:0|0:0,0:0:0:0:
272,216,97282,1,8,0:0:0:0:
176,216,97470,6,0,L|16:192,1,160,2|0,0:0|0:0,0:0:0:0:
176,216,98220,2,0,L|49:115,1,160,8|0,0:0|0:0,0:0:0:0:
212,216,98970,6,0,L|338:115,1,160,2|2,0:0|0:0,0:0:0:0:
192,216,99720,2,0,L|173:55,1,160,8|0,0:0|0:0,0:0:0:0:
260,56,100282,1,2,0:0:0:0:
348,56,100470,6,0,L|180:56,1,160,2|0,0:0|0:0,0:0:0:0:
356,140,101220,2,0,L|192:140,1,160,8|0,0:0|0:0,0:0:0:0:
36,140,101970,6,0,L|32:312,1,160,2|2,0:0|0:0,0:0:0:0:
173,300,102720,2,0,P|141:188|36:140,1,240,8|0,0:0|0:0,0:0:0:0:
212,140,103470,6,0,L|372:140,1,160,2|2,0:0|0:0,0:0:0:0:
372,140,104032,1,2,0:0:0:0:
292,140,104220,1,8,0:0:0:0:
132,136,104595,2,0,L|128:44,1,80,2|2,0:0|0:0,0:0:0:0:
224,56,104970,6,0,L|220:140,1,80,2|2,0:0|0:0,0:0:0:0:
100,136,105532,1,0,0:0:0:0:
196,136,105720,2,0,L|268:178,2,80,8|2|2,0:0|0:0|0:0,0:0:0:0:
108,136,106282,1,2,0:0:0:0:
284,176,106470,6,0,P|316:248|264:304,1,160,2|2,0:0|0:0,0:0:0:0:
184,304,107032,1,2,0:0:0:0:
104,304,107220,1,8,0:0:0:0:
192,304,107407,2,0,L|196:216,1,80,0|2,0:0|0:0,0:0:0:0:
36,192,107970,5,2,0:0:0:0:
45,113,108157,1,2,0:0:0:0:
98,55,108345,1,2,0:0:0:0:
175,39,108532,1,2,0:0:0:0:
80,40,108720,1,8,0:0:0:0:
224,40,109095,2,0,L|304:40,1,80,2|2,0:0|0:0,0:0:0:0:
488,40,109470,6,0,P|488:116|432:172,1,160,2|2,0:0|0:0,0:0:0:0:
348,192,110032,1,2,0:0:0:0:
264,192,110220,2,0,L|260:288,1,80,8|0,0:0|0:0,0:0:0:0:
344,272,110595,1,2,0:0:0:0:
180,276,110970,6,0,L|172:192,1,80,2|2,0:0|0:0,0:0:0:0:
256,192,111345,2,0,L|260:112,1,80,0|2,0:0|0:0,0:0:0:0:
172,112,111720,1,8,0:0:0:0:
300,112,112095,2,0,L|216:112,1,80,0|2,0:0|0:0,0:0:0:0:
44,112,112470,6,0,L|40:200,3,80,2|2|2|2,0:0|0:0|0:0|0:0,0:0:0:0:
128,192,113220,2,0,L|44:192,1,80,8|2,0:0|0:0,0:0:0:0:
136,192,113595,2,0,L|220:192,1,80,8|2,0:0|0:0,0:0:0:0:
120,192,113970,5,10,0:0:0:0:
52,224,114157,1,2,0:0:0:0:
49,299,114345,1,8,0:0:0:0:
116,336,114532,1,2,0:0:0:0:
308,336,114720,5,4,0:0:0:0:
256,192,115095,12,2,118470,0:0:0:0:
424,192,121470,5,8,0:0:0:0:
280,192,121845,2,0,L|208:152,2,80,2|8|0,0:0|0:0|0:0,0:0:0:0:
440,192,122595,1,8,0:0:0:0:
144,192,122970,6,0,P|100:252|144:312,1,160,8|2,0:0|0:0,0:0:0:0:
224,312,123532,2,0,L|380:260,1,160,8|0,0:0|0:0,0:0:0:0:
284,192,124095,2,0,L|280:100,1,80,8|0,0:0|0:0,0:0:0:0:
460,112,124470,5,8,0:0:0:0:
324,112,124845,1,2,0:0:0:0:
404,112,125032,1,8,0:0:0:0:
324,112,125220,2,0,L|181:30,1,160,2|8,0:0|0:0,0:0:0:0:
264,32,125782,1,0,0:0:0:0:
344,32,125970,6,0,P|388:88|344:152,1,160,8|0,0:0|0:0,0:0:0:0:
256,156,126532,2,0,B|256:236|256:236|336:236,1,160,8|0,0:0|0:0,0:0:0:0:
424,236,127095,1,8,0:0:0:0:
120,236,127470,5,8,0:0:0:0:
264,236,127845,1,2,0:0:0:0:
192,236,128032,1,8,0:0:0:0:
120,236,128220,2,0,B|120:320|120:320|200:320,1,160,2|8,0:0|0:0,0:0:0:0:
276,320,128782,1,0,0:0:0:0:
188,320,128970,6,0,L|40:256,1,160,8|2,0:0|0:0,0:0:0:0:
136,256,129532,2,0,L|284:192,1,160,8|0,0:0|0:0,0:0:0:0:
188,192,130095,2,0,L|272:192,1,80,8|2,0:0|0:0,0:0:0:0:
444,192,130470,5,8,0:0:0:0:
284,192,130845,1,2,0:0:0:0:
224,128,131032,1,8,0:0:0:0:
280,68,131220,1,2,0:0:0:0:
456,68,131595,2,0,L|456:160,1,80,8|2,0:0|0:0,0:0:0:0:
368,148,131970,6,0,B|288:148|288:148|372:148,1,160,8|2,0:0|0:0,0:0:0:0:
192,148,132532,1,8,0:0:0:0:
256,192,132907,12,0,136095,0:0:0:0:
140,192,136470,6,0,L|144:280,1,80,2|0,0:0|0:0,0:0:0:0:
48,272,136845,2,0,L|44:192,1,80,2|0,0:0|0:0,0:0:0:0:
140,192,137220,2,0,L|210:152,1,80,2|0,0:0|0:0,0:0:0:0:
108,124,137595,2,0,L|178:84,1,80,2|0,0:0|0:0,0:0:0:0:
356,84,137970,6,0,L|426:124,1,80,8|2,0:0|0:0,0:0:0:0:
328,124,138345,2,0,L|259:164,1,80,8|2,0:0|0:0,0:0:0:0:
444,164,138720,1,8,0:0:0:0:
444,164,139095,2,0,L|444:256,1,80,4|0,0:0|0:0,0:0:0:0:
252,336,139470,6,0,P|204:312|252:244,1,160,6|2,0:0|0:2,0:0:0:0:
340,244,140032,1,0,0:0:0:0:
244,244,140220,1,8,0:0:0:0:
244,244,140407,1,2,0:2:0:0:
340,244,140595,1,2,0:2:0:0:
20,244,140970,6,0,L|16:156,1,80,2|0,0:0|0:0,0:0:0:0:
112,164,141345,2,0,L|116:72,1,80,2|0,0:0|0:0,0:0:0:0:
208,84,141720,2,0,L|296:84,1,80,8|2,0:0|0:0,0:0:0:0:
376,84,142095,1,2,0:2:0:0:
280,84,142282,1,0,0:0:0:0:
464,84,142470,6,0,B|464:164|464:164|384:164,1,160,2|2,0:0|0:2,0:0:0:0:
304,164,143032,1,0,0:0:0:0:
216,164,143220,1,8,0:0:0:0:
304,164,143407,1,2,0:2:0:0:
392,164,143595,1,2,0:2:0:0:
72,164,143970,6,0,L|68:244,1,80,2|0,0:0|0:0,0:0:0:0:
156,244,144345,2,0,L|68:244,1,80,2|0,0:0|0:0,0:0:0:0:
164,320,144720,2,0,L|84:320,1,80,8|0,0:0|0:0,0:0:0:0:
84,320,145095,1,2,0:0:0:0:
404,320,145470,6,0,P|456:280|400:228,1,160,6|2,0:0|0:2,0:0:0:0:
316,320,146032,1,0,0:0:0:0:
412,320,146220,2,0,L|492:320,2,80,8|2|2,0:0|0:2|0:2,0:0:0:0:
92,320,146970,6,0,L|88:236,1,80,2|0,0:0|0:0,0:0:0:0:
184,240,147345,1,2,0:0:0:0:
96,240,147532,1,2,0:2:0:0:
192,240,147720,2,0,L|276:240,1,80,8|0,0:0|0:0,0:0:0:0:
272,240,148095,1,2,0:2:0:0:
168,240,148282,1,0,0:0:0:0:
352,240,148470,6,0,B|432:240|432:240|432:144,1,160,2|2,0:0|0:2,0:0:0:0:
344,160,149032,1,0,0:0:0:0:
272,128,149220,1,8,0:0:0:0:
272,48,149407,1,2,0:2:0:0:
340,8,149595,1,2,0:2:0:0:
244,8,149782,1,8,0:0:0:0:
428,8,149970,6,0,L|500:50,2,80,2|0|2,0:0|0:0|0:0,0:0:0:0:
340,8,150532,1,0,0:0:0:0:
156,8,150720,2,0,L|152:92,1,80,8|0,0:0|0:0,0:0:0:0:
152,87,151095,1,2,0:0:0:0:
472,88,151470,6,0,L|300:88,1,160,6|2,0:0|0:2,0:0:0:0:
232,88,152032,1,0,0:0:0:0:
320,88,152220,1,8,0:0:0:0:
408,88,152407,1,2,0:2:0:0:
408,88,152595,1,2,0:2:0:0:
88,88,152970,6,0,L|84:176,1,80,2|0,0:0|0:0,0:0:0:0:
188,168,153345,2,0,L|192:260,1,80,2|0,0:0|0:0,0:0:0:0:
296,248,153720,2,0,L|384:248,2,80,8|2|2,0:0|0:0|0:2,0:0:0:0:
200,248,154282,1,8,0:0:0:0:
392,244,154470,6,0,B|392:164|392:164|312:164,1,160,2|0,0:0|0:2,0:0:0:0:
216,164,155032,1,0,0:0:0:0:
304,164,155220,1,8,0:0:0:0:
304,76,155407,1,2,0:2:0:0:
216,76,155595,2,0,L|212:160,1,80,2|0,0:2|0:0,0:0:0:0:
396,156,155970,5,2,0:0:0:0:
405,233,156157,1,0,0:0:0:0:
361,299,156345,1,2,0:0:0:0:
286,321,156532,1,0,0:0:0:0:
472,316,156720,2,0,L|480:216,1,80,8|2,0:0|0:2,0:0:0:0:
478,236,157470,6,0,L|318:236,1,160,6|2,0:0|0:2,0:0:0:0:
230,236,158032,1,0,0:0:0:0:
326,236,158220,2,0,L|406:236,2,80,8|2|2,0:0|0:2|0:2,0:0:0:0:
240,236,158782,1,0,0:0:0:0:
424,236,158970,6,0,L|428:152,1,80,2|0,0:0|0:0,0:0:0:0:
384,156,159251,1,0,0:0:0:0:
340,156,159345,2,0,L|336:64,1,80,2|2,0:0|0:2,0:0:0:0:
159,76,159720,2,0,L|155:160,1,80,8|2,0:0|0:0,0:0:0:0:
247,156,160095,1,2,0:2:0:0:
143,156,160282,1,8,0:0:0:0:
327,156,160470,6,0,B|484:192,1,160,2|2,0:0|0:2,0:0:0:0:
482,191,161032,1,0,0:0:0:0:
384,192,161220,2,0,L|472:192,2,80,8|2|2,0:0|0:2|0:2,0:0:0:0:
296,192,161782,1,8,0:0:0:0:
112,192,161970,6,0,L|39:150,1,80,2|8,0:0|0:0,0:0:0:0:
77,172,162251,1,2,0:0:0:0:
112,192,162345,1,2,0:0:0:0:
200,192,162532,1,0,0:0:0:0:
16,192,162720,2,0,L|12:104,1,80,8|0,0:0|0:0,0:0:0:0:
12,112,163095,1,2,0:0:0:0:
316,192,163470,6,0,B|396:192|396:192|396:108,1,160,4|2,0:0|0:2,0:0:0:0:
316,112,164032,1,0,0:0:0:0:
236,112,164220,2,0,L|224:28,2,80,2|0|8,0:0|0:0|0:0,0:0:0:0:
316,112,164782,1,0,0:0:0:0:
228,112,164970,6,0,L|68:112,1,160,2|2,0:0|0:0,0:0:0:0:
156,112,165532,1,0,0:0:0:0:
244,112,165720,2,0,L|248:24,1,80,2|0,0:0|0:0,0:0:0:0:
152,32,166095,1,8,0:0:0:0:
448,32,166470,6,0,P|496:88|448:148,1,160,2|2,0:0|0:0,0:0:0:0:
364,148,167032,1,0,0:0:0:0:
460,148,167220,2,0,L|484:224,2,80,2|0|8,0:0|0:0|0:0,0:0:0:0:
300,312,167970,5,2,0:0:0:0:
298,233,168157,1,0,0:0:0:0:
344,170,168345,1,0,0:0:0:0:
420,148,168532,1,0,0:0:0:0:
504,148,168720,2,0,L|512:312,1,160,2|0,0:0|0:0,0:0:0:0:
208,192,169470,6,0,P|160:256|208:304,1,160,6|0,0:0|0:0,0:0:0:0:
280,304,170032,1,2,0:0:0:0:
136,304,170407,2,0,L|67:344,2,80,2|0|2,0:0|0:0|0:0,0:0:0:0:
264,304,171157,5,2,0:0:0:0:
192,304,171345,1,0,0:0:0:0:
120,304,171532,1,2,0:0:0:0:
264,192,171907,1,0,0:0:0:0:
88,192,172095,2,0,L|84:104,1,80,2|0,0:0|0:0,0:0:0:0:
304,12,172845,6,0,L|464:12,1,160,2|0,0:0|0:0,0:0:0:0:
280,192,173595,2,0,L|357:148,1,80,0|2,0:0|0:0,0:0:0:0:
208,192,174157,5,2,0:0:0:0:
280,192,174345,1,0,0:0:0:0:
352,192,174532,1,2,0:0:0:0:
208,108,174907,1,0,0:0:0:0:
389,192,175095,2,0,L|392:104,1,80,2|0,0:0|0:0,0:0:0:0:
192,152,175470,5,8,0:0:0:0:
192,152,175845,2,0,L|352:152,1,160,2|0,0:0|0:0,0:0:0:0:
496,152,176595,2,0,L|500:244,1,80,0|2,0:0|0:0,0:0:0:0:
356,232,177157,5,2,0:0:0:0:
292,232,177345,1,0,0:0:0:0:
228,232,177532,1,2,0:0:0:0:
292,232,177720,2,0,P|372:188|392:120,2,160,0|2|0,0:0|0:0|0:0,0:0:0:0:
164,188,178845,6,0,P|100:160|80:76,1,160,2|0,0:0|0:0,0:0:0:0:
232,76,179595,2,0,L|160:112,1,80,0|2,0:0|0:0,0:0:0:0:
316,76,180157,5,2,0:0:0:0:
248,119,180344,1,0,0:0:0:0:
180,161,180532,1,2,0:0:0:0:
340,160,180907,1,0,0:0:0:0:
160,80,181095,2,0,L|156:164,1,80,2|8,0:0|0:0,0:0:0:0:
348,116,181470,5,8,0:0:0:0:
348,116,181845,2,0,L|188:116,1,160,8|8,0:0|0:0,0:0:0:0:
44,113,182595,2,0,L|40:33,1,80,0|2,0:0|0:0,0:0:0:0:
168,33,183157,5,0,0:0:0:0:
104,33,183345,1,2,0:0:0:0:
40,33,183532,1,0,0:0:0:0:
128,33,183720,2,0,L|266:112,1,160,8|2,0:0|0:0,0:0:0:0:
398,116,184470,5,0,0:0:0:0:
238,112,184845,2,0,L|234:276,1,160,2|8,0:0|0:0,0:0:0:0:
394,272,185595,2,0,L|321:315,1,80,0|2,0:0|0:0,0:0:0:0:
454,272,186157,5,2,0:0:0:0:
366,272,186345,2,0,L|293:315,1,80,0|2,0:0|0:0,0:0:0:0:
386,352,186720,2,0,L|390:268,1,80,8|0,0:0|0:0,0:0:0:0:
214,312,187095,2,0,L|145:272,1,80,2|8,0:0|0:0,0:0:0:0:
326,272,187470,5,8,0:0:0:0:
326,272,187845,2,0,L|154:272,1,160,8|8,0:0|0:0,0:0:0:0:
342,272,188595,2,0,L|346:188,1,80,0|2,0:0|0:0,0:0:0:0:
186,192,189157,5,2,0:0:0:0:
186,112,189345,1,0,0:0:0:0:
266,112,189532,1,2,0:0:0:0:
346,112,189720,2,0,L|206:188,1,160,8|2,0:0|0:0,0:0:0:0:
366,188,190470,5,0,0:0:0:0:
190,188,190845,2,0,L|330:112,2,160,2|8|0,0:0|0:0|0:0,0:0:0:0:
350,188,191970,6,0,L|354:28,1,160,2|0,0:0|0:0,0:0:0:0:
194,28,192720,2,0,L|198:188,1,160,2|0,0:0|0:0,0:0:0:0:
380,188,193470,5,10,0:0:0:0:
