osu file format v14

[General]
AudioFilename: audio.mp3
AudioLeadIn: 0
PreviewTime: 37095
Countdown: 1
SampleSet: None
StackLeniency: 0.7
Mode: 1
LetterboxInBreaks: 0
WidescreenStoryboard: 1

[Editor]
DistanceSpacing: 0.8
BeatDivisor: 4
GridSize: 32
TimelineZoom: 1.9

[Metadata]
Title:hot chocolate
TitleUnicode:hot chocolate
Artist:dark cat
ArtistUnicode:dark cat
Creator:Backfire
Version:Nwolf's Oni
Source:osu!
Tags:nwolf nardoxyribonucleic catstep chiptune electropop featured artist FA
BeatmapID:1863459
BeatmapSetID:847576

[Difficulty]
HPDrainRate:6
CircleSize:4
OverallDifficulty:6
ApproachRate:9
SliderMultiplier:1.4
SliderTickRate:1

[Events]
//Background and Video events
0,0,"dark-cat.png",0,0
//Break Periods
//Storyboard Layer 0 (Background)
//Storyboard Layer 1 (Fail)
//Storyboard Layer 2 (Pass)
//Storyboard Layer 3 (Foreground)
//Storyboard Sound Samples

[TimingPoints]
1470,375,4,1,0,50,1,0
2782,-100,4,1,0,55,0,0
2970,-100,4,1,0,60,0,0
4282,-100,4,1,0,65,0,0
4470,-100,4,1,0,70,0,0
13470,-100,4,1,0,75,0,0
25095,-100,4,1,0,90,0,0
25470,-133.333333333333,4,1,0,75,0,0
31282,-120.481927710843,4,1,0,75,0,0
31470,-114.942528735632,4,1,0,85,0,0
31845,-112.359550561798,4,1,0,85,0,0
32032,-111.111111111111,4,1,0,85,0,0
32220,-109.89010989011,4,1,0,85,0,0
32595,-107.52688172043,4,1,0,85,0,0
32876,-106.382978723404,4,1,0,85,0,0
32970,-105.263157894737,4,1,0,85,0,0
33157,-104.166666666667,4,1,0,85,0,0
33345,-103.092783505155,4,1,0,85,0,0
33532,-102.040816326531,4,1,0,85,0,0
33626,-101.010101010101,4,1,0,85,0,0
33720,-100,4,1,0,85,0,0
37470,-100,4,1,0,100,0,1
61470,-100,4,1,0,85,0,0
67470,-114.942528735632,4,1,0,70,0,0
79470,-100,4,1,0,70,0,0
83970,-80,4,1,0,100,0,1
85470,-100,4,1,0,70,0,0
89970,-80,4,1,0,100,0,1
91470,-100,4,1,0,70,0,0
92220,-133.333333333333,4,1,0,50,0,0
103470,-114.942528735632,4,1,0,85,0,0
112470,-113.636363636364,4,1,0,85,0,0
112657,-112.359550561798,4,1,0,85,0,0
112845,-111.111111111111,4,1,0,85,0,0
113032,-109.649122807018,4,1,0,85,0,0
113220,-108.695652173913,4,1,0,85,0,0
113407,-107.52688172043,4,1,0,85,0,0
113595,-106.382978723404,4,1,0,85,0,0
113782,-105.263157894737,4,1,0,85,0,0
113970,-104.166666666667,4,1,0,85,0,0
114720,-103.092783505155,4,1,0,50,0,0
118657,-133.333333333333,4,1,0,20,0,0
121470,-100,4,1,0,75,0,0
132720,-100,4,1,0,70,0,0
132907,-100,4,1,0,65,0,0
133095,-100,4,1,0,60,0,0
133282,-100,4,1,0,55,0,0
133470,-100,4,1,0,50,0,0
133657,-100,4,1,0,45,0,0
133845,-100,4,1,0,40,0,0
134032,-100,4,1,0,35,0,0
134220,-100,4,1,0,30,0,0
134407,-100,4,1,0,25,0,0
134595,-100,4,1,0,20,0,0
136470,-100,4,1,0,25,0,0
136657,-100,4,1,0,30,0,0
136845,-100,4,1,0,35,0,0
137032,-100,4,1,0,40,0,0
137220,-100,4,1,0,45,0,0
137407,-100,4,1,0,50,0,0
137595,-100,4,1,0,55,0,0
137782,-100,4,1,0,60,0,0
137970,-100,4,1,0,65,0,0
138157,-100,4,1,0,70,0,0
138345,-100,4,1,0,75,0,0
138532,-100,4,1,0,80,0,0
138720,-100,4,1,0,85,0,0
139470,-100,4,1,0,100,0,1
163470,-100,4,1,0,85,0,0
169470,-100,4,1,0,70,0,0

[HitObjects]
224,160,1470,5,0,0:0:0:0:
288,160,1845,1,8,0:0:0:0:
288,160,2220,1,8,0:0:0:0:
288,160,2595,1,8,0:0:0:0:
224,160,2782,1,0,0:0:0:0:
288,160,2970,1,8,0:0:0:0:
288,160,3345,1,8,0:0:0:0:
288,160,3720,1,8,0:0:0:0:
288,160,4095,1,8,0:0:0:0:
288,160,4282,1,8,0:0:0:0:
288,160,4470,1,8,0:0:0:0:
288,160,4845,1,8,0:0:0:0:
288,160,5220,1,8,0:0:0:0:
288,160,5595,1,8,0:0:0:0:
224,160,5782,1,0,0:0:0:0:
288,160,5970,1,8,0:0:0:0:
288,160,6345,1,8,0:0:0:0:
224,160,6532,1,0,0:0:0:0:
288,160,6720,1,8,0:0:0:0:
288,160,7095,1,8,0:0:0:0:
224,160,7282,1,0,0:0:0:0:
224,224,7470,1,4,0:0:0:0:
288,160,7845,1,8,0:0:0:0:
288,160,8220,1,8,0:0:0:0:
288,160,8595,1,8,0:0:0:0:
288,160,8782,1,8,0:0:0:0:
288,160,8970,1,8,0:0:0:0:
288,160,9345,1,8,0:0:0:0:
224,160,9532,1,0,0:0:0:0:
288,160,9720,1,8,0:0:0:0:
288,160,10095,1,8,0:0:0:0:
224,160,10282,1,0,0:0:0:0:
288,160,10470,1,8,0:0:0:0:
288,160,10845,1,8,0:0:0:0:
288,160,11220,1,8,0:0:0:0:
288,160,11595,1,8,0:0:0:0:
288,160,11782,1,8,0:0:0:0:
288,160,11970,1,8,0:0:0:0:
288,160,12345,1,8,0:0:0:0:
224,160,12532,1,0,0:0:0:0:
288,160,12720,1,8,0:0:0:0:
224,160,13282,1,0,0:0:0:0:
224,224,13470,1,4,0:0:0:0:
224,160,13657,1,0,0:0:0:0:
224,160,13751,1,0,0:0:0:0:
224,160,13845,1,0,0:0:0:0:
224,160,14032,1,0,0:0:0:0:
288,160,14220,1,8,0:0:0:0:
288,160,14595,1,8,0:0:0:0:
288,160,14782,1,8,0:0:0:0:
224,160,14970,1,0,0:0:0:0:
224,160,15345,1,0,0:0:0:0:
224,160,15532,1,0,0:0:0:0:
288,160,15720,1,8,0:0:0:0:
288,160,16095,1,8,0:0:0:0:
224,160,16470,1,0,0:0:0:0:
224,160,16657,1,0,0:0:0:0:
224,160,16751,1,0,0:0:0:0:
224,160,16845,1,0,0:0:0:0:
224,160,17032,1,0,0:0:0:0:
288,160,17220,1,8,0:0:0:0:
288,160,17595,1,8,0:0:0:0:
288,160,17782,1,8,0:0:0:0:
224,160,17970,1,0,0:0:0:0:
288,160,18157,1,8,0:0:0:0:
224,160,18345,1,0,0:0:0:0:
288,160,18720,1,8,0:0:0:0:
288,160,19095,1,8,0:0:0:0:
224,160,19282,1,0,0:0:0:0:
224,224,19470,1,4,0:0:0:0:
224,160,19657,1,0,0:0:0:0:
224,160,19751,1,0,0:0:0:0:
224,160,19845,1,0,0:0:0:0:
224,160,20032,1,0,0:0:0:0:
288,160,20220,1,8,0:0:0:0:
288,160,20595,1,8,0:0:0:0:
288,160,20782,1,8,0:0:0:0:
224,160,20970,1,0,0:0:0:0:
224,160,21345,1,0,0:0:0:0:
224,160,21532,1,0,0:0:0:0:
288,160,21720,1,8,0:0:0:0:
288,160,22095,1,8,0:0:0:0:
224,160,22470,1,0,0:0:0:0:
224,160,22657,1,0,0:0:0:0:
224,160,22751,1,0,0:0:0:0:
224,160,22845,1,0,0:0:0:0:
224,160,23032,1,0,0:0:0:0:
288,160,23220,1,8,0:0:0:0:
288,160,23595,1,8,0:0:0:0:
224,160,23970,1,0,0:0:0:0:
224,160,24157,1,0,0:0:0:0:
224,160,24251,1,0,0:0:0:0:
288,160,24345,1,8,0:0:0:0:
224,160,24532,1,0,0:0:0:0:
224,160,24626,1,0,0:0:0:0:
288,160,24720,1,8,0:0:0:0:
288,224,25095,1,12,0:0:0:0:
224,224,25470,5,4,0:0:0:0:
288,160,26032,1,8,0:0:0:0:
224,160,26220,1,0,0:0:0:0:
288,160,26407,1,8,0:0:0:0:
288,160,26595,1,8,0:0:0:0:
224,160,26970,1,0,0:0:0:0:
288,160,27157,1,8,0:0:0:0:
288,160,27532,1,8,0:0:0:0:
224,160,27720,1,0,0:0:0:0:
288,160,28095,1,8,0:0:0:0:
224,160,28282,1,0,0:0:0:0:
224,160,28376,1,0,0:0:0:0:
224,160,28470,1,0,0:0:0:0:
288,160,29032,1,8,0:0:0:0:
224,160,29220,1,0,0:0:0:0:
288,160,29595,1,8,0:0:0:0:
224,160,29970,1,0,0:0:0:0:
288,160,30157,1,8,0:0:0:0:
224,160,30533,1,0,0:0:0:0:
288,160,30720,1,8,0:0:0:0:
288,160,30907,1,8,0:0:0:0:
288,160,31282,1,8,0:0:0:0:
224,160,31470,1,0,0:0:0:0:
224,160,31845,1,0,0:0:0:0:
288,160,32032,1,8,0:0:0:0:
224,160,32220,1,0,0:0:0:0:
224,160,32595,1,0,0:0:0:0:
288,160,32876,1,8,0:0:0:0:
224,160,32970,1,0,0:0:0:0:
288,160,33157,1,8,0:0:0:0:
224,160,33345,1,0,0:0:0:0:
288,160,33532,1,8,0:0:0:0:
288,160,33626,1,8,0:0:0:0:
224,160,33720,1,0,0:0:0:0:
224,160,34095,1,0,0:0:0:0:
288,160,34282,1,8,0:0:0:0:
288,160,34376,1,8,0:0:0:0:
224,160,34470,1,0,0:0:0:0:
224,160,34657,1,0,0:0:0:0:
224,160,34845,1,0,0:0:0:0:
288,160,35032,1,8,0:0:0:0:
288,160,35220,1,8,0:0:0:0:
288,160,35407,1,8,0:0:0:0:
224,160,35595,1,0,0:0:0:0:
224,160,35782,1,0,0:0:0:0:
32,32,35970,2,0,L|96:32,8,35
224,224,37470,5,4,0:0:0:0:
288,160,37845,1,8,0:0:0:0:
288,160,38032,1,8,0:0:0:0:
288,160,38220,1,8,0:0:0:0:
288,160,38313,1,8,0:0:0:0:
288,160,38407,1,8,0:0:0:0:
288,160,38595,1,8,0:0:0:0:
288,160,38970,1,8,0:0:0:0:
288,160,39157,1,8,0:0:0:0:
288,160,39251,1,8,0:0:0:0:
224,160,39345,1,0,0:0:0:0:
288,160,39532,1,8,0:0:0:0:
288,160,39720,1,8,0:0:0:0:
288,160,39813,1,8,0:0:0:0:
224,160,39907,1,0,0:0:0:0:
288,160,40095,1,8,0:0:0:0:
288,160,40282,1,8,0:0:0:0:
224,160,40470,1,0,0:0:0:0:
288,160,40845,1,8,0:0:0:0:
288,160,41032,1,8,0:0:0:0:
288,160,41220,1,8,0:0:0:0:
288,160,41313,1,8,0:0:0:0:
288,160,41407,1,8,0:0:0:0:
288,160,41595,1,8,0:0:0:0:
288,160,41970,1,8,0:0:0:0:
288,160,42157,1,8,0:0:0:0:
288,160,42251,1,8,0:0:0:0:
224,160,42345,1,0,0:0:0:0:
288,160,42532,1,8,0:0:0:0:
288,160,42720,1,8,0:0:0:0:
224,160,42907,1,0,0:0:0:0:
288,160,43095,1,8,0:0:0:0:
224,224,43470,1,4,0:0:0:0:
288,160,43845,1,8,0:0:0:0:
288,160,44032,1,8,0:0:0:0:
288,160,44220,1,8,0:0:0:0:
288,160,44313,1,8,0:0:0:0:
288,160,44407,1,8,0:0:0:0:
288,160,44595,1,8,0:0:0:0:
288,160,44970,1,8,0:0:0:0:
288,160,45157,1,8,0:0:0:0:
288,160,45251,1,8,0:0:0:0:
224,160,45345,1,0,0:0:0:0:
288,160,45532,1,8,0:0:0:0:
288,160,45720,1,8,0:0:0:0:
288,160,45813,1,8,0:0:0:0:
224,160,45907,1,0,0:0:0:0:
288,160,46095,1,8,0:0:0:0:
288,160,46282,1,8,0:0:0:0:
224,160,46470,1,0,0:0:0:0:
288,160,46845,1,8,0:0:0:0:
288,160,47032,1,8,0:0:0:0:
288,160,47220,1,8,0:0:0:0:
288,160,47313,1,8,0:0:0:0:
288,160,47407,1,8,0:0:0:0:
288,160,47595,1,8,0:0:0:0:
288,160,47970,1,8,0:0:0:0:
288,160,48157,1,8,0:0:0:0:
288,160,48251,1,8,0:0:0:0:
224,160,48345,1,0,0:0:0:0:
288,160,48532,1,8,0:0:0:0:
288,160,48720,1,8,0:0:0:0:
224,160,48907,1,0,0:0:0:0:
224,160,49001,1,0,0:0:0:0:
288,160,49095,1,8,0:0:0:0:
224,224,49470,1,4,0:0:0:0:
288,160,49845,1,8,0:0:0:0:
288,160,50032,1,8,0:0:0:0:
224,160,50220,1,0,0:0:0:0:
288,160,50313,1,8,0:0:0:0:
288,160,50407,1,8,0:0:0:0:
288,160,50595,1,8,0:0:0:0:
288,160,50970,1,8,0:0:0:0:
288,160,51157,1,8,0:0:0:0:
288,160,51251,1,8,0:0:0:0:
224,160,51345,1,0,0:0:0:0:
288,160,51532,1,8,0:0:0:0:
288,160,51720,1,8,0:0:0:0:
288,160,51813,1,8,0:0:0:0:
224,160,51907,1,0,0:0:0:0:
288,160,52095,1,8,0:0:0:0:
288,160,52282,1,8,0:0:0:0:
224,160,52470,1,0,0:0:0:0:
288,160,52845,1,8,0:0:0:0:
288,160,53032,1,8,0:0:0:0:
224,160,53220,1,0,0:0:0:0:
288,160,53313,1,8,0:0:0:0:
288,160,53407,1,8,0:0:0:0:
288,160,53595,1,8,0:0:0:0:
224,160,53782,1,0,0:0:0:0:
288,160,53970,1,8,0:0:0:0:
288,160,54157,1,8,0:0:0:0:
288,160,54251,1,8,0:0:0:0:
224,160,54345,1,0,0:0:0:0:
288,160,54532,1,8,0:0:0:0:
288,160,54720,1,8,0:0:0:0:
224,160,54907,1,0,0:0:0:0:
288,160,55095,1,8,0:0:0:0:
224,224,55470,1,4,0:0:0:0:
288,160,55845,1,8,0:0:0:0:
288,160,56032,1,8,0:0:0:0:
224,160,56220,1,0,0:0:0:0:
288,160,56313,1,8,0:0:0:0:
288,160,56407,1,8,0:0:0:0:
288,160,56595,1,8,0:0:0:0:
288,160,56970,1,8,0:0:0:0:
288,160,57157,1,8,0:0:0:0:
288,160,57251,1,8,0:0:0:0:
224,160,57345,1,0,0:0:0:0:
288,160,57532,1,8,0:0:0:0:
288,160,57720,1,8,0:0:0:0:
288,160,57813,1,8,0:0:0:0:
224,160,57907,1,0,0:0:0:0:
288,160,58095,1,8,0:0:0:0:
288,160,58282,1,8,0:0:0:0:
224,160,58470,1,0,0:0:0:0:
288,160,58845,1,8,0:0:0:0:
288,160,59032,1,8,0:0:0:0:
224,160,59220,1,0,0:0:0:0:
288,160,59313,1,8,0:0:0:0:
288,160,59407,1,8,0:0:0:0:
288,160,59595,1,8,0:0:0:0:
288,160,59970,1,8,0:0:0:0:
288,160,60157,1,8,0:0:0:0:
288,160,60251,1,8,0:0:0:0:
224,160,60345,1,0,0:0:0:0:
288,160,60532,1,8,0:0:0:0:
288,160,60720,1,8,0:0:0:0:
224,160,60907,1,0,0:0:0:0:
288,160,61095,1,8,0:0:0:0:
224,224,61470,5,4,0:0:0:0:
288,160,61845,1,8,0:0:0:0:
224,160,62220,1,0,0:0:0:0:
288,160,62407,1,8,0:0:0:0:
288,160,62595,1,8,0:0:0:0:
288,160,62970,1,8,0:0:0:0:
288,160,63532,1,8,0:0:0:0:
288,160,63907,1,8,0:0:0:0:
288,160,64095,1,8,0:0:0:0:
224,160,64470,1,0,0:0:0:0:
288,160,64845,1,8,0:0:0:0:
224,160,65220,1,0,0:0:0:0:
288,160,65407,1,8,0:0:0:0:
288,160,65595,1,8,0:0:0:0:
288,160,65970,1,8,0:0:0:0:
288,160,66532,1,8,0:0:0:0:
288,160,67095,1,8,0:0:0:0:
224,160,67470,1,0,0:0:0:0:
288,160,67845,1,8,0:0:0:0:
224,160,68032,1,0,0:0:0:0:
224,160,68407,1,0,0:0:0:0:
288,160,68595,1,8,0:0:0:0:
288,160,68782,1,8,0:0:0:0:
224,160,68970,1,0,0:0:0:0:
288,160,69345,1,8,0:0:0:0:
224,160,69532,1,0,0:0:0:0:
224,224,70282,1,4,0:0:0:0:
224,224,70470,1,4,0:0:0:0:
288,160,70845,1,8,0:0:0:0:
224,160,71032,1,0,0:0:0:0:
224,160,71407,1,0,0:0:0:0:
288,160,71595,1,8,0:0:0:0:
288,160,71782,1,8,0:0:0:0:
224,160,71970,1,0,0:0:0:0:
288,160,72345,1,8,0:0:0:0:
224,160,72532,1,0,0:0:0:0:
224,224,73282,1,4,0:0:0:0:
224,224,73470,1,4,0:0:0:0:
288,160,73845,1,8,0:0:0:0:
288,160,73938,1,8,0:0:0:0:
224,160,74032,1,0,0:0:0:0:
224,160,74407,1,0,0:0:0:0:
288,160,74595,1,8,0:0:0:0:
288,160,74782,1,8,0:0:0:0:
288,160,74876,1,8,0:0:0:0:
224,160,74970,1,0,0:0:0:0:
288,160,75345,1,8,0:0:0:0:
288,160,75438,1,8,0:0:0:0:
224,160,75532,1,0,0:0:0:0:
288,160,75907,1,8,0:0:0:0:
288,160,76095,1,8,0:0:0:0:
224,224,76282,1,4,0:0:0:0:
224,224,76470,1,4,0:0:0:0:
288,160,76845,1,8,0:0:0:0:
288,160,76938,1,8,0:0:0:0:
224,160,77032,1,0,0:0:0:0:
224,160,77407,1,0,0:0:0:0:
288,160,77595,1,8,0:0:0:0:
288,160,77782,1,8,0:0:0:0:
288,160,77876,1,8,0:0:0:0:
224,160,77970,1,0,0:0:0:0:
288,160,78345,1,8,0:0:0:0:
288,160,78438,1,8,0:0:0:0:
224,160,78532,1,0,0:0:0:0:
224,160,78720,1,0,0:0:0:0:
256,192,79095,12,0,79282,0:0:0:0:
224,160,79470,5,0,0:0:0:0:
288,160,79657,1,8,0:0:0:0:
288,160,80032,1,8,0:0:0:0:
224,160,80220,1,0,0:0:0:0:
288,160,80345,1,8,0:0:0:0:
288,160,80407,1,8,0:0:0:0:
224,160,80595,1,0,0:0:0:0:
224,160,80782,1,0,0:0:0:0:
288,160,80970,1,8,0:0:0:0:
224,160,81157,1,0,0:0:0:0:
288,160,81532,1,8,0:0:0:0:
224,160,81720,1,0,0:0:0:0:
288,160,81845,1,8,0:0:0:0:
288,160,81907,1,8,0:0:0:0:
224,160,82095,1,0,0:0:0:0:
224,160,82282,1,0,0:0:0:0:
288,160,82470,1,8,0:0:0:0:
224,160,82657,1,0,0:0:0:0:
224,160,83032,1,0,0:0:0:0:
288,160,83220,1,8,0:0:0:0:
224,160,83345,1,0,0:0:0:0:
224,160,83407,1,0,0:0:0:0:
288,160,83595,1,8,0:0:0:0:
288,160,83782,1,8,0:0:0:0:
224,224,83970,1,4,0:0:0:0:
224,224,84345,1,4,0:0:0:0:
224,224,84720,1,4,0:0:0:0:
288,224,85095,1,12,0:0:0:0:
224,160,85470,1,0,0:0:0:0:
288,160,85657,1,8,0:0:0:0:
224,160,85845,1,0,0:0:0:0:
288,160,86032,1,8,0:0:0:0:
224,160,86220,1,0,0:0:0:0:
288,160,86345,1,8,0:0:0:0:
288,160,86407,1,8,0:0:0:0:
224,160,86595,1,0,0:0:0:0:
224,160,86782,1,0,0:0:0:0:
288,160,86970,1,8,0:0:0:0:
224,160,87157,1,0,0:0:0:0:
288,160,87345,1,8,0:0:0:0:
288,160,87532,1,8,0:0:0:0:
224,160,87720,1,0,0:0:0:0:
288,160,87845,1,8,0:0:0:0:
288,160,87907,1,8,0:0:0:0:
224,160,88095,1,0,0:0:0:0:
224,160,88282,1,0,0:0:0:0:
288,160,88470,1,8,0:0:0:0:
224,160,88657,1,0,0:0:0:0:
288,160,88845,1,8,0:0:0:0:
224,160,89032,1,0,0:0:0:0:
288,160,89220,1,8,0:0:0:0:
224,160,89345,1,0,0:0:0:0:
224,160,89407,1,0,0:0:0:0:
288,160,89595,1,8,0:0:0:0:
288,160,89782,1,8,0:0:0:0:
224,224,89970,1,4,0:0:0:0:
224,224,90345,1,4,0:0:0:0:
224,224,90720,1,4,0:0:0:0:
288,224,91095,1,12,0:0:0:0:
224,160,91470,5,0,0:0:0:0:
288,160,92220,1,8,0:0:0:0:
288,160,93720,1,8,0:0:0:0:
224,160,94282,1,0,0:0:0:0:
224,160,94470,1,0,0:0:0:0:
224,160,94845,1,0,0:0:0:0:
288,160,95220,1,8,0:0:0:0:
224,160,96345,1,0,0:0:0:0:
288,160,96720,1,8,0:0:0:0:
288,160,97282,1,8,0:0:0:0:
224,160,97470,1,0,0:0:0:0:
224,160,97845,1,0,0:0:0:0:
288,160,98220,1,8,0:0:0:0:
288,160,98595,1,8,0:0:0:0:
288,160,98970,1,8,0:0:0:0:
224,160,99345,1,0,0:0:0:0:
288,160,99720,1,8,0:0:0:0:
288,160,100095,1,8,0:0:0:0:
224,160,100282,1,0,0:0:0:0:
224,160,100470,1,0,0:0:0:0:
224,160,100845,1,0,0:0:0:0:
288,160,101220,1,8,0:0:0:0:
288,160,101595,1,8,0:0:0:0:
288,160,101970,1,8,0:0:0:0:
224,160,102345,1,0,0:0:0:0:
288,160,102720,1,8,0:0:0:0:
224,160,103470,1,0,0:0:0:0:
224,160,103845,1,0,0:0:0:0:
288,160,104032,1,8,0:0:0:0:
224,160,104407,1,0,0:0:0:0:
288,160,104595,1,8,0:0:0:0:
288,160,104782,1,8,0:0:0:0:
224,160,104970,1,0,0:0:0:0:
224,160,105345,1,0,0:0:0:0:
288,160,105532,1,8,0:0:0:0:
288,160,105907,1,8,0:0:0:0:
288,160,106095,1,8,0:0:0:0:
288,160,106282,1,8,0:0:0:0:
224,160,106470,1,0,0:0:0:0:
288,160,106845,1,8,0:0:0:0:
288,160,107032,1,8,0:0:0:0:
288,160,107407,1,8,0:0:0:0:
288,160,107595,1,8,0:0:0:0:
224,160,107782,1,0,0:0:0:0:
288,160,107970,1,8,0:0:0:0:
288,160,108157,1,8,0:0:0:0:
224,160,108345,1,0,0:0:0:0:
288,160,108532,1,8,0:0:0:0:
288,160,109095,1,8,0:0:0:0:
288,160,109282,1,8,0:0:0:0:
224,160,109470,1,0,0:0:0:0:
288,160,109845,1,8,0:0:0:0:
224,160,110032,1,0,0:0:0:0:
288,160,110407,1,8,0:0:0:0:
224,160,110595,1,0,0:0:0:0:
224,160,110782,1,0,0:0:0:0:
288,160,110970,1,8,0:0:0:0:
224,160,111345,1,0,0:0:0:0:
288,160,111532,1,8,0:0:0:0:
224,160,111907,1,0,0:0:0:0:
288,160,112095,1,8,0:0:0:0:
288,160,112282,1,8,0:0:0:0:
224,160,112470,1,0,0:0:0:0:
224,160,112657,1,0,0:0:0:0:
224,160,112845,1,0,0:0:0:0:
256,160,113032,1,8,0:0:0:0:
288,160,113220,1,8,0:0:0:0:
288,160,113407,1,8,0:0:0:0:
224,160,113595,1,0,0:0:0:0:
224,160,113782,1,0,0:0:0:0:
224,160,113970,1,0,0:0:0:0:
224,160,114063,1,0,0:0:0:0:
224,160,114157,1,0,0:0:0:0:
224,160,114251,1,0,0:0:0:0:
224,160,114345,1,0,0:0:0:0:
224,160,114438,1,0,0:0:0:0:
224,160,114532,1,0,0:0:0:0:
32,32,114720,2,0,L|96:32,38,33.9500008029557
224,160,118470,1,0,0:0:0:0:
256,192,120720,12,0,121282,0:0:0:0:
288,160,121470,5,8,0:0:0:0:
288,160,121563,1,8,0:0:0:0:
288,160,121657,1,8,0:0:0:0:
288,160,121845,1,8,0:0:0:0:
288,160,122032,1,8,0:0:0:0:
224,160,122220,1,0,0:0:0:0:
224,160,122313,1,0,0:0:0:0:
224,160,122407,1,0,0:0:0:0:
288,160,122595,1,8,0:0:0:0:
224,160,122970,1,0,0:0:0:0:
288,160,123157,1,8,0:0:0:0:
288,160,123251,1,8,0:0:0:0:
288,160,123345,1,8,0:0:0:0:
224,160,123532,1,0,0:0:0:0:
224,160,123907,1,0,0:0:0:0:
288,160,124095,1,8,0:0:0:0:
288,160,124470,1,8,0:0:0:0:
288,160,124657,1,8,0:0:0:0:
288,160,124751,1,8,0:0:0:0:
288,160,124845,1,8,0:0:0:0:
288,160,125032,1,8,0:0:0:0:
224,160,125220,1,0,0:0:0:0:
224,160,125313,1,0,0:0:0:0:
224,160,125407,1,0,0:0:0:0:
288,160,125595,1,8,0:0:0:0:
224,160,125970,1,0,0:0:0:0:
288,160,126157,1,8,0:0:0:0:
288,160,126251,1,8,0:0:0:0:
224,160,126345,1,0,0:0:0:0:
224,160,126532,1,0,0:0:0:0:
288,160,127095,1,8,0:0:0:0:
224,160,127470,1,0,0:0:0:0:
288,160,127657,1,8,0:0:0:0:
288,160,127751,1,8,0:0:0:0:
288,160,127845,1,8,0:0:0:0:
288,160,128032,1,8,0:0:0:0:
224,160,128220,1,0,0:0:0:0:
224,160,128313,1,0,0:0:0:0:
224,160,128407,1,0,0:0:0:0:
288,160,128595,1,8,0:0:0:0:
224,160,128970,1,0,0:0:0:0:
288,160,129157,1,8,0:0:0:0:
288,160,129251,1,8,0:0:0:0:
288,160,129345,1,8,0:0:0:0:
224,160,129532,1,0,0:0:0:0:
288,160,129907,1,8,0:0:0:0:
288,160,130095,1,8,0:0:0:0:
288,160,130470,1,8,0:0:0:0:
288,160,130657,1,8,0:0:0:0:
288,160,130751,1,8,0:0:0:0:
288,160,130845,1,8,0:0:0:0:
288,160,131032,1,8,0:0:0:0:
224,160,131220,1,0,0:0:0:0:
224,160,131313,1,0,0:0:0:0:
224,160,131407,1,0,0:0:0:0:
288,160,131595,1,8,0:0:0:0:
288,160,131970,1,8,0:0:0:0:
224,160,132157,1,0,0:0:0:0:
224,160,132251,1,0,0:0:0:0:
288,160,132345,1,8,0:0:0:0:
288,160,132532,1,8,0:0:0:0:
256,192,132720,12,0,136095,0:0:0:0:
224,160,136470,5,0,0:0:0:0:
224,160,136657,1,0,0:0:0:0:
224,160,136845,1,0,0:0:0:0:
288,160,137032,1,8,0:0:0:0:
288,160,137220,1,8,0:0:0:0:
288,160,137407,1,8,0:0:0:0:
224,160,137595,1,0,0:0:0:0:
224,160,137782,1,0,0:0:0:0:
32,32,137970,2,0,L|320:32,1,280
224,224,139470,5,4,0:0:0:0:
288,160,139845,1,8,0:0:0:0:
288,160,140032,1,8,0:0:0:0:
224,160,140220,1,0,0:0:0:0:
288,160,140313,1,8,0:0:0:0:
288,160,140407,1,8,0:0:0:0:
288,160,140595,1,8,0:0:0:0:
288,160,140970,1,8,0:0:0:0:
288,160,141157,1,8,0:0:0:0:
288,160,141251,1,8,0:0:0:0:
224,160,141345,1,0,0:0:0:0:
288,160,141532,1,8,0:0:0:0:
288,160,141720,1,8,0:0:0:0:
288,160,141813,1,8,0:0:0:0:
224,160,141907,1,0,0:0:0:0:
288,160,142095,1,8,0:0:0:0:
288,160,142282,1,8,0:0:0:0:
224,160,142470,1,0,0:0:0:0:
288,160,142845,1,8,0:0:0:0:
288,160,143032,1,8,0:0:0:0:
224,160,143220,1,0,0:0:0:0:
288,160,143313,1,8,0:0:0:0:
288,160,143407,1,8,0:0:0:0:
288,160,143595,1,8,0:0:0:0:
288,160,143970,1,8,0:0:0:0:
224,160,144157,1,0,0:0:0:0:
224,160,144251,1,0,0:0:0:0:
288,160,144345,1,8,0:0:0:0:
224,160,144532,1,0,0:0:0:0:
288,160,144720,1,8,0:0:0:0:
224,160,144907,1,0,0:0:0:0:
288,160,145095,1,8,0:0:0:0:
224,224,145470,1,4,0:0:0:0:
288,160,145845,1,8,0:0:0:0:
288,160,146032,1,8,0:0:0:0:
224,160,146220,1,0,0:0:0:0:
288,160,146313,1,8,0:0:0:0:
288,160,146407,1,8,0:0:0:0:
288,160,146595,1,8,0:0:0:0:
288,160,146970,1,8,0:0:0:0:
288,160,147157,1,8,0:0:0:0:
288,160,147251,1,8,0:0:0:0:
224,160,147345,1,0,0:0:0:0:
288,160,147532,1,8,0:0:0:0:
288,160,147720,1,8,0:0:0:0:
288,160,147813,1,8,0:0:0:0:
224,160,147907,1,0,0:0:0:0:
288,160,148095,1,8,0:0:0:0:
288,160,148282,1,8,0:0:0:0:
224,160,148470,1,0,0:0:0:0:
288,160,148845,1,8,0:0:0:0:
288,160,149032,1,8,0:0:0:0:
224,160,149220,1,0,0:0:0:0:
288,160,149313,1,8,0:0:0:0:
288,160,149407,1,8,0:0:0:0:
288,160,149595,1,8,0:0:0:0:
288,160,149970,1,8,0:0:0:0:
224,160,150157,1,0,0:0:0:0:
224,160,150251,1,0,0:0:0:0:
288,160,150345,1,8,0:0:0:0:
288,160,150532,1,8,0:0:0:0:
288,160,150720,1,8,0:0:0:0:
224,160,150907,1,0,0:0:0:0:
288,160,151095,1,8,0:0:0:0:
224,224,151470,1,4,0:0:0:0:
288,160,151845,1,8,0:0:0:0:
288,160,152032,1,8,0:0:0:0:
288,160,152220,1,8,0:0:0:0:
288,160,152313,1,8,0:0:0:0:
288,160,152407,1,8,0:0:0:0:
288,160,152595,1,8,0:0:0:0:
288,160,152970,1,8,0:0:0:0:
288,160,153157,1,8,0:0:0:0:
288,160,153251,1,8,0:0:0:0:
224,160,153345,1,0,0:0:0:0:
288,160,153532,1,8,0:0:0:0:
288,160,153720,1,8,0:0:0:0:
288,160,153813,1,8,0:0:0:0:
224,160,153907,1,0,0:0:0:0:
288,160,154095,1,8,0:0:0:0:
288,160,154188,1,8,0:0:0:0:
288,160,154282,1,8,0:0:0:0:
224,160,154470,1,0,0:0:0:0:
288,160,154845,1,8,0:0:0:0:
288,160,155032,1,8,0:0:0:0:
288,160,155220,1,8,0:0:0:0:
288,160,155313,1,8,0:0:0:0:
288,160,155407,1,8,0:0:0:0:
288,160,155595,1,8,0:0:0:0:
224,160,155782,1,0,0:0:0:0:
288,160,155970,1,8,0:0:0:0:
224,160,156157,1,0,0:0:0:0:
224,160,156251,1,0,0:0:0:0:
288,160,156345,1,8,0:0:0:0:
224,160,156532,1,0,0:0:0:0:
288,160,156720,1,8,0:0:0:0:
288,160,156907,1,8,0:0:0:0:
224,224,157470,1,4,0:0:0:0:
288,160,157845,1,8,0:0:0:0:
288,160,158032,1,8,0:0:0:0:
288,160,158220,1,8,0:0:0:0:
288,160,158313,1,8,0:0:0:0:
288,160,158407,1,8,0:0:0:0:
288,160,158595,1,8,0:0:0:0:
288,160,158970,1,8,0:0:0:0:
288,160,159157,1,8,0:0:0:0:
288,160,159251,1,8,0:0:0:0:
224,160,159345,1,0,0:0:0:0:
288,160,159532,1,8,0:0:0:0:
288,160,159720,1,8,0:0:0:0:
288,160,159813,1,8,0:0:0:0:
224,160,159907,1,0,0:0:0:0:
288,160,160095,1,8,0:0:0:0:
288,160,160188,1,8,0:0:0:0:
288,160,160282,1,8,0:0:0:0:
224,160,160470,1,0,0:0:0:0:
288,160,160845,1,8,0:0:0:0:
288,160,161032,1,8,0:0:0:0:
288,160,161220,1,8,0:0:0:0:
288,160,161313,1,8,0:0:0:0:
288,160,161407,1,8,0:0:0:0:
288,160,161595,1,8,0:0:0:0:
224,160,161782,1,0,0:0:0:0:
288,160,161970,1,8,0:0:0:0:
224,160,162157,1,0,0:0:0:0:
224,160,162251,1,0,0:0:0:0:
288,160,162345,1,8,0:0:0:0:
288,160,162532,1,8,0:0:0:0:
288,160,162720,1,8,0:0:0:0:
224,160,162907,1,0,0:0:0:0:
288,160,163095,1,8,0:0:0:0:
224,224,163470,5,4,0:0:0:0:
288,160,163845,1,8,0:0:0:0:
224,160,164220,1,0,0:0:0:0:
288,160,164407,1,8,0:0:0:0:
288,160,164595,1,8,0:0:0:0:
288,160,164970,1,8,0:0:0:0:
288,160,165532,1,8,0:0:0:0:
288,160,165907,1,8,0:0:0:0:
288,160,166095,1,8,0:0:0:0:
224,160,166470,1,0,0:0:0:0:
288,160,166845,1,8,0:0:0:0:
224,160,167220,1,0,0:0:0:0:
288,160,167407,1,8,0:0:0:0:
288,160,167595,1,8,0:0:0:0:
288,160,167970,1,8,0:0:0:0:
288,160,168532,1,8,0:0:0:0:
288,160,169095,1,8,0:0:0:0:
224,224,169470,1,4,0:0:0:0:
