osu file format v14

[General]
AudioFilename: audio.mp3
AudioLeadIn: 0
PreviewTime: 37095
Countdown: 1
SampleSet: Normal
StackLeniency: 0.7
Mode: 1
LetterboxInBreaks: 0
WidescreenStoryboard: 1

[Editor]
DistanceSpacing: 0.8
BeatDivisor: 1
GridSize: 32
TimelineZoom: 1.5

[Metadata]
Title:hot chocolate
TitleUnicode:hot chocolate
Artist:dark cat
ArtistUnicode:dark cat
Creator:Backfire
Version:Kantan
Source:osu!
Tags:nwolf nardoxyribonucleic catstep chiptune electropop featured artist FA
BeatmapID:1772523
BeatmapSetID:847576

[Difficulty]
HPDrainRate:7
CircleSize:5
OverallDifficulty:3
ApproachRate:5
SliderMultiplier:1.4
SliderTickRate:1

[Events]
//Background and Video events
0,0,"dark-cat.png",0,0
//Break Periods
//Storyboard Layer 0 (Background)
//Storyboard Layer 1 (Fail)
//Storyboard Layer 2 (Pass)
//Storyboard Layer 3 (Foreground)
//Storyboard Sound Samples

[TimingPoints]
1470,375,4,1,0,100,1,0
37470,-100,4,1,0,100,0,1
61470,-100,4,1,0,100,0,0
139470,-100,4,1,0,100,0,1
163470,-100,4,1,0,100,0,0

[HitObjects]
259,189,1470,5,0,0:0:0:0:
385,179,2970,1,0,0:0:0:0:
415,190,4470,1,8,0:0:0:0:
416,191,5970,1,8,0:0:0:0:
430,181,7095,1,8,0:0:0:0:
430,181,7470,1,0,0:0:0:0:
420,187,8220,1,8,0:0:0:0:
420,188,9345,1,0,0:0:0:0:
420,188,9720,1,8,0:0:0:0:
420,188,10470,1,0,0:0:0:0:
420,188,11220,1,8,0:0:0:0:
416,179,12345,1,8,0:0:0:0:
416,179,12720,1,8,0:0:0:0:
416,179,13470,1,4,0:0:0:0:
416,179,14220,1,8,0:0:0:0:
416,179,14595,1,0,0:0:0:0:
416,179,15345,1,0,0:0:0:0:
416,179,15720,1,8,0:0:0:0:
425,175,16470,1,0,0:0:0:0:
425,175,17220,1,8,0:0:0:0:
425,175,17595,1,0,0:0:0:0:
380,170,18720,1,8,0:0:0:0:
430,174,19470,1,4,0:0:0:0:
409,175,20220,1,8,0:0:0:0:
409,175,20595,1,0,0:0:0:0:
409,175,21345,1,0,0:0:0:0:
413,167,21720,1,8,0:0:0:0:
413,167,22470,1,0,0:0:0:0:
413,167,23220,1,8,0:0:0:0:
416,159,23595,1,0,0:0:0:0:
416,159,24720,1,8,0:0:0:0:
416,159,25470,1,12,0:0:0:0:
416,159,26032,1,8,0:0:0:0:
415,146,26595,1,8,0:0:0:0:
415,146,27157,1,8,0:0:0:0:
415,146,27720,1,8,0:0:0:0:
375,159,28470,1,8,0:0:0:0:
360,122,29032,1,8,0:0:0:0:
363,117,29595,1,8,0:0:0:0:
363,117,30157,1,8,0:0:0:0:
363,117,30720,1,8,0:0:0:0:
363,117,31470,1,0,0:0:0:0:
401,143,32970,1,0,0:0:0:0:
367,131,34470,5,0,0:0:0:0:
378,139,34845,1,0,0:0:0:0:
379,140,35220,1,8,0:0:0:0:
378,139,35595,1,8,0:0:0:0:
256,192,35970,12,0,36720,0:0:0:0:
364,185,37470,5,4,0:0:0:0:
363,174,38220,1,8,0:0:0:0:
361,168,38595,1,0,0:0:0:0:
368,162,39345,1,0,0:0:0:0:
372,163,39720,1,8,0:0:0:0:
372,163,40470,1,12,0:0:0:0:
372,163,41220,1,8,0:0:0:0:
372,163,41595,1,0,0:0:0:0:
377,161,42720,1,8,0:0:0:0:
383,158,43470,1,4,0:0:0:0:
390,162,44220,1,8,0:0:0:0:
390,162,44595,1,0,0:0:0:0:
395,164,45345,1,0,0:0:0:0:
401,168,45720,1,8,0:0:0:0:
401,168,46470,1,4,0:0:0:0:
405,169,47220,1,8,0:0:0:0:
405,169,47595,1,0,0:0:0:0:
414,166,48720,1,8,0:0:0:0:
364,185,49470,5,12,0:0:0:0:
363,174,50220,1,8,0:0:0:0:
361,168,50595,1,0,0:0:0:0:
368,162,51345,1,0,0:0:0:0:
372,163,51720,1,8,0:0:0:0:
372,163,52470,1,4,0:0:0:0:
372,163,53220,1,8,0:0:0:0:
372,163,53595,1,0,0:0:0:0:
377,161,54720,1,8,0:0:0:0:
383,158,55470,1,12,0:0:0:0:
390,162,56220,1,8,0:0:0:0:
390,162,56595,1,0,0:0:0:0:
395,164,57345,1,0,0:0:0:0:
401,168,57720,1,8,0:0:0:0:
401,168,58470,1,4,0:0:0:0:
405,169,59220,1,8,0:0:0:0:
405,169,59595,1,0,0:0:0:0:
414,166,60720,1,8,0:0:0:0:
393,157,61470,1,4,0:0:0:0:
408,157,62032,1,8,0:0:0:0:
419,137,62970,1,0,0:0:0:0:
419,137,63532,1,0,0:0:0:0:
419,137,64470,1,0,0:0:0:0:
419,137,65032,1,8,0:0:0:0:
366,139,65970,1,0,0:0:0:0:
366,139,66532,1,0,0:0:0:0:
366,139,67470,1,4,0:0:0:0:
366,139,68032,1,8,0:0:0:0:
366,139,68970,1,8,0:0:0:0:
366,132,69532,1,8,0:0:0:0:
371,130,70470,1,4,0:0:0:0:
372,129,71032,1,8,0:0:0:0:
377,126,71970,1,8,0:0:0:0:
376,127,72532,1,8,0:0:0:0:
376,127,73470,1,4,0:0:0:0:
380,124,74032,1,8,0:0:0:0:
380,124,74970,1,8,0:0:0:0:
380,124,75532,1,8,0:0:0:0:
380,124,76470,1,4,0:0:0:0:
386,125,77032,1,8,0:0:0:0:
386,125,77970,1,8,0:0:0:0:
393,126,78720,1,12,0:0:0:0:
393,126,79470,1,0,0:0:0:0:
390,146,79845,1,8,0:0:0:0:
393,126,80220,1,0,0:0:0:0:
393,126,80970,1,0,0:0:0:0:
395,144,82470,1,0,0:0:0:0:
395,144,82845,1,8,0:0:0:0:
395,144,83220,1,0,0:0:0:0:
395,144,83970,1,4,0:0:0:0:
395,144,84345,1,4,0:0:0:0:
395,144,84720,1,4,0:0:0:0:
395,144,85470,1,0,0:0:0:0:
395,144,85845,1,8,0:0:0:0:
395,144,86220,1,0,0:0:0:0:
395,144,86970,1,0,0:0:0:0:
400,142,88470,1,0,0:0:0:0:
408,141,88845,1,8,0:0:0:0:
407,142,89220,1,0,0:0:0:0:
407,142,89970,1,4,0:0:0:0:
407,142,90345,1,4,0:0:0:0:
407,142,90720,1,4,0:0:0:0:
407,142,91470,1,0,0:0:0:0:
407,142,92220,1,8,0:0:0:0:
407,142,93345,1,0,0:0:0:0:
412,142,93720,1,8,0:0:0:0:
412,149,94470,1,0,0:0:0:0:
410,147,95220,1,8,0:0:0:0:
412,151,96345,1,0,0:0:0:0:
412,151,96720,1,8,0:0:0:0:
417,149,97470,1,0,0:0:0:0:
417,148,98220,1,8,0:0:0:0:
417,148,99345,1,0,0:0:0:0:
417,148,99720,1,8,0:0:0:0:
417,148,100470,1,0,0:0:0:0:
417,148,101220,1,8,0:0:0:0:
417,148,102720,1,0,0:0:0:0:
417,148,103470,1,4,0:0:0:0:
417,148,103845,1,8,0:0:0:0:
417,148,104407,1,0,0:0:0:0:
416,142,104970,1,8,0:0:0:0:
416,142,105532,1,0,0:0:0:0:
419,142,106470,1,8,0:0:0:0:
416,142,106845,1,0,0:0:0:0:
416,142,107407,1,8,0:0:0:0:
424,142,107970,1,0,0:0:0:0:
403,139,108532,1,8,0:0:0:0:
403,139,109470,1,0,0:0:0:0:
404,139,109845,1,8,0:0:0:0:
414,133,110407,1,0,0:0:0:0:
414,133,110970,1,8,0:0:0:0:
414,133,111532,1,0,0:0:0:0:
419,131,112470,1,8,0:0:0:0:
419,131,112845,1,8,0:0:0:0:
419,131,113220,1,0,0:0:0:0:
419,131,113595,1,0,0:0:0:0:
256,192,113970,12,0,116220,0:0:0:0:
403,151,118470,5,4,0:0:0:0:
388,147,121470,1,0,0:0:0:0:
388,147,122032,1,8,0:0:0:0:
388,147,122970,1,8,0:0:0:0:
395,145,123532,1,8,0:0:0:0:
395,145,124470,1,0,0:0:0:0:
399,122,125032,1,8,0:0:0:0:
399,122,125970,1,8,0:0:0:0:
399,122,126532,1,8,0:0:0:0:
406,121,127470,1,0,0:0:0:0:
414,124,128032,1,8,0:0:0:0:
414,124,128970,1,8,0:0:0:0:
414,124,129532,1,8,0:0:0:0:
414,124,130470,1,0,0:0:0:0:
414,124,131032,1,8,0:0:0:0:
424,125,131970,1,8,0:0:0:0:
256,192,132532,12,0,134220,0:0:0:0:
406,166,136470,5,0,0:0:0:0:
408,171,136845,1,0,0:0:0:0:
408,171,137220,1,8,0:0:0:0:
408,171,137595,1,8,0:0:0:0:
256,192,137970,12,0,138720,0:0:0:0:
364,185,139470,5,4,0:0:0:0:
363,174,140220,1,8,0:0:0:0:
361,168,140595,1,0,0:0:0:0:
383,175,141345,1,0,0:0:0:0:
372,163,141720,1,8,0:0:0:0:
372,163,142470,1,12,0:0:0:0:
372,163,143220,1,8,0:0:0:0:
372,163,143595,1,0,0:0:0:0:
377,161,144720,1,8,0:0:0:0:
383,158,145470,1,4,0:0:0:0:
390,162,146220,1,8,0:0:0:0:
390,162,146595,1,0,0:0:0:0:
357,155,147345,1,0,0:0:0:0:
401,168,147720,1,8,0:0:0:0:
401,168,148470,1,4,0:0:0:0:
405,169,149220,1,8,0:0:0:0:
405,169,149595,1,0,0:0:0:0:
414,166,150720,1,8,0:0:0:0:
364,185,151470,5,12,0:0:0:0:
363,174,152220,1,8,0:0:0:0:
361,168,152595,1,0,0:0:0:0:
358,156,153345,1,0,0:0:0:0:
372,163,153720,1,8,0:0:0:0:
372,163,154470,1,4,0:0:0:0:
372,163,155220,1,8,0:0:0:0:
372,163,155595,1,0,0:0:0:0:
377,161,156720,1,8,0:0:0:0:
383,158,157470,1,12,0:0:0:0:
390,162,158220,1,8,0:0:0:0:
390,162,158595,1,0,0:0:0:0:
395,164,159345,1,0,0:0:0:0:
401,168,159720,1,8,0:0:0:0:
401,168,160470,1,4,0:0:0:0:
405,169,161220,1,8,0:0:0:0:
405,169,161595,1,0,0:0:0:0:
414,166,162720,1,8,0:0:0:0:
393,157,163470,1,4,0:0:0:0:
408,157,164032,1,8,0:0:0:0:
419,137,164970,1,0,0:0:0:0:
419,137,165532,1,0,0:0:0:0:
419,137,166470,1,0,0:0:0:0:
419,137,167032,1,8,0:0:0:0:
366,139,167970,1,0,0:0:0:0:
366,139,168532,5,0,0:0:0:0:
343,178,169095,1,0,0:0:0:0:
366,139,169470,1,4,0:0:0:0:
