osu file format v14

[General]
AudioFilename: audio.mp3
AudioLeadIn: 0
PreviewTime: 107277
Countdown: 0
SampleSet: Drum
StackLeniency: 0.7
Mode: 2
LetterboxInBreaks: 0
WidescreenStoryboard: 1

[Editor]
Bookmarks: 33139,55208,91070,107622,117277,120036,132449,137967,160036,162794,168311,173829,184863,190036
DistanceSpacing: 1
BeatDivisor: 4
GridSize: 8
TimelineZoom: 1.6

[Metadata]
Title:STARS ALIGN
TitleUnicode:STARS ALIGN
Artist:dark cat
ArtistUnicode:dark cat
Creator:wonjae
Version:Wild's Macrocosm
Source:osu!
Tags:catstep electronic mappers guild featured artist paranoid grapes jbh jbhyperion absolute zero wildone94 benita
BeatmapID:2235756
BeatmapSetID:1055938

[Difficulty]
HPDrainRate:6
CircleSize:3.5
OverallDifficulty:9.3
ApproachRate:9.3
SliderMultiplier:2
SliderTickRate:1

[Events]
//Background and Video events
0,0,"blues.jpg",0,0
//Break Periods
2,102449,106932
2,130036,131895
//Storyboard Layer 0 (Background)
//Storyboard Layer 1 (Fail)
//Storyboard Layer 2 (Pass)
//Storyboard Layer 3 (Foreground)
//Storyboard Layer 4 (Overlay)
//Storyboard Sound Samples

[TimingPoints]
36,344.827586206897,4,2,1,5,1,0
4863,-100,4,2,1,100,0,0
5380,-100,4,2,77,80,0,0
5553,-100,4,2,1,100,0,0
10898,-100,4,2,77,80,0,0
11071,-100,4,2,1,100,0,0
16415,-100,4,2,77,80,0,0
16588,-100,4,2,1,100,0,0
17277,-100,4,2,2,100,0,0
17449,-100,4,2,1,100,0,0
18656,-100,4,2,2,100,0,0
18828,-100,4,2,1,100,0,0
20036,-100,4,2,2,100,0,0
20208,-100,4,2,1,100,0,0
21415,-100,4,2,2,100,0,0
21587,-100,4,2,1,100,0,0
22794,-100,4,2,2,100,0,0
22966,-100,4,2,1,100,0,0
24173,-100,4,2,2,100,0,0
24345,-100,4,2,1,100,0,0
25553,-100,4,2,2,100,0,0
25725,-100,4,2,1,100,0,0
26070,-100,4,2,77,80,0,0
26242,-100,4,2,1,100,0,0
26760,-100,4,2,2,85,0,0
26932,-100,4,2,1,85,0,0
27104,-100,4,2,2,70,0,0
27276,-100,4,2,1,70,0,0
27449,-100,4,2,2,55,0,0
27622,-100,4,2,1,55,0,0
27967,-100,4,2,1,45,0,0
28311,-100,4,2,1,35,0,0
28656,-100,4,2,1,25,0,0
29001,-100,4,2,1,15,0,0
29346,-100,4,2,1,20,0,0
29691,-100,4,2,1,25,0,0
30036,-100,4,2,1,30,0,0
30380,-100,4,2,1,35,0,0
30725,-100,4,2,1,40,0,0
31070,-100,4,2,1,45,0,0
31415,-100,4,2,1,5,0,0
31760,-100,4,2,2,75,0,0
32018,-100,4,2,2,60,0,0
32277,-100,4,2,2,45,0,0
32622,-100,4,3,3,100,0,0
32794,-100,4,3,0,85,0,0
32967,-100,4,3,0,70,0,0
33139,-100,4,3,3,100,0,0
54518,-76.9230769230769,4,3,3,80,0,0
54863,-100,4,3,3,80,0,0
55208,-100,4,2,2,100,0,0
55380,-100,4,2,1,50,0,0
55553,-100,4,2,1,45,0,0
55898,-100,4,2,1,40,0,0
56242,-100,4,2,1,35,0,0
56587,-100,4,2,1,30,0,0
56932,-100,4,2,1,25,0,0
57277,-100,4,2,1,20,0,0
57622,-100,4,2,1,5,0,0
57967,-100,4,2,1,80,0,0
62104,-83.3333333333333,4,2,77,80,0,0
62277,-100,4,2,1,80,0,0
62622,-100,4,2,0,71,0,0
62967,-100,4,2,1,60,0,0
63139,-100,4,2,1,80,0,0
63311,-100,4,2,77,80,0,0
63484,-100,4,2,1,80,0,0
64863,-100,4,2,1,85,0,0
66242,-100,4,2,1,90,0,0
67622,-83.3333333333333,4,2,77,95,0,0
67794,-100,4,2,1,95,0,0
68139,-100,4,2,0,71,0,0
68311,-100,4,2,1,85,0,0
68484,-100,4,2,1,65,0,0
68656,-100,4,2,1,80,0,0
68829,-100,4,2,1,60,0,0
69001,-100,4,2,1,80,0,0
69173,-100,4,2,4,80,0,0
74001,-100,4,2,4,60,0,0
74173,-100,4,2,4,80,0,0
74346,-100,4,2,4,100,0,0
74518,-100,4,2,1,80,0,0
74691,-100,4,2,4,80,0,0
75898,-100,4,2,1,80,0,0
76071,-100,4,2,4,80,0,0
77277,-100,4,2,1,80,0,0
77450,-100,4,2,4,80,0,0
78656,-100,4,2,1,80,0,0
79346,-100,4,2,1,60,0,0
80036,-100,4,2,1,80,0,0
84173,-90.9090909090909,4,2,77,70,0,0
84691,-100,4,2,1,80,0,0
85380,-100,4,2,77,70,0,0
85553,-100,4,2,1,80,0,0
87967,-100,4,2,0,80,0,0
88311,-100,4,2,1,80,0,0
89691,-76.9230769230769,4,2,1,100,0,0
90898,-100,4,2,77,80,0,0
91070,-100,4,2,1,80,0,0
95208,-90.9090909090909,4,2,77,80,0,0
95380,-100,4,2,1,80,0,0
95725,-100,4,2,0,71,0,0
96415,-100,4,2,77,80,0,0
96587,-100,4,2,1,80,0,0
100725,-76.9230769230769,4,2,1,100,0,0
101932,-100,4,2,1,80,0,0
109518,-100,4,2,77,80,0,0
109691,-100,4,2,1,80,0,0
112277,-100,4,2,77,80,0,0
112450,-100,4,2,1,80,0,0
112967,-100,4,2,77,80,0,0
113139,-100,4,2,1,80,0,0
115036,-100,4,2,77,80,0,0
115209,-100,4,2,1,80,0,0
117104,-100,4,2,1,60,0,0
117277,-83.3333333333333,4,2,77,80,0,0
117450,-100,4,2,1,80,0,0
117794,-100,4,2,0,71,0,0
119346,-100,4,2,2,80,0,0
119518,-100,4,2,1,80,0,0
119863,-100,4,2,77,80,0,0
120036,-100,4,2,1,80,0,0
120725,-100,4,2,2,80,0,0
120897,-100,4,2,1,80,0,0
121415,-100,4,2,77,80,0,0
121588,-100,4,2,1,80,0,0
122104,-100,4,2,2,80,0,0
122276,-100,4,2,1,80,0,0
122794,-100,4,2,77,80,0,0
122967,-100,4,2,1,80,0,0
123484,-100,4,2,2,80,0,0
123656,-100,4,2,1,80,0,0
124173,-100,4,2,77,80,0,0
124346,-100,4,2,1,80,0,0
124863,-100,4,2,2,80,0,0
125035,-100,4,2,1,80,0,0
125553,-100,4,2,77,80,0,0
125726,-100,4,2,1,80,0,0
126242,-100,4,2,2,80,0,0
126414,-100,4,2,1,80,0,0
126932,-100,4,2,77,80,0,0
127105,-100,4,2,1,80,0,0
127622,-100,4,2,2,80,0,0
127794,-100,4,2,1,80,0,0
128139,-100,4,2,1,60,0,0
128311,-100,4,2,77,80,0,0
128484,-100,4,2,1,80,0,0
129173,-100,4,2,2,80,0,0
129518,-100,4,2,2,65,0,0
129691,-100,4,2,1,45,0,0
132622,-100,4,2,1,5,0,0
133139,-100,4,2,1,10,0,0
133829,-100,4,2,1,15,0,0
134518,-100,4,2,1,20,0,0
135208,-100,4,2,1,25,0,0
135898,-100,4,2,1,30,0,0
136242,-100,4,2,1,5,0,0
136587,-100,4,2,2,75,0,0
136846,-100,4,2,2,60,0,0
137104,-100,4,2,2,45,0,0
137449,-100,4,3,3,100,0,0
137621,-100,4,3,0,85,0,0
137794,-100,4,3,0,70,0,0
137966,-100,4,3,3,100,0,0
159346,-76.9230769230769,4,3,3,100,0,0
159691,-100,4,3,3,100,0,0
160036,-100,4,2,2,100,0,0
160208,-100,4,2,1,50,0,0
160380,-100,4,2,1,45,0,0
160725,-100,4,2,1,40,0,0
161070,-100,4,2,1,35,0,0
161415,-100,4,2,1,30,0,0
161760,-100,4,2,1,25,0,0
162105,-100,4,2,1,20,0,0
162449,-100,4,2,1,15,0,0
162794,-100,4,2,1,80,0,0
168139,-100,4,2,77,80,0,0
168311,-100,4,2,1,80,0,0
169001,-100,4,2,77,80,0,0
169174,-100,4,2,1,80,0,0
170380,-100,4,2,77,80,0,0
170553,-100,4,2,1,80,0,0
171760,-100,4,2,77,80,0,0
171933,-100,4,2,1,80,0,0
174518,-100,4,2,2,80,0,0
174691,-100,4,2,1,80,0,0
175036,-100,4,2,77,80,0,0
175209,-100,4,2,1,80,0,0
175898,-100,4,2,2,80,0,0
176070,-100,4,2,1,80,0,0
176415,-100,4,2,77,80,0,0
176588,-100,4,2,1,80,0,0
177277,-100,4,2,2,80,0,0
177450,-100,4,2,1,80,0,0
177967,-100,4,2,77,80,0,0
178140,-100,4,2,1,80,0,0
178656,-100,4,2,2,80,0,0
178829,-100,4,2,1,80,0,0
179346,-100,4,2,77,80,0,0
179519,-100,4,2,1,80,0,0
180036,-100,4,2,2,80,0,0
180209,-100,4,2,1,80,0,0
180553,-100,4,2,77,80,0,0
180726,-100,4,2,1,80,0,0
181415,-100,4,2,2,80,0,0
181587,-100,4,2,1,80,0,0
181932,-100,4,2,77,80,0,0
182105,-100,4,2,1,80,0,0
182794,-100,4,2,2,80,0,0
182967,-100,4,2,1,80,0,0
183484,-100,4,2,77,80,0,0
183657,-100,4,2,1,80,0,0
184173,-100,4,2,2,80,0,0
184346,-100,4,2,1,80,0,0
184863,-100,4,2,2,80,0,0
185208,-100,4,2,1,80,0,0
187967,-100,4,2,1,75,0,0
188311,-100,4,2,1,70,0,0
188656,-100,4,2,1,65,0,0
189001,-100,4,2,1,60,0,0
189346,-100,4,2,1,55,0,0
189691,-100,4,2,1,50,0,0
190725,-100,4,2,1,45,0,0
191069,-100,4,2,1,40,0,0
191414,-100,4,2,1,35,0,0
191759,-100,4,2,1,30,0,0
192104,-100,4,2,1,25,0,0
192449,-100,4,2,1,20,0,0
192793,-100,4,2,1,15,0,0
193139,-100,4,2,1,10,0,0

[Colours]
Combo1 : 123,141,155
Combo2 : 0,128,255
Combo3 : 16,167,239
Combo4 : 0,0,136

[HitObjects]
256,192,4863,5,2,0:0:0:0:
152,192,5036,1,0,0:0:0:0:
256,192,5208,1,2,0:0:0:0:
416,192,5380,1,4,0:0:0:0:
120,312,5553,5,8,0:0:0:0:
56,240,5725,1,0,0:0:0:0:
64,136,5898,1,2,0:0:0:0:
144,72,6070,1,0,0:0:0:0:
240,56,6242,1,2,3:2:0:0:
320,112,6415,1,0,0:0:0:0:
240,176,6587,1,0,0:0:0:0:
416,184,6760,6,0,L|304:184,1,100,2|0,0:0|0:0,0:0:0:0:
216,184,7104,1,0,0:0:0:0:
408,56,7277,2,0,P|440:154|344:234,1,200,2|0,0:0|0:0,0:0:0:0:
200,232,7794,1,2,3:2:0:0:
448,296,8311,5,2,0:0:0:0:
48,304,9001,1,0,3:0:0:0:
440,104,9518,6,0,L|440:228,1,100,2|0,0:0|0:0,0:0:0:0:
112,192,10036,1,2,0:0:0:0:
464,272,10380,1,2,0:0:0:0:
464,168,10553,1,0,0:0:0:0:
280,152,10725,1,2,0:0:0:0:
176,152,10898,1,4,0:0:0:0:
432,120,11070,5,10,0:0:0:0:
336,144,11242,1,0,0:0:0:0:
280,232,11415,1,2,0:0:0:0:
320,320,11587,1,0,0:0:0:0:
416,336,11760,1,2,3:2:0:0:
488,272,11932,1,0,0:0:0:0:
416,200,12104,1,0,0:0:0:0:
232,192,12277,6,0,L|232:80,1,100,2|0,0:0|0:0,0:0:0:0:
336,88,12622,1,0,0:0:0:0:
160,96,12794,2,0,P|232:176|336:176,1,200,2|0,0:0|0:0,0:0:0:0:
136,184,13311,1,2,3:2:0:0:
488,192,13829,5,2,0:0:0:0:
88,192,14518,1,2,3:2:0:0:
480,192,15036,2,0,L|344:192,1,100,2|0,3:2|0:0,0:0:0:0:
48,200,15553,1,2,0:0:0:0:
256,208,15898,1,2,0:0:0:0:
352,208,16070,1,0,0:0:0:0:
256,208,16242,1,2,0:0:0:0:
88,208,16415,1,4,0:0:0:0:
440,200,16587,5,8,0:0:0:0:
496,112,16760,1,0,0:0:0:0:
408,64,16932,1,2,0:0:0:0:
312,56,17104,1,0,0:0:0:0:
128,64,17277,1,8,0:0:0:0:
184,144,17449,1,2,0:0:0:0:
280,152,17622,1,0,0:0:0:0:
464,152,17794,6,0,L|464:264,1,100,2|0,0:0|0:0,0:0:0:0:
112,256,18311,1,2,0:0:0:0:
312,256,18656,1,8,0:0:0:0:
112,256,18829,1,2,0:0:0:0:
440,328,19346,6,0,P|477:213|288:43,1,400,2|8,0:0|0:0,0:0:0:0:
32,192,20553,2,0,L|144:192,1,100,2|0,0:0|0:0,0:0:0:0:
336,192,21070,1,2,0:0:0:0:
56,200,21415,1,8,0:0:0:0:
56,104,21587,1,0,0:0:0:0:
224,112,21760,1,2,0:0:0:0:
136,168,21932,1,0,0:0:0:0:
408,176,22104,5,2,0:0:0:0:
488,240,22277,1,0,0:0:0:0:
408,304,22449,1,2,0:0:0:0:
304,304,22622,1,0,0:0:0:0:
128,296,22794,2,0,P|88:280|120:208,1,100,12|2,0:0|0:0,0:0:0:0:
168,168,23139,1,0,0:0:0:0:
336,176,23311,6,0,L|448:176,1,100,2|0,0:0|0:0,0:0:0:0:
336,176,23656,1,0,0:0:0:0:
152,192,23828,2,0,P|232:152|240:40,1,200,2|12,0:0|0:0,0:0:0:0:
56,56,24345,1,2,0:0:0:0:
472,48,24863,5,2,0:0:0:0:
144,56,25553,2,0,P|192:200|352:224,1,300,8|4,0:0|0:0,0:0:0:0:
424,232,26242,5,2,0:0:0:0:
80,136,26587,1,2,0:0:0:0:
232,136,26760,1,8,0:0:0:0:
392,144,26932,1,2,0:0:0:0:
392,240,27104,1,8,0:0:0:0:
296,272,27277,1,2,0:0:0:0:
472,280,27449,1,8,0:0:0:0:
200,280,27622,6,0,P|88:280|16:192,2,200,8|8|8,0:0|0:0|0:0,0:0:0:0:
400,280,28656,1,8,0:0:0:0:
256,192,29001,12,0,31415,0:0:0:0:
256,192,31760,5,8,0:0:0:0:
336,192,32018,1,8,0:0:0:0:
184,192,32277,1,8,0:0:0:0:
456,200,32622,1,8,0:0:0:0:
208,192,32794,1,4,0:0:0:0:
40,192,32967,1,8,0:0:0:0:
384,192,33139,6,0,L|496:192,1,100,2|0,0:0|0:0,0:0:0:0:
312,192,33484,1,8,0:0:0:0:
200,192,33656,1,0,0:0:0:0:
400,192,33829,1,2,0:0:0:0:
288,192,34001,1,2,0:0:0:0:
24,208,34173,2,0,L|24:88,1,100,8|0,0:0|0:0,0:0:0:0:
296,104,34518,6,0,L|160:104,1,100,2|0,0:0|0:0,0:0:0:0:
16,104,34863,2,0,L|128:104,1,100,8|2,0:0|0:0,0:0:0:0:
288,96,35208,1,0,0:0:0:0:
408,96,35380,1,2,0:0:0:0:
448,208,35553,1,8,0:0:0:0:
336,240,35725,1,0,0:0:0:0:
24,256,35898,5,2,0:0:0:0:
136,256,36070,1,2,0:0:0:0:
400,256,36242,1,8,0:0:0:0:
512,256,36414,1,0,0:0:0:0:
96,256,36587,1,2,0:0:0:0:
96,256,36760,1,2,0:0:0:0:
416,256,36932,1,8,0:0:0:0:
416,256,37105,1,0,0:0:0:0:
48,272,37277,5,2,0:0:0:0:
208,272,37449,1,0,0:0:0:0:
496,272,37622,1,8,0:0:0:0:
256,272,37794,1,2,0:0:0:0:
16,272,37967,1,0,0:0:0:0:
256,272,38139,1,2,0:0:0:0:
504,280,38311,2,0,L|504:136,1,100,8|0,0:0|0:0,0:0:0:0:
192,184,38656,5,2,0:0:0:0:
80,184,38829,1,0,0:0:0:0:
336,184,39001,1,8,0:0:0:0:
224,184,39173,1,0,0:0:0:0:
400,184,39346,1,2,0:0:0:0:
288,184,39518,1,2,0:0:0:0:
16,184,39691,1,8,0:0:0:0:
16,304,39863,1,0,0:0:0:0:
312,304,40036,5,2,0:0:0:0:
424,304,40208,1,0,0:0:0:0:
144,304,40380,1,8,0:0:0:0:
256,304,40553,1,2,0:0:0:0:
456,304,40725,1,0,0:0:0:0:
320,304,40898,1,2,0:0:0:0:
32,296,41070,2,0,P|32:248|88:216,1,100,8|0,0:0|0:0,0:0:0:0:
336,216,41415,5,2,0:0:0:0:
456,216,41587,1,2,0:0:0:0:
184,208,41760,1,8,0:0:0:0:
16,208,41932,1,0,0:0:0:0:
176,208,42104,1,2,0:0:0:0:
336,208,42277,1,2,0:0:0:0:
40,208,42449,1,8,0:0:0:0:
40,88,42622,1,0,0:0:0:0:
312,80,42794,5,2,0:0:0:0:
464,80,42967,1,2,0:0:0:0:
16,272,43140,1,8,0:0:0:0:
256,272,43312,1,2,0:0:0:0:
376,272,43485,1,0,0:0:0:0:
72,272,43657,1,8,0:0:0:0:
360,272,43829,1,2,0:0:0:0:
72,272,44001,1,8,0:0:0:0:
352,272,44173,5,2,0:0:0:0:
464,272,44346,1,0,0:0:0:0:
200,272,44518,1,8,0:0:0:0:
368,264,44691,2,0,L|488:264,2,100,2|2|2,0:2|0:0|0:0,0:0:0:0:
72,208,45208,2,0,P|80:256|152:272,1,100,8|2,0:0|0:2,0:0:0:0:
392,264,45553,5,2,0:0:0:0:
392,264,45725,1,0,0:0:0:0:
112,272,45898,1,2,0:2:0:0:
284,272,46070,2,0,L|404:272,1,100,8|2,0:0|0:0,0:0:0:0:
384,160,46415,1,2,0:0:0:0:
88,144,46587,1,2,0:2:0:0:
200,144,46760,1,2,0:0:0:0:
464,136,46932,6,0,P|456:184|384:200,1,100,2|2,0:0|0:2,0:0:0:0:
160,208,47277,1,8,0:0:0:0:
160,208,47449,1,8,0:0:0:0:
413,206,47622,1,2,0:0:0:0:
413,206,47794,1,2,0:0:0:0:
88,216,47967,1,2,0:2:0:0:
88,216,48139,1,2,0:0:0:0:
464,208,48311,5,2,0:0:0:0:
312,208,48484,1,2,0:0:0:0:
16,272,48656,1,8,0:0:0:0:
256,272,48828,1,2,0:0:0:0:
496,272,49001,1,2,0:0:0:0:
208,216,49173,1,2,0:0:0:0:
472,216,49346,1,8,0:0:0:0:
472,104,49518,1,0,0:0:0:0:
184,112,49691,5,2,0:0:0:0:
296,112,49863,1,0,0:0:0:0:
8,112,50036,2,0,L|128:112,1,100,8|2,0:0|0:2,0:0:0:0:
256,104,50380,1,2,0:0:0:0:
144,104,50553,1,2,0:0:0:0:
424,96,50725,2,0,P|408:144|336:144,1,100,8|2,0:0|0:2,0:0:0:0:
64,112,51070,5,2,0:0:0:0:
64,224,51242,1,2,0:0:0:0:
360,232,51415,1,2,0:2:0:0:
192,232,51587,1,8,0:0:0:0:
136,136,51760,1,2,0:0:0:0:
272,112,51932,1,2,0:0:0:0:
16,104,52104,1,2,0:2:0:0:
128,104,52277,1,2,0:0:0:0:
384,104,52449,5,2,0:0:0:0:
256,104,52622,1,2,0:0:0:0:
512,104,52794,1,8,0:0:0:0:
336,112,52967,1,8,0:0:0:0:
152,120,53139,2,0,P|184:208|216:208,1,100,2|2,0:0|0:0,0:0:0:0:
464,200,53484,2,0,L|328:176,1,100,8|2,0:0|0:0,0:0:0:0:
72,176,53829,5,2,0:0:0:0:
248,176,54001,1,8,0:0:0:0:
504,176,54173,1,8,0:0:0:0:
392,176,54346,1,2,0:0:0:0:
136,184,54518,2,0,P|224:176|256:144,2,129.999994049073,10|2|8,0:0|0:0|0:0,0:0:0:0:
16,184,55036,1,2,0:0:0:0:
256,184,55208,5,4,0:0:0:0:
256,192,55380,12,0,57622,0:0:0:0:
256,192,57967,5,8,0:0:0:0:
400,192,58484,2,0,L|288:192,1,100,2|0,0:0|0:0,0:0:0:0:
144,200,58829,2,0,L|40:200,1,100,2|0,0:0|0:0,0:0:0:0:
208,200,59173,1,2,0:0:0:0:
400,200,59346,5,2,0:0:0:0:
96,200,59863,2,0,L|208:200,1,100,2|0,0:0|0:0,0:0:0:0:
356,200,60208,2,0,L|484:200,1,100,2|0,0:0|0:0,0:0:0:0:
296,200,60553,1,2,0:0:0:0:
104,200,60725,5,2,0:0:0:0:
408,208,61242,2,0,L|408:96,1,100,2|0,0:0|0:0,0:0:0:0:
232,96,61587,2,0,L|344:96,1,100,2|0,0:0|0:0,0:0:0:0:
160,96,61932,1,2,0:0:0:0:
408,96,62104,6,0,P|480:176|312:296,1,359.999989013672,4|2,0:0|0:0,0:0:0:0:
152,304,62794,1,2,0:0:0:0:
176,184,62967,1,0,0:0:0:0:
288,136,63139,1,2,0:0:0:0:
408,128,63311,1,4,0:0:0:0:
104,104,63484,5,8,0:0:0:0:
352,96,64001,2,0,P|328:160|280:176,1,100,2|0,0:0|0:0,0:0:0:0:
128,224,64346,2,0,P|152:160|200:144,1,100,2|0,0:0|0:0,0:0:0:0:
352,144,64691,1,2,0:0:0:0:
104,144,64863,5,2,0:0:0:0:
296,152,65380,2,0,L|424:152,1,100,2|0,0:0|0:0,0:0:0:0:
216,152,65725,2,0,L|112:152,1,100,2|0,0:0|0:0,0:0:0:0:
288,152,66070,1,2,0:0:0:0:
40,160,66242,5,2,0:0:0:0:
472,160,66760,2,0,L|360:160,1,100,2|0,0:0|0:0,0:0:0:0:
80,160,67104,2,0,L|208:160,1,100,2|0,0:0|0:0,0:0:0:0:
344,160,67449,1,2,0:0:0:0:
72,80,67622,6,0,P|32:184|208:304,1,359.999989013672,4|2,0:0|0:0,0:0:0:0:
328,168,68311,1,2,0:0:0:0:
208,168,68484,1,0,0:0:0:0:
312,272,68656,1,2,0:0:0:0:
448,272,68829,1,0,0:0:0:0:
112,144,69001,5,8,0:0:0:0:
64,256,69173,1,0,0:0:0:0:
152,336,69346,1,0,0:0:0:0:
264,304,69518,1,2,0:0:0:0:
424,264,69691,1,12,0:0:0:0:
496,168,69863,1,0,0:0:0:0:
424,72,70036,1,0,0:0:0:0:
304,96,70208,1,2,0:0:0:0:
128,152,70380,6,0,P|128:240|336:312,1,300,2|2,0:0|0:0,0:0:0:0:
472,320,71070,1,12,0:0:0:0:
472,200,71242,1,2,0:0:0:0:
136,184,71587,1,2,0:0:0:0:
424,232,71760,6,0,P|384:128|192:120,1,300,2|2,0:0|0:0,0:0:0:0:
40,112,72449,1,12,0:0:0:0:
160,112,72622,1,2,0:0:0:0:
488,112,72967,1,2,0:0:0:0:
240,112,73139,6,0,L|32:112,1,200,2|0,0:0|0:0,0:0:0:0:
208,112,73656,1,2,0:0:0:0:
384,112,73829,1,12,0:0:0:0:
480,184,74001,1,0,0:0:0:0:
448,296,74173,1,2,0:0:0:0:
328,272,74346,1,2,0:0:0:0:
72,240,74518,5,8,0:0:0:0:
312,240,74863,1,8,0:0:0:0:
192,240,75036,1,0,0:0:0:0:
72,240,75208,2,0,L|216:240,2,100,12|0|8,0:0|0:0|0:0,0:0:0:0:
232,240,75725,1,0,0:0:0:0:
480,240,75898,6,0,P|488:184|376:88,1,200,8|8,0:0|0:0,0:0:0:0:
208,88,76415,1,0,0:0:0:0:
307,87,76587,2,0,L|451:87,2,100,12|0|8,0:0|0:0|0:0,0:0:0:0:
475,88,77104,2,0,L|395:88,1,50,2|2,0:0|0:0,0:0:0:0:
200,208,77277,6,0,P|104:192|112:80,1,200,8|8,3:2|3:2,3:3:0:0:
272,104,77794,1,0,3:2:0:0:
376,104,77967,2,0,L|376:208,1,100,12|0,3:2|3:2,3:3:0:0:
208,192,78311,2,0,L|344:192,1,100,8|0,3:2|3:2,3:3:0:0:
48,192,78656,5,8,0:0:0:0:
256,192,79173,1,0,0:0:0:0:
136,56,79346,1,2,0:0:0:0:
56,120,79518,1,0,0:0:0:0:
80,216,79691,1,2,0:0:0:0:
176,224,79863,1,0,0:0:0:0:
448,192,80036,5,8,0:0:0:0:
448,192,80208,1,2,0:0:0:0:
152,200,80725,1,2,0:0:0:0:
344,200,81070,1,0,0:0:0:0:
184,200,81242,5,2,0:0:0:0:
480,200,81587,1,2,0:0:0:0:
256,200,81932,1,0,0:0:0:0:
416,200,82104,1,2,0:0:0:0:
208,200,82449,1,0,0:0:0:0:
368,200,82622,5,2,0:0:0:0:
80,208,82967,1,2,0:0:0:0:
256,200,83311,1,0,0:0:0:0:
424,200,83484,1,2,0:0:0:0:
224,200,83829,1,0,0:0:0:0:
64,200,84001,1,2,0:0:0:0:
312,200,84173,6,0,P|440:192|376:48,1,330.000010070801,4|0,0:0|0:0,0:0:0:0:
208,152,84863,1,2,0:0:0:0:
120,208,85036,1,0,0:0:0:0:
64,128,85208,1,2,0:0:0:0:
144,72,85380,1,4,0:0:0:0:
304,80,85553,6,0,L|416:80,1,100,0|2,0:0|0:0,0:0:0:0:
264,184,86070,1,0,0:0:0:0:
456,184,86242,1,2,0:0:0:0:
256,184,86587,1,0,0:0:0:0:
424,184,86760,5,2,0:0:0:0:
136,192,87104,1,2,0:0:0:0:
336,192,87449,1,0,0:0:0:0:
176,192,87622,1,2,0:0:0:0:
376,192,87967,2,0,L|376:80,1,100,2|0,2:3|0:0,0:0:0:0:
72,88,88311,5,8,0:0:0:0:
96,184,88484,1,0,0:0:0:0:
160,256,88656,1,0,0:0:0:0:
256,272,88829,1,0,0:0:0:0:
352,256,89001,1,2,0:0:0:0:
424,184,89173,1,0,0:0:0:0:
392,88,89346,1,2,0:0:0:0:
296,64,89518,1,0,0:0:0:0:
56,64,89691,6,0,P|55:217|164:251,1,259.999988098145,8|2,0:0|0:0,0:0:0:0:
384,216,90208,2,0,L|144:80,1,259.999988098145,8|2,0:0|0:0,0:0:0:0:
472,112,90725,2,0,P|472:176|408:208,1,129.999994049073,8|4,0:0|0:0,0:0:0:0:
168,192,91070,5,0,0:0:0:0:
72,200,91242,1,2,0:0:0:0:
24,112,91415,1,0,0:0:0:0:
112,72,91587,1,0,0:0:0:0:
280,72,91760,2,0,L|392:72,1,100,2|0,0:0|0:0,0:0:0:0:
280,72,92104,1,0,0:0:0:0:
32,80,92277,6,0,L|32:192,1,100,2|0,0:0|0:0,0:0:0:0:
208,184,92622,2,0,L|320:184,1,100,2|0,0:0|0:0,0:0:0:0:
208,184,92967,1,0,0:0:0:0:
384,184,93139,1,2,0:0:0:0:
480,184,93311,1,0,0:0:0:0:
480,184,93484,1,0,0:0:0:0:
232,192,93656,6,0,L|104:192,1,100,2|0,0:0|0:0,0:0:0:0:
296,192,94001,2,0,L|196:192,1,100,2|0,0:0|0:0,0:0:0:0:
296,192,94346,1,0,0:0:0:0:
120,200,94518,2,0,P|96:152|144:104,1,100,2|0,0:0|0:0,0:0:0:0:
216,112,94863,1,0,0:0:0:0:
376,112,95036,1,2,0:0:0:0:
104,112,95208,6,0,P|72:208|280:280,1,330.000010070801,4|0,0:0|0:0,0:0:0:0:
424,272,95898,1,2,0:0:0:0:
488,200,96070,1,0,0:0:0:0:
448,104,96242,1,2,0:0:0:0:
360,56,96415,1,4,0:0:0:0:
112,64,96587,6,0,P|112:104|176:128,1,100,0|2,0:0|0:0,0:0:0:0:
256,128,96932,1,0,0:0:0:0:
352,128,97104,1,0,0:0:0:0:
184,144,97277,2,0,L|304:144,1,100,2|0,0:0|0:0,0:0:0:0:
384,144,97622,1,0,0:0:0:0:
120,168,97794,6,0,L|120:56,1,100,2|0,0:0|0:0,0:0:0:0:
280,72,98139,2,0,L|280:184,1,100,2|0,0:0|0:0,0:0:0:0:
176,176,98484,1,0,0:0:0:0:
360,168,98656,2,0,L|248:168,2,100,2|0|2,0:0|0:0|2:3,0:0:0:0:
464,168,99173,1,0,0:0:0:0:
176,168,99346,5,8,0:0:0:0:
200,264,99518,1,0,0:0:0:0:
296,280,99691,1,0,0:0:0:0:
344,192,99863,1,0,0:0:0:0:
256,112,100036,1,2,0:0:0:0:
136,128,100208,1,0,0:0:0:0:
88,240,100380,1,2,0:0:0:0:
216,272,100553,1,0,0:0:0:0:
480,264,100725,6,0,P|480:152|384:48,1,259.999988098145,8|0,0:0|0:0,0:0:0:0:
144,80,101242,2,0,P|16:80|152:80,1,259.999988098145,8|0,0:0|0:0,0:0:0:0:
432,88,101760,2,0,P|384:128|304:136,1,129.999994049073,10|0,0:0|0:0,0:0:0:0:
48,144,102104,5,2,0:0:0:0:
48,96,102191,1,2,0:0:0:0:
312,192,107622,5,2,0:0:0:0:
168,192,108139,1,2,0:0:0:0:
368,192,108484,1,2,0:0:0:0:
168,192,108829,1,2,0:0:0:0:
328,192,109001,5,0,0:0:0:0:
80,192,109518,1,4,0:0:0:0:
280,192,109863,1,2,0:0:0:0:
80,192,110208,1,2,0:0:0:0:
256,192,110380,5,2,0:0:0:0:
400,192,110898,1,2,0:0:0:0:
200,192,111242,1,2,0:0:0:0:
400,192,111587,1,0,0:0:0:0:
120,192,111760,6,0,P|48:136|176:40,1,300,2|4,0:0|0:0,0:0:0:0:
328,48,112449,1,2,0:0:0:0:
432,48,112622,1,0,0:0:0:0:
328,48,112794,1,0,0:0:0:0:
472,48,112967,1,4,0:0:0:0:
208,56,113139,5,2,0:0:0:0:
416,56,113656,1,2,0:0:0:0:
232,56,114001,1,2,0:0:0:0:
432,56,114346,1,2,0:0:0:0:
272,64,114518,5,2,0:0:0:0:
88,64,115036,1,4,0:0:0:0:
288,64,115380,1,2,0:0:0:0:
88,88,115725,1,2,0:0:0:0:
256,96,115898,5,2,0:0:0:0:
168,96,116415,1,2,0:0:0:0:
368,96,116759,1,2,0:0:0:0:
144,96,117104,1,0,0:0:0:0:
400,88,117277,6,0,P|472:168|304:256,1,359.999989013672,4|2,0:0|0:0,0:0:0:0:
128,272,117967,1,2,0:0:0:0:
48,208,118139,1,0,0:0:0:0:
64,112,118311,1,2,0:0:0:0:
152,64,118484,1,0,0:0:0:0:
408,80,118656,6,0,L|128:208,1,300,2|2,0:0|0:0,0:0:0:0:
312,208,119346,1,8,0:0:0:0:
464,208,119518,1,0,0:0:0:0:
264,208,119863,1,4,0:0:0:0:
16,208,120036,5,0,0:0:0:0:
224,208,120553,1,0,0:0:0:0:
56,208,120725,1,8,0:0:0:0:
160,208,120898,2,0,L|288:208,1,100,0|0,0:0|0:0,0:0:0:0:
160,208,121243,1,0,0:0:0:0:
416,216,121415,6,0,P|464:160|360:80,1,200,4|0,0:0|0:0,0:0:0:0:
232,64,121932,1,0,0:0:0:0:
136,64,122104,1,8,0:0:0:0:
312,64,122277,1,0,0:0:0:0:
112,64,122622,1,0,0:0:0:0:
392,72,122794,6,0,P|392:168|184:216,1,300,4|0,0:0|0:0,0:0:0:0:
400,232,123484,1,0,0:0:0:0:
304,232,123656,1,0,0:0:0:0:
200,232,123829,1,0,0:0:0:0:
304,232,124001,1,0,0:0:0:0:
48,240,124173,6,0,P|48:160|232:64,1,300,4|0,0:0|0:0,0:0:0:0:
384,64,124863,1,8,0:0:0:0:
232,64,125036,1,0,0:0:0:0:
32,64,125380,1,0,0:0:0:0:
280,64,125553,6,0,P|176:200|40:216,1,300,4|0,0:0|0:0,0:0:0:0:
216,224,126242,1,8,0:0:0:0:
112,224,126415,1,0,0:0:0:0:
312,224,126760,1,0,0:0:0:0:
64,208,126932,6,0,L|368:72,1,300,4|0,0:0|0:0,0:0:0:0:
168,80,127622,1,8,0:0:0:0:
336,72,127794,1,0,0:0:0:0:
136,80,128139,1,0,0:0:0:0:
408,80,128311,6,0,P|464:176|304:240,1,300,4|8,0:0|0:0,0:0:0:0:
176,256,129001,1,0,0:0:0:0:
264,216,129173,1,8,0:0:0:0:
144,176,129346,1,0,0:0:0:0:
32,128,129518,1,2,0:0:0:0:
280,120,129691,5,8,0:0:0:0:
256,192,132449,5,8,0:0:0:0:
256,192,132622,12,0,136242,0:0:0:0:
256,192,136587,5,8,0:0:0:0:
392,192,136846,1,8,0:0:0:0:
256,192,137104,1,8,0:0:0:0:
64,200,137449,1,8,0:0:0:0:
360,192,137622,1,4,0:0:0:0:
480,192,137794,1,8,0:0:0:0:
128,192,137967,6,0,L|16:192,1,100,2|0,0:0|0:0,0:0:0:0:
200,192,138312,1,8,0:0:0:0:
312,192,138484,1,0,0:0:0:0:
456,192,138657,1,2,0:0:0:0:
344,192,138829,1,2,0:0:0:0:
80,200,139001,2,0,L|80:80,1,100,8|0,0:0|0:0,0:0:0:0:
384,72,139346,6,0,L|248:72,1,100,2|0,0:0|0:0,0:0:0:0:
96,64,139691,2,0,L|96:176,1,100,8|2,0:0|0:0,0:0:0:0:
368,88,140036,1,0,0:0:0:0:
248,88,140208,1,2,0:0:0:0:
208,200,140381,1,8,0:0:0:0:
320,232,140553,1,0,0:0:0:0:
40,192,140725,6,0,L|40:64,1,100,2|2,0:0|0:0,0:0:0:0:
256,112,141070,1,8,0:0:0:0:
160,88,141242,1,0,0:0:0:0:
320,72,141415,1,2,0:0:0:0:
208,40,141587,1,2,0:0:0:0:
488,64,141760,2,0,L|488:192,1,100,8|0,0:0|0:0,0:0:0:0:
248,168,142104,5,2,0:0:0:0:
104,168,142277,1,2,0:0:0:0:
496,192,142449,1,8,0:0:0:0:
256,192,142622,1,2,0:0:0:0:
8,192,142794,1,0,0:0:0:0:
256,192,142967,1,2,0:0:0:0:
8,192,143139,2,0,L|112:192,1,100,8|2,0:0|0:0,0:0:0:0:
356,192,143484,6,0,L|244:192,1,100,2|2,0:0|0:0,0:0:0:0:
424,192,143829,1,8,0:0:0:0:
424,96,144001,1,2,0:0:0:0:
264,80,144173,1,2,0:0:0:0:
368,80,144346,1,2,0:0:0:0:
112,88,144518,2,0,L|8:88,1,100,8|0,0:0|0:0,0:0:0:0:
256,96,144863,5,2,0:0:0:0:
360,96,145036,1,2,0:0:0:0:
96,104,145208,1,8,0:0:0:0:
208,136,145380,1,2,0:0:0:0:
280,232,145553,1,0,0:0:0:0:
168,264,145725,1,2,0:0:0:0:
424,240,145898,2,0,P|472:240|408:240,1,100,8|0,0:0|0:0,0:0:0:0:
128,232,146242,5,2,0:0:0:0:
128,112,146415,1,2,0:0:0:0:
376,224,146587,1,8,0:0:0:0:
432,120,146760,1,0,0:0:0:0:
256,120,146932,1,2,0:0:0:0:
352,48,147104,1,2,0:0:0:0:
64,56,147277,1,8,0:0:0:0:
184,56,147449,1,0,0:0:0:0:
480,136,147622,5,2,0:0:0:0:
328,136,147794,1,2,0:0:0:0:
16,272,147967,1,8,0:0:0:0:
256,272,148139,1,2,0:0:0:0:
376,272,148312,1,0,0:0:0:0:
216,272,148484,1,8,0:0:0:0:
504,272,148656,1,2,0:0:0:0:
256,272,148828,1,8,0:0:0:0:
8,280,149001,6,0,L|128:280,1,100,6|2,0:0|0:0,0:0:0:0:
368,280,149346,1,8,0:0:0:0:
240,280,149518,2,0,L|128:280,2,100,2|2|2,0:2|0:0|0:0,0:0:0:0:
496,288,150036,2,0,P|464:336|400:328,1,100,8|2,0:0|0:2,0:0:0:0:
176,184,150380,5,2,0:0:0:0:
304,184,150553,1,0,0:0:0:0:
64,144,150725,1,2,0:2:0:0:
192,144,150898,2,0,L|72:144,1,100,8|2,0:0|0:0,0:0:0:0:
224,144,151242,1,2,0:0:0:0:
472,72,151415,1,2,0:2:0:0:
472,200,151587,1,0,0:0:0:0:
176,208,151760,5,2,0:0:0:0:
176,208,151932,1,0,0:0:0:0:
424,208,152104,1,8,0:0:0:0:
424,208,152277,1,2,0:2:0:0:
96,208,152449,1,2,0:0:0:0:
96,208,152622,1,2,0:0:0:0:
344,200,152794,1,8,0:0:0:0:
488,200,152967,1,2,0:2:0:0:
200,192,153139,5,2,0:0:0:0:
352,192,153311,1,2,0:0:0:0:
104,192,153484,1,8,0:0:0:0:
360,192,153656,1,2,0:0:0:0:
8,192,153829,1,0,0:0:0:0:
256,192,154001,1,2,0:0:0:0:
504,192,154173,2,0,L|504:64,1,100,8|8,0:0|0:0,0:0:0:0:
224,88,154518,5,2,0:0:0:0:
104,88,154691,1,0,0:0:0:0:
368,88,154863,1,8,0:0:0:0:
488,88,155036,2,0,P|472:144|400:144,1,100,2|2,0:2|0:0,0:0:0:0:
320,160,155380,1,2,0:0:0:0:
72,160,155553,1,8,0:0:0:0:
192,160,155725,1,2,0:2:0:0:
456,160,155898,5,2,0:0:0:0:
456,160,156070,1,0,0:0:0:0:
208,192,156242,1,2,0:2:0:0:
88,192,156415,1,8,0:0:0:0:
32,88,156587,1,2,0:0:0:0:
144,48,156760,1,2,0:0:0:0:
392,64,156932,1,2,0:2:0:0:
512,64,157104,1,0,0:0:0:0:
256,64,157277,5,2,0:0:0:0:
256,184,157449,1,0,0:0:0:0:
504,192,157622,1,8,0:0:0:0:
384,192,157794,1,2,0:2:0:0:
136,192,157967,1,2,0:0:0:0:
16,192,158139,1,2,0:0:0:0:
272,192,158311,1,8,0:0:0:0:
392,192,158484,1,2,0:2:0:0:
144,184,158656,5,2,0:0:0:0:
280,184,158828,1,8,0:0:0:0:
8,176,159000,1,8,0:0:0:0:
120,176,159173,1,2,0:0:0:0:
360,184,159346,2,0,L|200:184,2,129.999994049073,8|2|8,0:0|0:0|0:0,0:0:0:0:
496,184,159863,1,2,0:2:0:0:
256,184,160035,5,4,0:0:0:0:
256,192,160208,12,0,162450,0:0:0:0:
256,192,162794,5,8,0:0:0:0:
360,192,162967,2,0,P|376:136|256:56,1,200,2|0,0:0|0:0,0:0:0:0:
112,72,163484,2,0,P|104:136|224:184,1,200,2|0,0:0|0:0,0:0:0:0:
48,184,164001,5,2,0:0:0:0:
256,184,164346,1,2,0:0:0:0:
456,184,164691,1,0,0:0:0:0:
288,184,164863,1,2,0:0:0:0:
488,184,165208,1,0,0:0:0:0:
320,168,165380,6,0,L|216:168,1,100,2|0,0:0|0:0,0:0:0:0:
48,168,165725,2,0,P|56:232|120:248,1,100,2|0,0:0|0:0,0:0:0:0:
184,240,166070,1,0,0:0:0:0:
368,232,166242,2,0,P|456:200|424:96,1,200,2|0,0:0|0:0,0:0:0:0:
272,72,166760,5,2,0:0:0:0:
472,72,167104,1,2,0:0:0:0:
272,72,167449,1,0,0:0:0:0:
472,64,167622,1,2,0:0:0:0:
496,160,167794,1,0,0:0:0:0:
456,248,167967,1,2,0:0:0:0:
360,272,168139,1,4,0:0:0:0:
192,297,168311,5,0,0:0:0:0:
368,292,168484,2,0,P|368:220|256:164,1,200,2|0,0:0|0:0,0:0:0:0:
166,172,169001,2,0,L|366:68,1,200,4|0,0:0|0:0,0:0:0:0:
183,83,169518,5,2,0:0:0:0:
383,80,169863,1,2,0:0:0:0:
208,80,170208,1,0,0:0:0:0:
368,80,170380,1,4,0:0:0:0:
168,88,170725,1,0,0:0:0:0:
336,88,170898,6,0,L|440:88,1,100,2|0,0:0|0:0,0:0:0:0:
264,88,171242,2,0,L|144:88,1,100,2|0,0:0|0:0,0:0:0:0:
164,88,171587,1,0,0:0:0:0:
344,80,171760,2,0,L|224:80,1,100,4|0,0:0|0:0,0:0:0:0:
144,72,172104,1,0,0:0:0:0:
304,72,172277,5,2,0:0:0:0:
304,72,172622,1,2,0:0:0:0:
104,72,172967,1,0,0:0:0:0:
256,88,173139,1,2,0:0:0:0:
160,104,173311,1,0,0:0:0:0:
104,192,173484,1,2,0:0:0:0:
168,264,173656,1,0,0:0:0:0:
440,264,173829,5,8,0:0:0:0:
344,272,174001,2,0,L|344:160,1,100,2|0,0:0|0:0,0:0:0:0:
448,168,174346,1,0,0:0:0:0:
272,168,174518,2,0,L|128:168,2,100,8|0|0,0:0|0:0|0:0,0:0:0:0:
376,168,175036,1,4,0:0:0:0:
200,168,175208,5,0,0:0:0:0:
104,168,175380,1,2,0:0:0:0:
304,168,175725,1,2,0:0:0:0:
144,168,175898,1,8,0:0:0:0:
144,168,176070,1,2,0:0:0:0:
344,168,176415,5,4,0:0:0:0:
56,176,176760,1,2,0:0:0:0:
256,176,177104,1,0,0:0:0:0:
96,176,177277,1,8,0:0:0:0:
96,176,177449,1,2,0:0:0:0:
144,264,177622,1,0,0:0:0:0:
320,272,177794,6,0,L|448:272,1,100,2|4,0:0|0:0,0:0:0:0:
256,272,178139,2,0,L|256:168,1,100,0|0,0:0|0:0,0:0:0:0:
360,176,178484,1,2,0:0:0:0:
192,160,178656,1,8,0:0:0:0:
288,200,178829,1,2,0:0:0:0:
296,296,179001,1,0,0:0:0:0:
200,320,179173,1,2,0:0:0:0:
456,304,179346,5,4,0:0:0:0:
360,304,179518,2,0,L|240:304,1,100,0|0,0:0|0:0,0:0:0:0:
360,304,179863,1,2,0:0:0:0:
192,304,180036,2,0,P|128:256|144:216,1,100,8|0,0:0|0:0,0:0:0:0:
224,240,180380,1,0,0:0:0:0:
48,240,180553,5,4,0:0:0:0:
248,240,180898,1,0,0:0:0:0:
48,240,181242,1,2,0:0:0:0:
208,240,181415,1,8,0:0:0:0:
112,240,181587,1,2,0:0:0:0:
408,240,181932,1,4,0:0:0:0:
408,240,182104,5,0,0:0:0:0:
256,240,182277,1,2,0:0:0:0:
456,240,182622,1,0,0:0:0:0:
296,240,182794,1,8,0:0:0:0:
192,240,182967,2,0,L|72:240,1,100,0|0,0:0|0:0,0:0:0:0:
264,248,183311,6,0,L|400:248,1,100,2|4,0:0|0:0,0:0:0:0:
192,256,183656,2,0,P|152:208|200:168,1,100,0|0,0:0|0:0,0:0:0:0:
336,200,184001,2,0,P|376:152|328:112,1,100,2|8,0:0|0:0,0:0:0:0:
184,128,184346,2,0,L|48:128,1,100,2|0,0:0|0:0,0:0:0:0:
84,128,184691,1,2,0:0:0:0:
392,200,184863,6,0,L|256:200,1,100,8|0,0:0|0:0,0:0:0:0:
192,200,185208,2,0,L|88:152,1,100,2|0,0:0|0:0,0:0:0:0:
200,144,185553,2,0,L|336:144,1,100,2|0,0:0|0:0,0:0:0:0:
400,144,185898,2,0,L|256:144,1,100,2|0,0:0|0:0,0:0:0:0:
464,144,186242,6,0,P|488:176|448:240,1,100,2|0,0:0|0:0,0:0:0:0:
368,232,186587,2,0,L|256:232,1,100,2|0,0:0|0:0,0:0:0:0:
168,232,186932,2,0,L|56:232,1,100,2|0,0:0|0:0,0:0:0:0:
168,240,187277,2,0,P|192:272|152:336,1,100,2|0,0:0|0:0,0:0:0:0:
72,328,187622,5,2,0:0:0:0:
232,320,187794,1,0,0:0:0:0:
352,216,187967,1,2,0:0:0:0:
232,216,188139,1,0,0:0:0:0:
112,216,188311,1,2,0:0:0:0:
232,216,188484,1,0,0:0:0:0:
352,216,188656,1,2,0:0:0:0:
232,216,188829,1,0,0:0:0:0:
80,224,189001,5,2,0:0:0:0:
24,112,189173,1,0,0:0:0:0:
152,104,189346,1,2,0:0:0:0:
320,104,189518,1,0,0:0:0:0:
208,104,189691,1,2,0:0:0:0:
304,104,189863,1,0,0:0:0:0:
224,104,190036,1,2,0:0:0:0:
256,104,190208,1,0,0:0:0:0:
256,192,190380,12,0,193139,0:0:0:0:
