osu file format v14

[General]
AudioFilename: audio.mp3
AudioLeadIn: 0
PreviewTime: 107277
Countdown: 0
SampleSet: Drum
StackLeniency: 0.7
Mode: 2
LetterboxInBreaks: 0
WidescreenStoryboard: 0

[Editor]
Bookmarks: 33139,107622,132449,137967,160036,162794,168311,173829,184863,190036
DistanceSpacing: 1.3
BeatDivisor: 4
GridSize: 4
TimelineZoom: 4.099998

[Metadata]
Title:STARS ALIGN
TitleUnicode:STARS ALIGN
Artist:dark cat
ArtistUnicode:dark cat
Creator:wonjae
Version:Constellation
Source:osu!
Tags:catstep electronic mappers guild featured artist paranoid grapes jbh jbhyperion absolute zero wildone94 benita
BeatmapID:2206833
BeatmapSetID:1055938

[Difficulty]
HPDrainRate:6
CircleSize:3
OverallDifficulty:9.3
ApproachRate:9.3
SliderMultiplier:2.4
SliderTickRate:1

[Events]
//Background and Video events
0,0,"blues.jpg",0,0
//Break Periods
2,55408,57413
2,102391,104654
2,129891,131895
2,162994,167757
//Storyboard Layer 0 (Background)
//Storyboard Layer 1 (Fail)
//Storyboard Layer 2 (Pass)
//Storyboard Layer 3 (Foreground)
//Storyboard Layer 4 (Overlay)
//Storyboard Sound Samples

[TimingPoints]
36,344.827586206897,4,2,1,5,1,0
4863,-100,4,2,1,100,0,0
5380,-100,4,2,77,80,0,0
5553,-100,4,2,1,100,0,0
10898,-100,4,2,77,80,0,0
11071,-100,4,2,1,100,0,0
16415,-100,4,2,77,80,0,0
16588,-100,4,2,1,100,0,0
17277,-100,4,2,2,100,0,0
17449,-100,4,2,1,100,0,0
18656,-100,4,2,2,100,0,0
18828,-100,4,2,1,100,0,0
20036,-100,4,2,2,100,0,0
20208,-100,4,2,1,100,0,0
21415,-100,4,2,2,100,0,0
21587,-100,4,2,1,100,0,0
22794,-100,4,2,2,100,0,0
22966,-100,4,2,1,100,0,0
24173,-100,4,2,2,100,0,0
24345,-100,4,2,1,100,0,0
25553,-100,4,2,2,100,0,0
25725,-100,4,2,1,100,0,0
26070,-100,4,2,77,80,0,0
26242,-100,4,2,1,100,0,0
26760,-100,4,2,2,85,0,0
26932,-100,4,2,1,85,0,0
27104,-100,4,2,2,70,0,0
27276,-100,4,2,1,70,0,0
27449,-100,4,2,2,55,0,0
27622,-100,4,2,1,55,0,0
27967,-100,4,2,1,55,0,0
28311,-100,4,2,1,55,0,0
28656,-100,4,2,1,55,0,0
29001,-100,4,2,1,55,0,0
29346,-100,4,2,1,55,0,0
29691,-100,4,2,1,55,0,0
30036,-100,4,2,1,55,0,0
30380,-100,4,2,1,55,0,0
30725,-100,4,2,1,55,0,0
31070,-100,4,2,1,55,0,0
31415,-100,4,2,1,55,0,0
31587,-100,4,2,1,55,0,0
31760,-100,4,2,2,75,0,0
32622,-100,4,3,3,100,0,0
32794,-100,4,3,0,85,0,0
32967,-100,4,3,0,70,0,0
33139,-100,4,3,3,100,0,0
54518,-100,4,3,3,80,0,0
55208,-100,4,2,2,100,0,0
57967,-100,4,2,1,80,0,0
62104,-100,4,2,77,80,0,0
62277,-100,4,2,1,80,0,0
62880,-100,4,2,1,40,0,0
62967,-100,4,2,1,60,0,0
63139,-100,4,2,1,80,0,0
63225,-100,4,2,1,40,0,0
63311,-100,4,2,77,80,0,0
63398,-100,4,2,1,40,0,0
63484,-100,4,2,1,80,0,0
64863,-100,4,2,1,85,0,0
66242,-100,4,2,1,90,0,0
67622,-100,4,2,77,95,0,0
67794,-100,4,2,1,95,0,0
68139,-100,4,2,0,71,0,0
68311,-100,4,2,1,85,0,0
68398,-100,4,2,1,40,0,0
68484,-100,4,2,1,65,0,0
68656,-100,4,2,1,80,0,0
68742,-100,4,2,1,40,0,0
68829,-100,4,2,1,60,0,0
68915,-100,4,2,1,40,0,0
69001,-100,4,2,1,80,0,0
69173,-100,4,2,4,80,0,0
73915,-100,4,2,1,40,0,0
74001,-100,4,2,4,60,0,0
74173,-100,4,2,4,80,0,0
74260,-100,4,2,1,40,0,0
74346,-100,4,2,4,100,0,0
74432,-100,4,2,1,40,0,0
74518,-100,4,2,1,80,0,0
74691,-100,4,2,4,80,0,0
75898,-100,4,2,1,80,0,0
76071,-100,4,2,4,80,0,0
77277,-100,4,2,1,80,0,0
77450,-100,4,2,4,80,0,0
78656,-100,4,2,1,80,0,0
78829,-100,4,2,1,80,0,0
79001,-100,4,2,1,80,0,0
79346,-100,4,2,1,60,0,0
79691,-100,4,2,1,60,0,0
80036,-100,4,2,1,80,0,0
84173,-100,4,2,77,70,0,0
84691,-100,4,2,1,80,0,0
85380,-100,4,2,77,70,0,0
85553,-100,4,2,1,80,0,0
87967,-100,4,2,0,80,0,0
88311,-100,4,2,1,80,0,0
89691,-100,4,2,1,100,0,0
90898,-100,4,2,1,100,0,0
91070,-100,4,2,1,100,0,0
95208,-100,4,2,77,80,0,0
95380,-100,4,2,1,80,0,0
95725,-100,4,2,0,71,0,0
96415,-100,4,2,77,80,0,0
96587,-100,4,2,1,80,0,0
100725,-100,4,2,1,100,0,0
102104,-100,4,2,1,100,0,0
105208,-100,4,2,1,100,0,0
105553,-100,4,2,1,100,0,0
105898,-100,4,2,1,100,0,0
106242,-100,4,2,1,100,0,0
106587,-100,4,2,1,100,0,0
106932,-100,4,2,1,100,0,0
107277,-100,4,2,1,100,0,0
107622,-100,4,2,1,100,0,0
108311,-100,4,2,1,100,0,0
108484,-100,4,2,1,100,0,0
108541,-100,4,2,1,40,0,0
109217,-100,4,2,1,40,0,0
109518,-100,4,2,77,80,0,0
109691,-100,4,2,1,80,0,0
111070,-100,4,2,1,80,0,0
111243,-100,4,2,1,80,0,0
111501,-100,4,2,1,40,0,0
111975,-100,4,2,1,40,0,0
112277,-100,4,2,77,80,0,0
112450,-100,4,2,1,80,0,0
112536,-100,4,2,1,40,0,0
112622,-100,4,2,1,80,0,0
112967,-100,4,2,77,80,0,0
113139,-100,4,2,1,80,0,0
113829,-100,4,2,1,80,0,0
114002,-100,4,2,1,80,0,0
115036,-100,4,2,77,80,0,0
115209,-100,4,2,1,80,0,0
116587,-100,4,2,1,80,0,0
116630,-100,4,2,1,40,0,0
116760,-100,4,2,1,80,0,0
116932,-100,4,2,1,40,0,0
117047,-100,4,2,1,80,0,0
117104,-100,4,2,1,60,0,0
117191,-100,4,2,1,5,0,0
117277,-100,4,2,77,80,0,0
117450,-100,4,2,1,80,0,0
117794,-100,4,2,0,71,0,0
119346,-100,4,2,2,80,0,0
119518,-100,4,2,1,80,0,0
119863,-100,4,2,77,80,0,0
120036,-100,4,2,1,80,0,0
120079,-100,4,2,1,40,0,0
120265,-100,4,2,1,80,0,0
120725,-100,4,2,2,80,0,0
120897,-100,4,2,1,80,0,0
121415,-100,4,2,77,80,0,0
121588,-100,4,2,1,80,0,0
122104,-100,4,2,2,80,0,0
122276,-100,4,2,1,80,0,0
122794,-100,4,2,77,80,0,0
122967,-100,4,2,1,80,0,0
123010,-100,4,2,1,40,0,0
123225,-100,4,2,1,80,0,0
123484,-100,4,2,2,80,0,0
123505,-100,4,2,2,80,0,0
123656,-100,4,2,1,80,0,0
124173,-100,4,2,77,80,0,0
124346,-100,4,2,1,80,0,0
124863,-100,4,2,2,80,0,0
125035,-100,4,2,1,80,0,0
125553,-100,4,2,77,80,0,0
125726,-100,4,2,1,80,0,0
125984,-100,4,2,1,40,0,0
126070,-100,4,2,1,80,0,0
126242,-100,4,2,2,80,0,0
126414,-100,4,2,1,80,0,0
126932,-100,4,2,77,80,0,0
127105,-100,4,2,1,80,0,0
127622,-100,4,2,2,80,0,0
127794,-100,4,2,1,80,0,0
127967,-100,4,2,1,39,0,0
128074,-100,4,2,1,80,0,0
128139,-100,4,2,1,60,0,0
128247,-100,4,2,1,40,0,0
128311,-100,4,2,77,80,0,0
128484,-100,4,2,1,80,0,0
129173,-100,4,2,2,80,0,0
129195,-100,4,2,2,80,0,0
129411,-100,4,2,2,80,0,0
129518,-100,4,2,2,65,0,0
129561,-100,4,2,2,65,0,0
129691,-100,4,2,1,45,0,0
130036,-100,4,2,1,45,0,0
130380,-100,4,2,1,45,0,0
130725,-100,4,2,1,45,0,0
131070,-100,4,2,1,45,0,0
131415,-100,4,2,1,45,0,0
131760,-100,4,2,1,45,0,0
132105,-100,4,2,1,45,0,0
132449,-100,4,2,1,45,0,0
136587,-100,4,2,2,75,0,0
137449,-100,4,3,3,100,0,0
137621,-100,4,3,0,85,0,0
137794,-100,4,3,0,70,0,0
137966,-100,4,3,3,100,0,0
160036,-100,4,2,2,100,0,0
160208,-100,4,2,2,100,0,0
160380,-100,4,2,1,45,0,0
160725,-100,4,2,1,40,0,0
161070,-100,4,2,1,35,0,0
161415,-100,4,2,1,30,0,0
161760,-100,4,2,1,25,0,0
162105,-100,4,2,1,20,0,0
162449,-100,4,2,1,15,0,0
162794,-100,4,2,1,80,0,0
169001,-100,4,2,77,80,0,0
169174,-100,4,2,1,80,0,0
170380,-100,4,2,77,80,0,0
170553,-100,4,2,1,80,0,0
171760,-100,4,2,77,80,0,0
171933,-100,4,2,1,80,0,0
174518,-100,4,2,2,80,0,0
174691,-100,4,2,1,80,0,0
175036,-100,4,2,77,80,0,0
175209,-100,4,2,1,80,0,0
175898,-100,4,2,2,80,0,0
175919,-100,4,2,2,80,0,0
176070,-100,4,2,1,80,0,0
176092,-100,4,2,1,80,0,0
176415,-100,4,2,77,80,0,0
176588,-100,4,2,1,80,0,0
177277,-100,4,2,2,80,0,0
177450,-100,4,2,1,80,0,0
177622,-100,4,2,1,40,0,0
177859,-100,4,2,1,40,0,0
177967,-100,4,2,77,80,0,0
178140,-100,4,2,1,80,0,0
178656,-100,4,2,2,80,0,0
178829,-100,4,2,1,80,0,0
179346,-100,4,2,77,80,0,0
179519,-100,4,2,1,80,0,0
180036,-100,4,2,2,80,0,0
180209,-100,4,2,1,80,0,0
180251,-100,4,2,1,40,0,0
180553,-100,4,2,77,80,0,0
180726,-100,4,2,1,80,0,0
181127,-100,4,2,1,40,0,0
181415,-100,4,2,2,80,0,0
181436,-100,4,2,2,80,0,0
181587,-100,4,2,1,80,0,0
181788,-100,4,2,1,40,0,0
181932,-100,4,2,77,80,0,0
182105,-100,4,2,1,80,0,0
182794,-100,4,2,2,80,0,0
182909,-100,4,2,1,40,0,0
182967,-100,4,2,1,80,0,0
183484,-100,4,2,77,80,0,0
183657,-100,4,2,1,80,0,0
184173,-100,4,2,2,80,0,0
184195,-100,4,2,2,80,0,0
184346,-100,4,2,1,80,0,0
184368,-100,4,2,1,80,0,0
184576,-100,4,2,1,40,0,0
184719,-100,4,2,1,80,0,0
184863,-100,4,2,2,80,0,0
185208,-100,4,2,1,80,0,0
187967,-100,4,2,1,75,0,0
188311,-100,4,2,1,70,0,0
188656,-100,4,2,1,65,0,0
189001,-100,4,2,1,60,0,0
189346,-100,4,2,1,55,0,0
189691,-100,4,2,1,50,0,0
190725,-100,4,2,1,45,0,0
191069,-100,4,2,1,40,0,0
191414,-100,4,2,1,35,0,0
191759,-100,4,2,1,30,0,0
192104,-100,4,2,1,25,0,0
192449,-100,4,2,1,20,0,0
192793,-100,4,2,1,15,0,0
193139,-100,4,2,1,10,0,0

[Colours]
Combo1 : 123,141,155
Combo2 : 0,128,255
Combo3 : 16,167,239
Combo4 : 0,0,136

[HitObjects]
257,218,4863,6,0,L|421:216,2,120,2|0|2,0:0|0:0|0:0,0:0:0:0:
109,220,5380,1,4,0:0:0:0:
417,294,5553,5,8,0:0:0:0:
447,200,5725,1,0,0:0:0:0:
431,90,5898,1,0,0:0:0:0:
378,29,6070,1,0,0:0:0:0:
306,11,6242,1,2,3:2:0:0:
187,118,6760,5,2,0:0:0:0:
400,221,7277,1,2,0:0:0:0:
197,285,7622,2,0,L|195:159,1,120,0|2,0:0|3:2,0:0:0:0:
479,94,8311,1,2,0:0:0:0:
181,258,9001,5,0,3:0:0:0:
423,314,9346,2,0,L|430:176,1,120,0|2,0:0|0:0,0:0:0:0:
178,100,10036,1,2,0:0:0:0:
470,232,10380,2,0,L|341:232,2,120,2|0|2,0:0|0:0|0:0,0:0:0:0:
335,233,10898,1,4,0:0:0:0:
78,264,11070,5,10,0:0:0:0:
45,170,11242,1,0,0:0:0:0:
251,146,11415,2,0,L|389:146,2,120,2|0|2,0:0|0:0|3:2,0:0:0:0:
113,254,12277,5,2,0:0:0:0:
357,309,12794,1,2,0:0:0:0:
110,188,13139,2,0,L|103:317,1,120,0|2,0:0|3:2,0:0:0:0:
366,333,13829,1,2,0:0:0:0:
155,211,14518,5,2,3:2:0:0:
348,160,14863,2,0,L|357:15,1,120,0|2,0:0|3:2,0:0:0:0:
149,30,15553,1,2,0:0:0:0:
459,176,15898,6,0,L|456:303,1,120,2|0,0:0|0:0,0:0:0:0:
265,306,16242,2,0,L|145:306,1,120,2|4,0:0|0:0,0:0:0:0:
419,210,16587,5,8,0:0:0:0:
473,160,16760,1,0,0:0:0:0:
423,95,16932,1,0,0:0:0:0:
484,49,17104,1,0,0:0:0:0:
236,42,17277,1,8,0:0:0:0:
473,228,17794,5,2,0:0:0:0:
200,326,18311,1,2,0:0:0:0:
415,242,18656,2,0,L|415:99,1,120,0|2,0:0|0:0,0:0:0:0:
125,70,19346,1,2,0:0:0:0:
367,172,20036,5,8,0:0:0:0:
127,230,20380,2,0,L|140:88,1,120,0|2,0:0|0:0,0:0:0:0:
408,87,21070,1,2,0:0:0:0:
67,129,21415,6,0,L|64:293,1,120,8|0,0:0|0:0,0:0:0:0:
248,324,21760,2,0,L|405:326,1,120,2|0,0:0|0:0,0:0:0:0:
75,193,22104,5,2,0:0:0:0:
46,119,22277,1,0,0:0:0:0:
222,96,22449,1,2,0:0:0:0:
324,99,22622,1,0,0:0:0:0:
49,236,22794,1,12,0:0:0:0:
345,306,23311,5,2,0:0:0:0:
80,342,23829,1,2,0:0:0:0:
423,330,24173,2,0,L|424:170,1,120,8|2,0:0|0:0,0:0:0:0:
89,144,24863,2,0,P|10:98|108:28,1,240,2|0,0:0|0:0,0:0:0:0:
400,111,25553,5,8,0:0:0:0:
242,209,25811,1,0,0:0:0:0:
72,266,26070,1,4,0:0:0:0:
342,288,26242,5,2,0:0:0:0:
474,286,26415,1,8,0:0:0:0:
340,237,26587,1,0,0:0:0:0:
468,221,26760,1,0,0:0:0:0:
26,119,26932,5,2,0:0:0:0:
296,109,27104,1,8,0:0:0:0:
155,117,27277,1,2,0:0:0:0:
26,119,27449,1,8,0:0:0:0:
351,105,27622,6,0,B|492:100|492:100|355:119|355:119|351:342|350:339|344:19|344:19|58:19,1,960,8|0,0:0|0:0,0:0:0:0:
256,192,29173,12,0,31587,0:0:0:0:
262,165,31760,5,8,0:0:0:0:
99,150,32622,5,8,0:0:0:0:
386,142,32794,1,4,0:0:0:0:
207,146,32967,1,8,0:0:0:0:
465,197,33139,6,0,L|468:343,1,120,2|0,0:0|0:0,0:0:0:0:
266,265,33484,2,0,L|263:107,1,120,8|0,0:0|0:0,0:0:0:0:
116,120,33829,2,0,L|115:-19,1,135,2|2,0:0|0:0,0:0:0:0:
337,104,34173,2,0,L|338:258,1,120,8|0,0:0|0:0,0:0:0:0:
116,262,34518,6,0,L|227:352,1,120,2|0,0:0|0:0,0:0:0:0:
410,275,34863,2,0,L|310:354,1,120,8|0,0:0|0:0,0:0:0:0:
242,280,35208,2,0,L|359:360,1,120,0|2,0:0|0:0,0:0:0:0:
136,282,35553,2,0,L|11:352,1,120,8|0,0:0|0:0,0:0:0:0:
230,233,35898,5,2,0:0:0:0:
33,223,36070,2,0,L|34:72,1,120,2|8,0:0|0:0,0:0:0:0:
229,49,36415,1,0,0:0:0:0:
25,81,36587,2,0,L|153:84,1,120,2|0,0:0|0:0,0:0:0:0:
344,186,36932,2,0,L|472:185,1,120,8|0,0:0|0:0,0:0:0:0:
199,61,37277,5,2,0:0:0:0:
365,114,37449,1,0,0:0:0:0:
449,110,37622,1,8,0:0:0:0:
374,116,37794,1,2,0:0:0:0:
203,344,37967,1,0,0:0:0:0:
394,339,38139,1,2,0:0:0:0:
203,329,38311,2,0,L|186:176,1,120,8|0,0:0|0:0,0:0:0:0:
470,201,38656,6,0,L|485:48,1,120,2|0,0:0|0:0,0:0:0:0:
277,157,39001,2,0,L|295:18,1,120,8|0,0:0|0:0,0:0:0:0:
204,153,39346,2,0,L|186:14,1,120,2|2,0:0|0:0,0:0:0:0:
387,231,39691,2,0,L|405:92,1,120,8|0,0:0|0:0,0:0:0:0:
211,141,40036,6,0,L|298:54,1,120,2|0,0:0|0:0,0:0:0:0:
85,48,40380,1,8,0:0:0:0:
190,135,40553,2,0,L|75:234,1,120
25,214,40898,1,2,0:0:0:0:
225,354,41070,2,0,L|316:275,1,120,8|0,0:0|0:0,0:0:0:0:
109,218,41415,5,2,0:0:0:0:
319,217,41587,2,0,L|329:57,1,120,2|8,0:0|0:0,0:0:0:0:
112,50,41932,1,0,0:0:0:0:
317,87,42104,2,0,L|457:88,1,120,2|0,0:0|0:0,0:0:0:0:
232,195,42449,2,0,L|87:202,1,120,8|0,0:0|0:0,0:0:0:0:
435,239,42794,5,2,0:0:0:0:
274,307,42967,2,0,L|117:315,2,120,0|8|2,0:0|0:0|0:0,0:0:0:0:
64,276,43484,1,0,0:0:0:0:
360,172,43656,2,0,L|357:43,1,120,8|2,0:0|0:0,0:0:0:0:
137,51,44001,1,8,0:0:0:0:
433,219,44173,6,0,L|412:353,1,120,2|0,0:0|0:0,0:0:0:0:
204,318,44518,1,8,0:0:0:0:
397,341,44691,1,2,0:2:0:0:
201,319,44863,2,0,L|186:167,1,120,2|2,0:0|0:0,0:0:0:0:
389,133,45208,1,8,0:0:0:0:
180,139,45380,1,2,0:2:0:0:
389,133,45553,6,0,L|261:136,1,120,2|0,0:0|0:0,0:0:0:0:
479,252,45898,1,2,0:2:0:0:
184,323,46070,1,8,0:0:0:0:
366,296,46242,2,0,L|343:131,1,120,2|2,0:0|0:0,0:0:0:0:
165,143,46587,1,2,0:2:0:0:
365,117,46760,1,2,0:0:0:0:
64,50,46932,5,2,0:0:0:0:
254,277,47104,2,0,L|396:277,2,120,2|8|8,0:2|0:0|0:0,0:0:0:0:
460,192,47622,2,0,L|307:188,2,120,2|0|2,0:0|0:0|0:2,0:0:0:0:
202,166,48139,1,2,0:0:0:0:
495,187,48311,6,0,L|475:314,1,120,2|2,0:0|0:0,0:0:0:0:
191,234,48656,2,0,L|329:300,1,120,8|2,0:0|0:0,0:0:0:0:
15,190,49001,2,0,L|36:64,1,120,2|2,0:0|0:0,0:0:0:0:
301,245,49346,2,0,L|184:290,1,120,8|0,0:0|0:0,0:0:0:0:
489,201,49691,6,0,L|454:78,1,120,2|0,0:0|0:0,0:0:0:0:
259,73,50036,1,8,0:0:0:0:
448,80,50208,1,2,0:2:0:0:
249,70,50380,2,0,L|191:231,1,120,2|2,0:0|0:0,0:0:0:0:
404,246,50725,1,8,0:0:0:0:
199,213,50898,1,2,0:2:0:0:
404,246,51070,6,0,L|259:244,1,120,2|0,0:0|0:0,0:0:0:0:
493,320,51415,1,2,0:2:0:0:
311,327,51587,1,8,0:0:0:0:
123,333,51760,2,0,L|294:343,1,120,2|2,0:0|0:0,0:0:0:0:
46,257,52104,1,2,0:2:0:0:
229,267,52277,1,2,0:0:0:0:
508,165,52449,5,2,0:0:0:0:
229,267,52622,2,0,L|205:109,1,120,2|8,0:0|0:0,0:0:0:0:
408,67,52967,1,8,0:0:0:0:
94,141,53139,2,0,L|63:13,1,120,2|0,0:0|0:0,0:0:0:0:
390,147,53484,2,0,L|428:10,1,120,8|2,0:0|0:0,0:0:0:0:
59,36,53829,5,2,0:0:0:0:
245,180,54001,2,0,L|369:250,2,120,8|8|2,0:0|0:0|0:0,0:0:0:0:
59,36,54518,1,10,0:0:0:0:
260,83,54691,1,0,0:0:0:0:
197,134,54863,1,8,0:0:0:0:
127,183,55036,1,2,0:0:0:0:
485,51,55208,5,4,0:0:0:0:
100,82,57967,5,8,0:0:0:0:
228,148,58311,1,0,0:0:0:0:
39,202,58484,1,2,0:0:0:0:
228,223,58829,1,2,0:0:0:0:
166,227,59001,1,0,0:0:0:0:
363,340,59173,1,2,0:0:0:0:
160,290,59346,5,2,0:0:0:0:
245,189,59691,1,0,0:0:0:0:
435,171,59863,1,2,0:0:0:0:
359,85,60208,1,2,0:0:0:0:
479,146,60380,1,0,0:0:0:0:
360,198,60553,1,2,0:0:0:0:
158,296,60725,5,2,0:0:0:0:
271,290,61070,1,0,0:0:0:0:
87,277,61242,1,2,0:0:0:0:
98,210,61415,1,0,0:0:0:0:
280,171,61587,2,0,P|406:130|377:51,1,240,2|2,0:0|0:0,0:0:0:0:
26,150,62104,6,0,L|273:117,1,240,4|0,0:0|0:0,0:0:0:0:
176,192,62622,1,2,0:0:0:0:
419,224,62794,2,0,L|437:307,1,60,2|0,0:0|0:0,0:0:0:0:
327,292,62967,1,0,0:0:0:0:
226,245,63139,2,0,L|293:233,1,60,2|0,0:0|0:0,0:0:0:0:
375,214,63311,2,0,L|446:194,1,60,4|0,0:0|0:0,0:0:0:0:
184,191,63484,6,0,L|154:59,1,120,8|0,0:0|0:0,0:0:0:0:
258,41,63829,1,0,0:0:0:0:
80,156,64001,2,0,L|45:27,1,120,2|0,0:0|0:0,0:0:0:0:
214,190,64346,2,0,L|246:74,1,120,2|0,0:0|0:0,0:0:0:0:
392,75,64691,1,2,0:0:0:0:
204,128,64863,6,0,L|92:227,1,120,2|0,0:0|0:0,0:0:0:0:
249,206,65208,1,0,0:0:0:0:
60,311,65380,2,0,L|175:244,1,120,2|0,0:0|0:0,0:0:0:0:
343,252,65725,2,0,L|238:172,1,120,2|0,0:0|0:0,0:0:0:0:
48,192,66070,1,2,0:0:0:0:
236,178,66242,6,0,L|361:146,1,120,2|0,0:0|0:0,0:0:0:0:
158,75,66587,1,0,0:0:0:0:
354,168,66760,2,0,L|212:206,1,120,2|0,0:0|0:0,0:0:0:0:
444,272,67104,2,0,L|301:314,1,120,2|0,0:0|0:0,0:0:0:0:
497,259,67449,1,2,0:0:0:0:
178,315,67622,6,0,L|157:182,1,120,4|0,0:0|0:0,0:0:0:0:
348,143,67967,2,0,L|321:13,1,120,0|2,0:0|0:0,0:0:0:0:
104,62,68311,2,0,L|104:133,1,60,2|0,0:0|0:0,0:0:0:0:
204,166,68484,1,0,0:0:0:0:
61,235,68656,2,0,L|54:296,1,60,2|0,0:0|0:0,0:0:0:0:
148,313,68829,2,0,L|192:356,1,60,0|0,0:0|0:0,0:0:0:0:
456,331,69001,6,0,L|436:206,1,120,8|0,0:0|0:0,0:0:0:0:
310,189,69346,1,0,0:0:0:0:
297,67,69518,1,2,0:0:0:0:
93,63,69691,1,12,0:0:0:0:
295,74,69863,2,0,L|305:205,1,120
430,229,70208,1,2,0:0:0:0:
246,277,70380,6,0,L|403:289,2,120,2|0|0,0:0|0:0|0:0,0:0:0:0:
447,204,70898,1,2,0:0:0:0:
245,271,71070,1,12,0:0:0:0:
448,202,71242,2,0,L|436:62,1,120,2|0,0:0|0:0,0:0:0:0:
256,56,71587,1,2,0:0:0:0:
57,54,71760,6,0,L|179:45,1,120,2|0,0:0|0:0,0:0:0:0:
109,132,72104,1,0,0:0:0:0:
308,197,72277,1,2,0:0:0:0:
104,139,72449,2,0,L|85:278,1,120,12|2,0:0|0:0,0:0:0:0:
218,244,72794,2,0,L|240:391,1,120,0|2,0:0|0:0,0:0:0:0:
497,349,73139,6,0,L|338:341,1,120,2|0,0:0|0:0,0:0:0:0:
278,284,73484,1,0,0:0:0:0:
468,195,73656,1,2,0:0:0:0:
123,183,73829,2,0,L|103:122,1,60,12|0,0:0|0:0,0:0:0:0:
190,105,74001,1,0,0:0:0:0:
69,80,74173,2,0,L|3:96,1,60,2|0,0:0|0:0,0:0:0:0:
138,75,74346,2,0,L|207:58,1,60,2|0,0:0|0:0,0:0:0:0:
406,134,74518,6,0,L|386:263,1,120,8|0,0:0|0:0,0:0:0:0:
188,222,74863,2,0,L|158:359,1,120,8|0,0:0|0:0,0:0:0:0:
359,313,75208,2,0,L|239:304,1,120,12|0,0:0|0:0,0:0:0:0:
47,232,75553,2,0,L|188:216,1,120,8|0,0:0|0:0,0:0:0:0:
450,81,75898,5,8,0:0:0:0:
348,135,76070,1,0,0:0:0:0:
349,237,76242,1,8,0:0:0:0:
462,287,76415,1,0,0:0:0:0:
261,339,76587,1,12,0:0:0:0:
462,287,76760,1,0,0:0:0:0:
355,202,76932,1,8,0:0:0:0:
462,287,77104,1,2,0:0:0:0:
158,297,77277,6,0,L|26:314,1,120,8|0,3:2|0:0,0:0:0:0:
229,312,77622,2,0,L|250:179,1,120,8|0,3:2|3:2,0:0:0:0:
152,209,77880,1,0,0:0:0:0:
57,228,77967,2,0,L|37:97,1,120,12|0,3:2|0:0,0:0:0:0:
232,77,78311,2,0,L|350:95,1,120,8|0,3:2|3:2,0:0:0:0:
96,292,78656,1,8,0:0:0:0:
256,192,78829,12,8,80036,0:0:0:0:
360,115,80208,5,2,0:0:0:0:
199,125,80553,1,0,0:0:0:0:
388,192,80725,1,2,0:0:0:0:
434,127,80898,1,0,0:0:0:0:
379,64,81070,1,0,0:0:0:0:
165,58,81242,1,2,0:0:0:0:
457,133,81587,5,2,0:0:0:0:
449,177,81932,1,0,0:0:0:0:
234,232,82104,1,2,0:0:0:0:
187,174,82277,1,0,0:0:0:0:
219,93,82449,1,0,0:0:0:0:
405,79,82622,1,2,0:0:0:0:
141,87,82967,5,2,0:0:0:0:
61,135,83311,1,0,0:0:0:0:
255,242,83484,1,2,0:0:0:0:
284,175,83656,1,0,0:0:0:0:
259,94,83829,1,0,0:0:0:0:
86,75,84001,1,2,0:0:0:0:
269,66,84173,5,0,0:0:0:0:
309,117,84346,1,0,0:0:0:0:
273,208,84518,1,0,0:0:0:0:
182,230,84691,1,0,0:0:0:0:
436,267,84863,1,2,0:0:0:0:
439,198,85036,1,0,0:0:0:0:
246,109,85208,1,2,0:0:0:0:
135,100,85380,1,4,0:0:0:0:
361,186,85553,5,0,0:0:0:0:
372,199,85725,1,2,0:0:0:0:
194,114,86070,1,0,0:0:0:0:
194,114,86242,1,2,0:0:0:0:
344,65,86587,1,0,0:0:0:0:
185,122,86760,2,0,L|436:222,2,240,2|2|0,0:0|0:0|0:0,0:0:0:0:
56,122,87622,2,0,L|52:-8,1,120,2|0,0:0|0:0,0:0:0:0:
384,226,87967,5,2,2:3:0:0:
67,70,88311,1,8,0:0:0:0:
217,130,88484,1,0,0:0:0:0:
116,165,88656,1,0,0:0:0:0:
74,243,88829,1,0,0:0:0:0:
116,165,89001,1,2,0:0:0:0:
217,130,89173,1,0,0:0:0:0:
37,65,89346,1,2,0:0:0:0:
217,130,89518,1,0,0:0:0:0:
459,224,89691,6,0,L|454:356,1,120,8|0,0:0|0:0,0:0:0:0:
265,337,90036,1,0,0:0:0:0:
510,218,90208,1,8,0:0:0:0:
320,288,90380,2,0,L|439:277,1,120,0|0,0:0|0:0,0:0:0:0:
85,156,90725,2,0,L|205:152,1,120,8|0,0:0|0:0,0:0:0:0:
466,138,91070,5,0,0:0:0:0:
368,193,91242,2,0,L|368:324,1,120,2|0,0:0|0:0,0:0:0:0:
255,333,91587,1,0,0:0:0:0:
454,267,91760,2,0,L|178:245,1,240,2|0,0:0|0:0,0:0:0:0:
21,132,92277,1,2,0:0:0:0:
205,126,92449,6,0,L|201:259,1,120,0|2,0:0|0:0,0:0:0:0:
100,287,92794,1,0,0:0:0:0:
198,247,92967,1,0,0:0:0:0:
397,217,93139,2,0,L|398:83,1,120,2|0,0:0|0:0,0:0:0:0:
501,60,93484,1,0,0:0:0:0:
294,262,93656,1,2,0:0:0:0:
501,179,93829,6,0,L|500:59,1,120,0|2,0:0|0:0,0:0:0:0:
387,69,94173,1,0,0:0:0:0:
500,59,94346,1,0,0:0:0:0:
297,288,94518,2,0,L|57:289,1,240,2|0,0:0|0:0,0:0:0:0:
236,206,95036,1,2,0:0:0:0:
482,154,95208,6,0,L|216:151,1,240,4|0,0:0|0:0,0:0:0:0:
379,81,95725,1,0,0:0:0:0:
71,126,95898,1,2,0:0:0:0:
146,201,96070,1,0,0:0:0:0:
20,232,96242,1,2,0:0:0:0:
205,99,96415,1,4,0:0:0:0:
493,97,96587,5,0,0:0:0:0:
309,170,96760,2,0,L|308:312,1,120,2|0,0:0|0:0,0:0:0:0:
401,335,97104,1,0,0:0:0:0:
206,237,97277,2,0,L|38:241,1,120,2|0,0:0|0:0,0:0:0:0:
282,162,97622,1,0,0:0:0:0:
88,237,97794,2,0,L|86:89,1,120,2|0,0:0|0:0,0:0:0:0:
191,123,98139,6,0,L|198:2,1,120,2|0,0:0|0:0,0:0:0:0:
310,25,98484,1,0,0:0:0:0:
114,105,98656,2,0,L|115:240,1,120,2|0,0:0|0:0,0:0:0:0:
403,315,99001,1,2,2:3:0:0:
98,356,99346,5,8,0:0:0:0:
203,361,99518,1,0,0:0:0:0:
236,359,99691,1,0,0:0:0:0:
159,339,99863,1,0,0:0:0:0:
30,325,100036,1,2,0:0:0:0:
217,265,100208,1,0,0:0:0:0:
52,159,100380,1,2,0:0:0:0:
262,113,100553,1,0,0:0:0:0:
18,63,100725,6,0,L|289:63,1,240,8|0,0:0|0:0,0:0:0:0:
13,151,101242,1,8,0:0:0:0:
314,201,101415,2,0,L|178:201,1,120,0|0,0:0|0:0,0:0:0:0:
494,63,101760,2,0,L|352:64,1,120,10|0,0:0|0:0,0:0:0:0:
95,65,102104,1,2,0:0:0:0:
95,65,102191,1,0,0:0:0:0:
256,192,105208,12,0,107277,0:0:0:0:
393,118,107622,5,2,0:0:0:0:
249,185,107967,1,0,0:0:0:0:
444,226,108139,1,0,0:0:0:0:
128,268,108311,2,0,L|125:101,1,160,2|0,0:0|0:0,0:0:0:0:
41,81,108829,1,0,0:0:0:0:
236,145,109001,6,0,L|241:301,1,150,2|0,0:0|0:0,0:0:0:0:
153,236,109518,2,0,L|392:246,2,240,4|2|2,0:0|0:0|0:0,0:0:0:0:
350,207,110380,6,0,L|230:209,2,120,2|0|0,0:0|0:0|0:0,0:0:0:0:
273,72,110898,2,0,L|274:194,1,120,0|2,0:0|0:0,0:0:0:0:
160,221,111264,1,0,0:0:0:0:
351,309,111415,2,0,L|351:221,1,80
14,81,111760,6,0,L|184:62,1,150,2|0,0:0|0:0,0:0:0:0:
454,211,112277,2,0,L|271:206,1,180,4|0,0:0|0:0,0:0:0:0:
170,248,112622,1,0,0:0:0:0:
274,297,112794,1,0,0:0:0:0:
82,350,112967,1,4,0:0:0:0:
379,334,113139,6,0,L|377:203,1,120,2|0,0:0|0:0,0:0:0:0:
252,151,113484,1,0,0:0:0:0:
453,97,113656,1,0,0:0:0:0:
130,153,113829,2,0,L|124:293,1,120,0|2,0:0|0:0,0:0:0:0:
218,313,114173,5,0,0:0:0:0:
406,276,114346,2,0,L|415:148,1,120,2|0,0:0|0:0,0:0:0:0:
254,105,114691,2,0,L|517:94,2,240
115,189,115553,1,0,0:0:0:0:
308,248,115725,1,2,0:0:0:0:
110,192,115898,6,0,L|109:348,1,120,0|0,0:0|0:0,0:0:0:0:
10,316,116242,1,0,0:0:0:0:
207,314,116415,2,0,L|348:311,1,140,0|0,0:0|0:0,0:0:0:0:
195,230,116760,2,0,L|209:101,1,120
335,203,117047,2,0,L|338:96,1,100
99,42,117277,6,0,L|99:173,2,120,4|0|0,0:0|0:0|0:0,0:0:0:0:
294,125,117794,1,2,0:0:0:0:
36,194,117967,2,0,L|205:182,1,120,2|0,0:0|0:0,0:0:0:0:
352,186,118311,1,2,0:0:0:0:
155,185,118484,1,0,0:0:0:0:
479,226,118656,6,0,L|480:345,1,120,2|0,0:0|0:0,0:0:0:0:
294,257,119173,1,0,0:0:0:0:
479,191,119346,2,0,L|355:168,1,120,8|0,0:0|0:0,0:0:0:0:
107,107,119863,2,0,L|281:90,1,150,4|0,0:0|0:0,0:0:0:0:
146,58,120265,2,0,L|13:72,1,120,0|0,0:0|0:0,0:0:0:0:
230,204,120553,2,0,L|362:225,1,120,0|8,0:0|0:0,0:0:0:0:
117,256,120898,2,0,P|78:325|102:354,1,120,0|0,0:0|0:0,0:0:0:0:
341,354,121242,1,0,0:0:0:0:
90,343,121415,6,0,P|20:279|111:151,1,240,4|0,0:0|0:0,0:0:0:0:
369,83,121932,1,0,0:0:0:0:
70,160,122104,6,0,L|44:281,1,120,8|0,0:0|0:0,0:0:0:0:
272,247,122564,1,0,0:0:0:0:
38,146,122794,2,0,L|191:139,1,150,4|0,0:0|0:0,0:0:0:0:
362,125,123225,1,0,0:0:0:0:
248,145,123311,2,0,L|106:151,1,135,0|8,0:0|0:0,0:0:0:0:
357,300,123656,2,0,L|477:289,1,120,0|2,0:0|0:0,0:0:0:0:
171,185,124001,2,0,L|46:171,1,120,0|4,0:0|0:0,0:0:0:0:
258,113,124346,1,0,0:0:0:0:
131,91,124863,5,8,0:0:0:0:
362,118,125036,2,0,L|403:231,1,120,0|0,0:0|0:0,0:0:0:0:
133,262,125409,1,0,0:0:0:0:
121,357,125553,1,4,0:0:0:0:
349,343,125790,2,0,L|448:252,1,135
348,293,126070,2,0,L|222:297,1,120,0|8,0:0|0:0,0:0:0:0:
498,70,126415,2,0,L|463:189,1,120
237,175,126781,1,0,0:0:0:0:
488,175,126932,6,0,L|488:299,1,120,4|0,0:0|0:0,0:0:0:0:
168,332,127449,1,0,0:0:0:0:
371,255,127622,1,8,0:0:0:0:
92,185,127794,2,0,L|92:61,1,120
195,52,128074,2,0,L|322:51,1,120,0|0,0:0|0:0,0:0:0:0:
59,66,128311,2,0,P|56:204|74:223,1,165,4|0,0:0|0:0,0:0:0:0:
267,293,128742,1,0,0:0:0:0:
56,319,128850,6,0,P|77:252|161:211,1,165
251,183,129195,2,0,P|275:157|243:54,1,150,0|0,0:0|0:0,0:0:0:0:
71,32,129561,1,0,0:0:0:0:
301,18,129691,1,8,0:0:0:0:
256,192,132449,12,0,136415,0:0:0:0:
262,187,136587,5,8,0:0:0:0:
388,153,137449,1,8,0:0:0:0:
123,184,137622,1,4,0:0:0:0:
296,269,137794,1,8,0:0:0:0:
29,316,137967,6,0,L|23:179,1,120,2|0,0:0|0:0,0:0:0:0:
227,182,138311,2,0,L|232:47,1,120,8|0,0:0|0:0,0:0:0:0:
123,184,138656,2,0,L|103:66,1,120,2|2,0:0|0:0,0:0:0:0:
299,189,139001,2,0,L|349:63,1,120,8|0,0:0|0:0,0:0:0:0:
38,132,139346,6,0,L|168:74,1,120,2|0,0:0|0:0,0:0:0:0:
329,159,139691,2,0,L|216:66,1,120,8|0,0:0|0:0,0:0:0:0:
413,178,140036,2,0,L|530:98,1,120,0|2,0:0|0:0,0:0:0:0:
313,187,140380,2,0,L|220:104,1,120,8|0,0:0|0:0,0:0:0:0:
496,68,140725,5,2,0:0:0:0:
309,141,140898,2,0,L|313:294,1,120,2|8,0:0|0:0,0:0:0:0:
125,273,141242,1,0,0:0:0:0:
313,195,141415,2,0,L|156:200,1,120,2|0,0:0|0:0,0:0:0:0:
391,302,141760,2,0,L|537:320,1,120,8|0,0:0|0:0,0:0:0:0:
86,205,142104,5,2,0:0:0:0:
255,241,142277,1,0,0:0:0:0:
66,207,142449,1,8,0:0:0:0:
267,244,142622,1,2,0:0:0:0:
86,205,142794,1,0,0:0:0:0:
255,241,142967,1,2,0:0:0:0:
127,208,143139,1,8,0:0:0:0:
226,230,143311,1,2,0:0:0:0:
489,311,143484,5,2,0:0:0:0:
311,233,143656,2,0,L|310:194,1,30,2|0,0:0|0:0,0:0:0:0:
426,143,143829,1,8,0:0:0:0:
269,44,144001,2,0,L|231:44,1,30,2|0,0:0|0:0,0:0:0:0:
98,159,144173,1,2,0:0:0:0:
299,142,144346,1,0,0:0:0:0:
115,147,144518,2,0,L|105:277,1,120,8|0,0:0|0:0,0:0:0:0:
434,340,144863,6,0,L|302:342,1,120,2|2,0:0|0:0,0:0:0:0:
122,226,145208,2,0,L|241:223,1,120,8|2,0:0|0:0,0:0:0:0:
425,96,145553,2,0,L|305:100,1,120,0|0,0:0|0:0,0:0:0:0:
110,64,145898,2,0,L|229:58,1,120,8|0,0:0|0:0,0:0:0:0:
506,71,146242,1,2,0:0:0:0:
506,71,146286,5,0,0:0:0:0:
288,154,146415,1,2,0:0:0:0:
446,225,146587,2,0,L|460:271,1,30,8|0,0:0|0:0,0:0:0:0:
217,327,146760,1,0,0:0:0:0:
387,230,146932,2,0,L|419:108,1,120,2|0,0:0|0:0,0:0:0:0:
151,164,147277,2,0,L|95:35,1,120,8|0,0:0|0:0,0:0:0:0:
418,56,147622,5,2,0:0:0:0:
255,124,147794,1,0,0:0:0:0:
435,78,147967,1,0,0:0:0:0:
239,151,148139,1,2,0:0:0:0:
496,71,148311,1,0,0:0:0:0:
303,122,148484,1,8,0:0:0:0:
387,171,148656,1,2,0:0:0:0:
111,288,148829,1,8,0:0:0:0:
416,166,149001,6,0,L|437:285,1,120,6|0,0:0|0:0,0:0:0:0:
245,306,149346,1,8,0:0:0:0:
439,290,149518,1,2,0:2:0:0:
245,306,149691,2,0,L|240:163,1,120,2|2,0:0|0:0,0:0:0:0:
496,104,150036,1,8,0:0:0:0:
313,98,150208,1,2,0:2:0:0:
129,93,150380,6,0,L|120:219,1,120,2|0,0:0|0:0,0:0:0:0:
398,280,150725,1,2,0:2:0:0:
212,326,150898,1,8,0:0:0:0:
398,280,151070,2,0,L|415:141,1,120,2|2,0:0|0:0,0:0:0:0:
226,121,151415,1,2,0:2:0:0:
488,88,151587,1,0,0:0:0:0:
307,132,151760,6,0,L|308:253,1,120,2|0,0:0|0:0,0:0:0:0:
123,299,152104,1,8,0:0:0:0:
307,251,152277,1,2,0:2:0:0:
123,299,152449,2,0,L|116:168,1,120,2|0,0:0|0:0,0:0:0:0:
393,120,152794,1,8,0:0:0:0:
219,103,152967,1,2,0:2:0:0:
489,137,153139,6,0,L|483:274,1,120,2|0,0:0|0:0,0:0:0:0:
164,305,153484,1,0,0:0:0:0:
338,306,153656,1,2,0:0:0:0:
33,182,153829,2,0,L|27:60,1,120,0|2,0:0|0:0,0:0:0:0:
325,46,154173,1,8,0:0:0:0:
143,73,154346,1,8,0:0:0:0:
456,59,154518,6,0,L|457:196,1,120,2|0,0:0|0:0,0:0:0:0:
268,240,154863,1,8,0:0:0:0:
459,180,155036,1,2,0:2:0:0:
268,240,155208,2,0,L|147:234,1,120,2|2,0:0|0:0,0:0:0:0:
440,223,155553,1,8,0:0:0:0:
268,240,155725,1,2,0:2:0:0:
440,223,155898,6,0,L|318:225,1,120,2|0,0:0|0:0,0:0:0:0:
26,115,156242,1,2,0:2:0:0:
194,161,156415,1,8,0:0:0:0:
26,115,156587,2,0,L|27:258,1,120,2|0,0:0|0:0,0:0:0:0:
306,305,156932,1,2,0:2:0:0:
122,337,157104,1,0,0:0:0:0:
306,305,157277,6,0,L|314:184,1,120,2|0,0:0|0:0,0:0:0:0:
132,176,157622,1,8,0:0:0:0:
319,189,157794,1,2,0:2:0:0:
132,176,157967,2,0,L|127:47,1,120,2|0,0:0|0:0,0:0:0:0:
395,23,158311,1,8,0:0:0:0:
208,44,158484,1,2,0:2:0:0:
400,27,158656,6,0,L|403:161,1,120,2|0,0:0|0:0,0:0:0:0:
125,283,159001,1,0,0:0:0:0:
315,308,159173,1,2,0:0:0:0:
57,216,159346,1,8,0:0:0:0:
57,216,159518,1,2,0:0:0:0:
334,125,159691,1,8,0:0:0:0:
147,103,159863,1,2,0:2:0:0:
472,57,160036,1,4,0:0:0:0:
256,192,160208,12,8,162794,0:0:0:0:
362,144,168311,5,0,0:0:0:0:
362,144,168484,1,2,0:0:0:0:
205,167,168829,1,0,0:0:0:0:
407,199,169001,1,4,0:0:0:0:
308,307,169346,1,0,0:0:0:0:
114,339,169518,6,0,L|99:210,1,120,2|0,0:0|0:0,0:0:0:0:
203,185,169863,2,0,L|184:56,1,120,2|0,0:0|0:0,0:0:0:0:
78,52,170208,1,0,0:0:0:0:
276,46,170380,1,4,0:0:0:0:
173,103,170725,1,0,0:0:0:0:
371,180,170898,2,0,L|392:298,1,120,2|0,0:0|0:0,0:0:0:0:
284,322,171242,2,0,L|256:184,1,120,2|0,0:0|0:0,0:0:0:0:
371,180,171587,1,0,0:0:0:0:
170,190,171760,1,4,0:0:0:0:
324,133,172277,6,0,L|372:12,1,120,2|0,0:0|0:0,0:0:0:0:
252,141,172622,2,0,L|182:33,1,120,2|0,0:0|0:0,0:0:0:0:
86,40,172967,1,0,0:0:0:0:
415,59,173139,1,2,0:0:0:0:
346,138,173311,1,0,0:0:0:0:
312,235,173484,1,2,0:0:0:0:
360,313,173656,1,0,0:0:0:0:
162,345,173829,6,0,L|154:216,1,120,8|2,0:0|0:0,0:0:0:0:
306,103,174518,2,0,L|457:122,1,150,8|0,0:0|0:0,0:0:0:0:
194,190,175036,2,0,P|160:307|156:354,1,165,4|0,0:0|0:0,0:0:0:0:
234,361,175380,2,0,L|366:375,1,120,0|0,0:0|0:0,0:0:0:0:
159,246,175725,2,0,L|43:302,1,120,2|8,0:0|0:0,0:0:0:0:
310,243,176070,2,0,L|182:260,1,120,0|0,0:0|0:0,0:0:0:0:
492,44,176415,2,0,L|202:46,1,240,4|2,0:0|0:0,0:0:0:0:
84,126,177277,5,8,0:0:0:0:
256,177,177478,2,0,L|270:288,1,100,0|0,0:0|0:0,0:0:0:0:
125,284,177729,2,0,L|72:374,1,90,0|0,0:0|0:0,0:0:0:0:
308,347,177967,2,0,L|424:279,1,135,4|0,0:0|0:0,0:0:0:0:
242,240,178311,1,0,0:0:0:0:
492,182,178484,2,0,L|480:53,1,120,2|8,0:0|0:0,0:0:0:0:
273,102,178829,2,0,L|122:115,1,150,2|0,0:0|0:0,0:0:0:0:
393,227,179173,1,2,0:0:0:0:
117,216,179346,2,0,L|100:353,1,120,4|0,0:0|0:0,0:0:0:0:
167,118,179863,5,0,0:0:0:0:
440,174,180036,2,0,L|412:313,1,140,8|0,0:0|0:0,0:0:0:0:
163,343,180553,1,4,0:0:0:0:
389,249,180898,2,0,L|401:86,1,160,0|0,0:0|0:0,0:0:0:0:
226,132,181242,2,0,L|86:146,1,135,2|0,0:0|0:0,0:0:0:0:
315,282,181587,2,0,L|448:304,1,135,2|0,0:0|0:0,0:0:0:0:
144,343,181932,1,4,0:0:0:0:
144,343,182277,6,0,P|108:279|186:143,1,240,2|0,0:0|0:0,0:0:0:0:
381,174,182794,2,0,L|395:90,1,75,8|0,0:0|0:0,0:0:0:0:
283,132,182988,2,0,L|272:22,1,105,0|0,0:0|0:0,0:0:0:0:
386,27,183225,1,0,0:0:0:0:
44,132,183484,2,0,P|30:228|43:255,1,120,4|0,0:0|0:0,0:0:0:0:
240,300,184001,2,0,L|386:306,1,135,2|0,0:0|0:0,0:0:0:0:
135,204,184346,2,0,L|5:314,1,160,2|0,0:0|0:0,0:0:0:0:
287,127,184712,5,0,0:0:0:0:
172,194,184863,2,0,P|101:134|197:44,1,240,8|2,0:0|0:0,0:0:0:0:
337,59,185553,2,0,L|77:68,1,240,2|2,0:0|0:0,0:0:0:0:
262,110,186242,2,0,P|304:162|199:277,1,240,2|2,0:0|0:0,0:0:0:0:
384,315,186932,2,0,L|119:311,1,240,2|2,0:0|0:0,0:0:0:0:
367,204,187622,6,0,L|496:195,1,120,2|0,0:0|0:0,0:0:0:0:
297,148,187967,2,0,L|369:34,1,120,2|0,0:0|0:0,0:0:0:0:
174,135,188311,2,0,L|128:14,1,120,2|0,0:0|0:0,0:0:0:0:
314,139,188656,2,0,L|350:8,1,120,2|0,0:0|0:0,0:0:0:0:
216,33,189001,6,0,L|74:33,1,120,2|0,0:0|0:0,0:0:0:0:
196,116,189346,2,0,L|334:122,1,120,2|0,0:0|0:0,0:0:0:0:
234,177,189691,2,0,L|209:300,1,120,2|0,0:0|0:0,0:0:0:0:
317,199,190036,2,0,L|344:317,1,120,2|0,0:0|0:0,0:0:0:0:
256,192,190380,12,0,193139,0:0:0:0:
