osu file format v14

[General]
AudioFilename: audio.mp3
AudioLeadIn: 0
PreviewTime: 107277
Countdown: 0
SampleSet: Drum
StackLeniency: 0.7
Mode: 2
LetterboxInBreaks: 0
WidescreenStoryboard: 0

[Editor]
Bookmarks: 102104
DistanceSpacing: 1.3
BeatDivisor: 4
GridSize: 4
TimelineZoom: 2.999999

[Metadata]
Title:STARS ALIGN
TitleUnicode:STARS ALIGN
Artist:dark cat
ArtistUnicode:dark cat
Creator:wonjae
Version:Collab Rain
Source:osu!
Tags:catstep electronic mappers guild featured artist paranoid grapes jbh jbhyperion absolute zero wildone94 benita
BeatmapID:2206832
BeatmapSetID:1055938

[Difficulty]
HPDrainRate:6
CircleSize:3.8
OverallDifficulty:9
ApproachRate:9
SliderMultiplier:2.1
SliderTickRate:2

[Events]
//Background and Video events
0,0,"blues.jpg",0,0
//Break Periods
2,27822,29780
2,55408,57367
2,102304,107022
2,129890,131849
//Storyboard Layer 0 (Background)
//Storyboard Layer 1 (Fail)
//Storyboard Layer 2 (Pass)
//Storyboard Layer 3 (Foreground)
//Storyboard Layer 4 (Overlay)
//Storyboard Sound Samples

[TimingPoints]
36,344.827586206897,4,2,1,5,1,0
4863,-100,4,2,1,100,0,0
5380,-100,4,2,77,80,0,0
5553,-100,4,2,1,100,0,0
10898,-100,4,2,77,80,0,0
11071,-100,4,2,1,100,0,0
16415,-100,4,2,77,80,0,0
16588,-100,4,2,1,100,0,0
17277,-100,4,2,2,100,0,0
17449,-100,4,2,1,100,0,0
18656,-100,4,2,1,100,0,0
18828,-100,4,2,1,100,0,0
20036,-100,4,2,2,100,0,0
20208,-100,4,2,1,100,0,0
21415,-100,4,2,2,100,0,0
21587,-100,4,2,1,100,0,0
22794,-100,4,2,2,100,0,0
22966,-100,4,2,1,100,0,0
24173,-100,4,2,1,100,0,0
24345,-100,4,2,1,100,0,0
25553,-100,4,2,2,100,0,0
25725,-100,4,2,1,100,0,0
26070,-100,4,2,77,80,0,0
26242,-100,4,2,1,100,0,0
26760,-100,4,2,2,85,0,0
26932,-100,4,2,1,85,0,0
27104,-100,4,2,2,70,0,0
27276,-100,4,2,1,70,0,0
27449,-100,4,2,2,55,0,0
27622,-100,4,2,1,55,0,0
30380,-100,4,2,1,55,0,0
30725,-100,4,2,1,55,0,0
31070,-100,4,2,1,55,0,0
31415,-100,4,2,1,55,0,0
31760,-100,4,2,2,75,0,0
32622,-100,4,3,3,100,0,0
32794,-100,4,3,0,85,0,0
32967,-100,4,3,0,70,0,0
33139,-100,4,3,3,100,0,0
54518,-100,4,3,3,80,0,0
54863,-100,4,3,3,80,0,0
55208,-100,4,2,2,100,0,0
57967,-100,4,2,1,80,0,0
62104,-100,4,2,77,80,0,0
62277,-100,4,2,1,80,0,0
62622,-100,4,2,0,71,0,0
62967,-100,4,2,1,60,0,0
63139,-100,4,2,1,80,0,0
63311,-100,4,2,77,80,0,0
63484,-100,4,2,1,80,0,0
64863,-100,4,2,1,85,0,0
66242,-100,4,2,1,90,0,0
67622,-100,4,2,77,95,0,0
67794,-100,4,2,1,95,0,0
68139,-100,4,2,0,71,0,0
68311,-100,4,2,1,85,0,0
68484,-100,4,2,1,65,0,0
68656,-100,4,2,1,80,0,0
68829,-100,4,2,1,60,0,0
69001,-100,4,2,1,80,0,0
69173,-100,4,2,4,80,0,0
74001,-100,4,2,4,60,0,0
74173,-100,4,2,4,80,0,0
74346,-100,4,2,4,100,0,0
74518,-100,4,2,1,80,0,0
74691,-100,4,2,4,80,0,0
75898,-100,4,2,1,80,0,0
76071,-100,4,2,4,80,0,0
77277,-100,4,2,1,80,0,0
77450,-100,4,2,4,80,0,0
78656,-100,4,2,1,80,0,0
79346,-100,4,2,1,60,0,0
80036,-100,4,2,1,80,0,0
84173,-100,4,2,77,70,0,0
84691,-100,4,2,1,80,0,0
85380,-100,4,2,77,70,0,0
85553,-100,4,2,1,80,0,0
87967,-100,4,2,0,80,0,0
88311,-100,4,2,1,80,0,0
89691,-100,4,2,1,100,0,0
90898,-100,4,2,1,100,0,0
91070,-100,4,2,1,100,0,0
95208,-100,4,2,77,80,0,0
95380,-100,4,2,1,80,0,0
95725,-100,4,2,0,71,0,0
96415,-100,4,2,77,80,0,0
96587,-100,4,2,1,80,0,0
100725,-100,4,2,1,100,0,0
101932,-100,4,2,1,100,0,0
107622,-125,4,2,1,100,0,0
109518,-125,4,2,77,80,0,0
109691,-125,4,2,1,80,0,0
112277,-125,4,2,77,80,0,0
112450,-125,4,2,1,80,0,0
112967,-125,4,2,77,80,0,0
113139,-125,4,2,1,80,0,0
115036,-125,4,2,77,80,0,0
115209,-125,4,2,1,80,0,0
117104,-125,4,2,1,60,0,0
117277,-125,4,2,77,80,0,0
117450,-125,4,2,1,80,0,0
117794,-125,4,2,0,71,0,0
119346,-125,4,2,2,80,0,0
119518,-125,4,2,1,80,0,0
119863,-125,4,2,77,80,0,0
120036,-125,4,2,1,80,0,0
120725,-125,4,2,2,80,0,0
120897,-125,4,2,1,80,0,0
121415,-125,4,2,77,80,0,0
121588,-125,4,2,1,80,0,0
122104,-125,4,2,2,80,0,0
122276,-125,4,2,1,80,0,0
122794,-125,4,2,77,80,0,0
122967,-125,4,2,1,80,0,0
123484,-125,4,2,2,80,0,0
123656,-125,4,2,1,80,0,0
124173,-125,4,2,77,80,0,0
124346,-125,4,2,1,80,0,0
124863,-125,4,2,2,80,0,0
125035,-125,4,2,1,80,0,0
125553,-125,4,2,77,80,0,0
125726,-125,4,2,1,80,0,0
126242,-125,4,2,2,80,0,0
126414,-125,4,2,1,80,0,0
126932,-125,4,2,77,80,0,0
127105,-125,4,2,1,80,0,0
127622,-125,4,2,2,80,0,0
127794,-125,4,2,1,80,0,0
128139,-125,4,2,1,60,0,0
128311,-125,4,2,77,80,0,0
128484,-125,4,2,1,80,0,0
129173,-125,4,2,2,80,0,0
129518,-125,4,2,2,65,0,0
129691,-125,4,2,1,45,0,0
132622,-125,4,2,1,45,0,0
133139,-125,4,2,1,45,0,0
133829,-125,4,2,1,45,0,0
134518,-125,4,2,1,45,0,0
135208,-125,4,2,1,45,0,0
135898,-125,4,2,1,45,0,0
136587,-125,4,2,2,75,0,0
137449,-125,4,3,3,100,0,0
137621,-125,4,3,0,85,0,0
137794,-125,4,3,0,70,0,0
137966,-125,4,3,3,100,0,0
159346,-125,4,3,3,100,0,0
159691,-125,4,3,3,100,0,0
160036,-100,4,2,2,100,0,0
160208,-100,4,2,2,100,0,0
160380,-100,4,2,1,45,0,0
160725,-100,4,2,1,40,0,0
161070,-100,4,2,1,35,0,0
161415,-100,4,2,1,30,0,0
161760,-100,4,2,1,25,0,0
162105,-100,4,2,1,20,0,0
162449,-100,4,2,1,15,0,0
162622,-125,4,2,1,15,0,0
162794,-166.666666666667,4,2,1,80,0,0
168139,-166.666666666667,4,2,1,80,0,0
168311,-166.666666666667,4,2,1,80,0,0
169001,-166.666666666667,4,2,77,80,0,0
169174,-166.666666666667,4,2,1,80,0,0
170380,-166.666666666667,4,2,77,80,0,0
170553,-166.666666666667,4,2,1,80,0,0
171760,-166.666666666667,4,2,77,80,0,0
171933,-166.666666666667,4,2,1,80,0,0
173829,-125,4,2,1,80,0,0
174518,-125,4,2,2,80,0,0
174691,-125,4,2,1,80,0,0
175036,-125,4,2,77,80,0,0
175209,-125,4,2,1,80,0,0
175898,-125,4,2,2,80,0,0
176070,-125,4,2,1,80,0,0
176415,-125,4,2,77,80,0,0
176588,-125,4,2,1,80,0,0
177277,-125,4,2,2,80,0,0
177450,-125,4,2,1,80,0,0
177967,-166.666666666667,4,2,77,80,0,0
178140,-125,4,2,1,80,0,0
178656,-125,4,2,2,80,0,0
178829,-125,4,2,1,80,0,0
179346,-125,4,2,77,80,0,0
179519,-125,4,2,1,80,0,0
180036,-125,4,2,2,80,0,0
180209,-125,4,2,1,80,0,0
180553,-125,4,2,77,80,0,0
180726,-125,4,2,1,80,0,0
181415,-125,4,2,2,80,0,0
181587,-125,4,2,1,80,0,0
181932,-125,4,2,77,80,0,0
182105,-125,4,2,1,80,0,0
182794,-125,4,2,2,80,0,0
182967,-125,4,2,1,80,0,0
183484,-125,4,2,77,80,0,0
183657,-125,4,2,1,80,0,0
184173,-125,4,2,2,80,0,0
184346,-125,4,2,1,80,0,0
184863,-125,4,2,2,80,0,0
185208,-125,4,2,1,80,0,0
187967,-125,4,2,1,75,0,0
188311,-125,4,2,1,70,0,0
188656,-125,4,2,1,65,0,0
189001,-125,4,2,1,60,0,0
189346,-125,4,2,1,55,0,0
189691,-125,4,2,1,50,0,0
190725,-125,4,2,1,45,0,0
191069,-125,4,2,1,40,0,0
191414,-125,4,2,1,35,0,0
191759,-125,4,2,1,30,0,0
192104,-125,4,2,1,25,0,0
192449,-125,4,2,1,20,0,0
192793,-125,4,2,1,15,0,0
193139,-125,4,2,1,10,0,0

[Colours]
Combo1 : 123,141,155
Combo2 : 0,128,255
Combo3 : 16,167,239
Combo4 : 0,0,136

[HitObjects]
357,277,5553,5,8,0:0:0:0:
179,243,6242,1,2,3:2:0:0:
288,144,6760,1,2,0:0:0:0:
189,197,6932,2,0,L|232:297,1,105,0|0,0:0|0:0,0:0:0:0:
436,303,7277,1,2,0:0:0:0:
335,231,7622,1,0,0:0:0:0:
128,246,7794,2,0,L|84:353,1,105,2|0,3:2|0:0,0:0:0:0:
434,347,8311,5,2,0:0:0:0:
274,254,9001,1,0,3:0:0:0:
357,199,9173,2,0,L|341:81,1,105,0|0,0:0|0:0,0:0:0:0:
134,85,9518,2,0,L|153:223,1,105,2|0,0:0|0:0,0:0:0:0:
38,249,9863,1,0,0:0:0:0:
238,311,10036,2,0,L|351:301,1,105,2|0,0:0|0:0,0:0:0:0:
81,147,10380,1,2,0:0:0:0:
179,192,10553,2,0,L|190:303,1,105,0|2,0:0|0:0,0:0:0:0:
103,353,10898,1,4,0:0:0:0:
368,329,11070,5,10,0:0:0:0:
231,243,11415,2,0,L|198:120,1,105,2|0,0:0|0:0,0:0:0:0:
355,143,11760,2,0,L|370:24,1,105,2|0,3:2|0:0,0:0:0:0:
260,27,12104,1,0,0:0:0:0:
468,213,12277,2,0,L|316:224,1,105,2|0,0:0|0:0,0:0:0:0:
37,323,12794,2,0,L|275:358,1,210,2|0,0:0|0:0,0:0:0:0:
144,265,13311,2,0,L|119:142,1,105,2|0,3:2|0:0,0:0:0:0:
424,87,13829,5,2,0:0:0:0:
293,175,14518,1,2,3:2:0:0:
420,241,15036,1,2,3:2:0:0:
345,237,15208,2,0,L|344:350,1,105,0|0,0:0|0:0,0:0:0:0:
136,348,15553,1,2,0:0:0:0:
436,123,15898,1,2,0:0:0:0:
337,159,16070,1,0,0:0:0:0:
436,123,16242,1,2,0:0:0:0:
246,206,16415,1,4,0:0:0:0:
436,123,16587,5,8,0:0:0:0:
255,264,17277,1,8,0:0:0:0:
417,319,17622,1,0,0:0:0:0:
213,320,17794,2,0,L|203:209,1,105,2|0,0:0|0:0,0:0:0:0:
383,118,18311,1,2,0:0:0:0:
81,63,18656,1,0,0:0:0:0:
277,68,18829,2,0,L|312:195,1,105,2|0,0:0|0:0,0:0:0:0:
28,287,19346,5,2,0:0:0:0:
267,332,20036,1,8,0:0:0:0:
121,200,20380,1,0,0:0:0:0:
305,170,20553,2,0,L|343:44,1,105,2|0,0:0|0:0,0:0:0:0:
63,40,21070,1,2,0:0:0:0:
375,55,21415,1,8,0:0:0:0:
266,126,21587,1,0,0:0:0:0:
228,205,21760,1,2,0:0:0:0:
266,261,21932,1,0,0:0:0:0:
375,55,22104,5,2,0:0:0:0:
258,118,22449,2,0,L|243:236,1,105,2|0,0:0|0:0,0:0:0:0:
51,243,22794,1,12,0:0:0:0:
176,299,23139,1,0,0:0:0:0:
265,308,23311,1,2,0:0:0:0:
76,342,23829,1,2,0:0:0:0:
242,176,24173,1,0,0:0:0:0:
49,126,24346,2,0,L|27:240,1,105,2|0,0:0|0:0,0:0:0:0:
313,320,24863,5,2,0:0:0:0:
161,222,25553,2,0,P|45:288|168:366,1,315,8|0,0:0|0:0,0:0:0:0:
323,228,26242,2,0,P|368:152|298:62,1,210,2|0,0:0|0:0,0:0:0:0:
193,50,26760,1,0,0:0:0:0:
384,79,26932,1,2,0:0:0:0:
287,159,27104,1,8,0:0:0:0:
272,244,27277,1,2,0:0:0:0:
328,311,27449,1,8,0:0:0:0:
27,349,27622,5,8,0:0:0:0:
256,192,30380,12,8,31760,0:0:0:0:
303,190,32622,6,0,L|303:53,1,105,8|4,0:0|0:0,0:0:0:0:
137,54,32967,1,8,0:0:0:0:
414,60,33139,1,2,0:0:0:0:
430,152,33311,1,0,0:0:0:0:
375,252,33484,1,8,0:0:0:0:
261,271,33656,1,0,0:0:0:0:
375,252,33829,1,2,0:0:0:0:
429,161,34001,1,2,0:0:0:0:
371,91,34173,1,8,0:0:0:0:
260,82,34346,1,0,0:0:0:0:
26,137,34518,5,2,0:0:0:0:
206,204,34691,1,0,0:0:0:0:
124,264,34863,1,8,0:0:0:0:
317,335,35036,1,0,0:0:0:0:
219,284,35208,1,0,0:0:0:0:
160,229,35380,1,2,0:0:0:0:
219,284,35553,1,8,0:0:0:0:
322,339,35725,1,0,0:0:0:0:
76,147,35898,5,2,0:0:0:0:
257,119,36070,1,2,0:0:0:0:
146,85,36242,1,8,0:0:0:0:
257,119,36415,1,0,0:0:0:0:
62,151,36587,1,2,0:0:0:0:
47,242,36760,1,0,0:0:0:0:
97,328,36932,1,8,0:0:0:0:
198,345,37104,1,0,0:0:0:0:
464,228,37277,6,0,P|474:146|370:63,1,210,2|8,0:0|0:0,0:0:0:0:
113,265,37794,2,0,P|76:168|111:61,1,210,2|2,0:0|0:0,0:0:0:0:
306,69,38311,2,0,L|433:69,1,105,8|0,0:0|0:0,0:0:0:0:
141,89,38656,5,2,0:0:0:0:
40,171,38829,1,0,0:0:0:0:
44,279,39001,1,8,0:0:0:0:
149,336,39173,1,0,0:0:0:0:
272,352,39346,1,2,0:0:0:0:
149,336,39518,1,2,0:0:0:0:
40,297,39691,1,8,0:0:0:0:
149,336,39863,1,0,0:0:0:0:
457,212,40036,5,2,0:0:0:0:
266,256,40208,1,0,0:0:0:0:
341,295,40380,1,8,0:0:0:0:
160,336,40553,1,0,0:0:0:0:
208,259,40725,1,0,0:0:0:0:
188,161,40898,1,2,0:0:0:0:
105,100,41070,1,8,0:0:0:0:
22,109,41242,1,0,0:0:0:0:
287,42,41415,5,2,0:0:0:0:
106,147,41587,1,2,0:0:0:0:
194,199,41760,1,8,0:0:0:0:
106,147,41932,1,0,0:0:0:0:
292,272,42104,1,2,0:0:0:0:
293,174,42277,1,0,0:0:0:0:
99,135,42449,1,8,0:0:0:0:
205,128,42622,1,0,0:0:0:0:
508,40,42794,5,2,0:0:0:0:
376,92,42967,1,0,0:0:0:0:
257,165,43139,1,8,0:0:0:0:
376,92,43311,1,2,0:0:0:0:
182,189,43484,1,0,0:0:0:0:
281,239,43656,2,0,L|282:376,1,105,8|2,0:0|0:0,0:0:0:0:
477,367,44001,1,8,0:0:0:0:
173,347,44173,5,2,0:0:0:0:
87,346,44346,1,0,0:0:0:0:
281,257,44518,1,8,0:0:0:0:
87,346,44691,2,0,P|81:272|192:199,1,210,2|2,0:2|0:0,0:0:0:0:
273,187,45208,1,8,0:0:0:0:
79,142,45380,1,2,0:2:0:0:
350,223,45553,6,0,L|363:102,1,105,2|0,0:0|0:0,0:0:0:0:
262,67,45898,1,2,0:2:0:0:
459,74,46070,2,0,P|470:152|356:225,1,210,8|2,0:0|0:0,0:0:0:0:
260,256,46587,1,2,0:2:0:0:
454,312,46760,1,2,0:0:0:0:
145,319,46932,6,0,L|145:192,1,105,2|2,0:0|0:2,0:0:0:0:
318,174,47277,1,8,0:0:0:0:
144,215,47449,1,8,0:0:0:0:
424,145,47622,2,0,L|425:24,1,105,2|0,0:0|0:0,0:0:0:0:
266,28,47967,1,2,0:2:0:0:
427,36,48139,1,2,0:0:0:0:
111,71,48311,5,2,0:0:0:0:
119,157,48484,1,2,0:0:0:0:
183,212,48656,1,8,0:0:0:0:
295,217,48829,1,2,0:0:0:0:
31,301,49001,1,2,0:0:0:0:
170,272,49173,1,2,0:0:0:0:
314,216,49346,1,8,0:0:0:0:
458,148,49518,1,0,0:0:0:0:
166,163,49691,6,0,L|39:177,1,105,2|0,0:0|0:0,0:0:0:0:
194,122,50036,1,8,0:0:0:0:
382,107,50208,2,0,P|342:235|252:253,1,210,2|2,0:2|0:0,0:0:0:0:
192,256,50725,1,8,0:0:0:0:
386,312,50898,1,2,0:2:0:0:
77,223,51070,6,0,L|65:98,1,105,2|0,0:0|0:0,0:0:0:0:
347,48,51415,1,2,0:2:0:0:
265,83,51587,2,0,L|483:140,1,210,8|2,0:0|0:0,0:0:0:0:
273,239,52104,2,0,L|143:273,1,105,2|2,0:2|0:0,0:0:0:0:
441,306,52449,5,2,0:0:0:0:
430,204,52622,1,2,0:0:0:0:
343,146,52794,1,8,0:0:0:0:
231,139,52967,1,8,0:0:0:0:
494,87,53139,1,2,0:0:0:0:
351,104,53311,1,0,0:0:0:0:
209,130,53484,1,8,0:0:0:0:
65,162,53656,1,2,0:0:0:0:
344,264,53829,6,0,L|456:292,1,105,2|8,0:0|0:0,0:0:0:0:
303,315,54173,2,0,L|199:297,1,105,8|2,0:0|0:0,0:0:0:0:
496,138,54518,2,0,L|360:163,1,105,10|0,0:0|0:0,0:0:0:0:
108,111,54863,2,0,L|9:146,1,105,8|2,0:0|0:0,0:0:0:0:
302,235,55208,5,4,0:0:0:0:
358,136,57967,5,8,0:0:0:0:
207,188,58311,1,0,0:0:0:0:
207,188,58484,1,2,0:0:0:0:
372,258,58829,2,0,L|141:259,1,210,2|2,0:0|0:0,0:0:0:0:
357,197,59346,1,2,0:0:0:0:
204,151,59691,1,0,0:0:0:0:
204,151,59863,1,2,0:0:0:0:
352,98,60208,2,0,L|142:95,1,210,2|2,0:0|0:0,0:0:0:0:
340,43,60725,5,2,0:0:0:0:
347,85,60898,1,0,0:0:0:0:
354,143,61070,1,0,0:0:0:0:
150,230,61242,1,2,0:0:0:0:
253,286,61587,2,0,L|29:302,1,210,2|2,0:0|0:0,0:0:0:0:
358,209,62104,2,0,P|401:143|308:54,1,210,4|0,0:0|0:0,0:0:0:0:
222,45,62622,1,2,0:0:0:0:
483,71,62794,1,2,0:0:0:0:
400,119,62967,1,0,0:0:0:0:
484,188,63139,1,2,0:0:0:0:
401,239,63311,1,4,0:0:0:0:
150,311,63484,5,8,0:0:0:0:
303,200,63829,1,0,0:0:0:0:
303,200,64001,1,2,0:0:0:0:
150,152,64346,2,0,L|368:150,1,210,2|2,0:0|0:0,0:0:0:0:
167,95,64863,1,2,0:0:0:0:
327,55,65208,1,0,0:0:0:0:
327,55,65380,1,2,0:0:0:0:
135,52,65725,2,0,L|355:42,1,210,2|2,0:0|0:0,0:0:0:0:
151,113,66242,5,2,0:0:0:0:
146,172,66415,1,0,0:0:0:0:
137,234,66587,1,0,0:0:0:0:
331,305,66760,1,2,0:0:0:0:
212,334,67104,2,0,L|430:358,1,210,2|2,0:0|0:0,0:0:0:0:
171,253,67622,2,0,P|164:191|282:120,1,210,4|0,0:0|0:0,0:0:0:0:
374,128,68139,1,2,0:0:0:0:
115,63,68311,1,2,0:0:0:0:
41,105,68484,1,0,0:0:0:0:
106,158,68656,1,2,0:0:0:0:
185,187,68829,1,0,0:0:0:0:
467,256,69001,6,0,L|474:361,1,105,8|0,0:0|0:0,0:0:0:0:
360,266,69346,2,0,L|342:139,1,105,0|2,0:0|0:0,0:0:0:0:
150,118,69691,1,12,0:0:0:0:
63,105,70036,2,0,L|82:238,1,105,0|2,0:0|0:0,0:0:0:0:
250,244,70380,2,0,L|465:239,1,210,2|0,0:0|0:0,0:0:0:0:
286,188,70898,2,0,L|274:68,1,105,2|12,0:0|0:0,0:0:0:0:
446,81,71242,1,2,0:0:0:0:
435,87,71415,2,0,L|324:63,1,105,0|2,0:0|0:0,0:0:0:0:
78,214,71760,6,0,L|293:192,1,210,2|0,0:0|0:0,0:0:0:0:
114,143,72277,2,0,L|3:151,1,105,2|12,0:0|0:0,0:0:0:0:
191,56,72622,1,2,0:0:0:0:
117,97,72794,2,0,L|131:228,1,105,0|2,0:0|0:0,0:0:0:0:
366,240,73139,2,0,L|131:250,1,210,2|0,0:0|0:0,0:0:0:0:
124,177,73656,1,2,0:0:0:0:
415,84,73829,1,12,0:0:0:0:
476,161,74001,1,0,0:0:0:0:
401,231,74173,1,2,0:0:0:0:
309,250,74346,1,2,0:0:0:0:
41,337,74518,6,0,L|151:356,1,105,8|0,0:0|0:0,0:0:0:0:
329,294,74863,2,0,L|213:312,1,105,8|0,0:0|0:0,0:0:0:0:
45,194,75208,2,0,L|47:81,1,105,12|0,0:0|0:0,0:0:0:0:
237,47,75553,2,0,L|133:62,1,105,8|0,0:0|0:0,0:0:0:0:
406,110,75898,2,0,L|510:98,1,105,8|0,0:0|0:0,0:0:0:0:
337,211,76242,2,0,L|229:168,1,105,8|0,0:0|0:0,0:0:0:0:
433,280,76587,2,0,L|483:168,1,105,12|0,0:0|0:0,0:0:0:0:
296,88,76932,2,0,L|193:64,1,105,8|2,0:0|0:0,0:0:0:0:
185,25,77191,1,0,0:0:0:0:
445,83,77277,6,0,P|463:144|377:280,1,210,8|8,3:2|3:2,0:0:0:0:
214,316,77794,2,0,P|299:305|434:329,1,210,0|0,3:2|0:0,0:0:0:0:
232,241,78311,2,0,L|215:128,1,105,8|0,3:2|3:2,0:0:0:0:
498,58,78656,1,8,0:0:0:0:
207,89,79346,1,2,0:0:0:0:
285,92,79518,1,0,0:0:0:0:
90,178,79691,1,2,0:0:0:0:
174,184,79863,1,0,0:0:0:0:
458,255,80036,5,8,0:0:0:0:
366,263,80208,2,0,P|319:228|386:117,1,210,2|0,0:0|0:0,0:0:0:0:
203,69,80725,1,2,0:0:0:0:
172,49,81070,1,0,0:0:0:0:
242,117,81242,2,0,L|67:268,2,210,2|2|0,0:0|0:0|0:0,0:0:0:0:
448,114,82104,1,2,0:0:0:0:
426,185,82449,1,0,0:0:0:0:
318,204,82622,2,0,L|311:339,1,105,2|0,0:0|0:0,0:0:0:0:
422,194,82967,2,0,L|292:186,2,105,2|0|0,0:0|0:0|0:0,0:0:0:0:
212,130,83484,1,2,0:0:0:0:
172,92,83829,1,0,0:0:0:0:
262,125,84001,1,2,0:0:0:0:
30,223,84173,1,0,0:0:0:0:
113,274,84346,2,0,L|4:295,2,105,0|0|0,0:0|0:0|0:0,0:0:0:0:
386,261,84863,5,2,0:0:0:0:
277,251,85036,1,0,0:0:0:0:
443,192,85208,1,2,0:0:0:0:
173,113,85380,1,4,0:0:0:0:
176,160,85553,1,0,0:0:0:0:
357,211,85725,2,0,L|146:221,1,210,2|0,0:0|0:0,0:0:0:0:
342,298,86242,1,2,0:0:0:0:
177,328,86587,1,0,0:0:0:0:
361,239,86760,6,0,L|219:242,1,105,2|0,0:0|0:0,0:0:0:0:
75,181,87104,2,0,L|292:171,1,210,2|0,0:0|0:0,0:0:0:0:
89,182,87622,2,0,L|78:68,1,105,2|0,0:0|0:0,0:0:0:0:
377,190,87967,2,0,L|398:69,1,105,2|0,2:3|0:0,0:0:0:0:
84,31,88311,5,8,0:0:0:0:
105,72,88484,1,0,0:0:0:0:
83,120,88656,1,0,0:0:0:0:
157,148,88829,1,0,0:0:0:0:
82,211,89001,1,2,0:0:0:0:
217,237,89173,1,0,0:0:0:0:
82,211,89346,1,2,0:0:0:0:
286,270,89518,1,0,0:0:0:0:
23,180,89691,2,0,P|24:101|152:51,1,210,8|0,0:0|0:0,0:0:0:0:
42,32,90208,1,8,0:0:0:0:
344,47,90380,1,0,0:0:0:0:
220,120,90553,1,0,0:0:0:0:
164,184,90725,1,8,0:0:0:0:
207,256,90898,1,0,0:0:0:0:
375,309,91070,5,0,0:0:0:0:
185,352,91242,2,0,L|416:356,1,210,2|0,0:0|0:0,0:0:0:0:
203,279,91760,2,0,P|176:219|282:111,1,210,2|0,0:0|0:0,0:0:0:0:
439,85,92277,2,0,L|459:199,1,105,2|0,0:0|0:0,0:0:0:0:
270,262,92622,2,0,L|401:267,1,105,2|0,0:0|0:0,0:0:0:0:
299,311,92967,1,0,0:0:0:0:
103,338,93139,2,0,L|338:333,1,210,2|0,0:0|0:0,0:0:0:0:
123,239,93656,6,0,L|99:100,1,105,2|0,0:0|0:0,0:0:0:0:
269,75,94001,2,0,L|127:75,1,105,2|0,0:0|0:0,0:0:0:0:
231,21,94346,1,0,0:0:0:0:
417,166,94518,2,0,L|180:189,1,210,2|0,0:0|0:0,0:0:0:0:
383,252,95036,1,2,0:0:0:0:
99,272,95208,6,0,P|88:203|185:114,1,210,4|0,0:0|0:0,0:0:0:0:
382,69,95725,1,0,0:0:0:0:
121,81,95898,1,2,0:0:0:0:
49,83,96070,1,0,0:0:0:0:
122,75,96242,1,2,0:0:0:0:
288,176,96415,1,4,0:0:0:0:
26,240,96587,1,0,0:0:0:0:
118,342,96760,6,0,L|361:331,1,210,2|0,0:0|0:0,0:0:0:0:
165,260,97277,2,0,P|130:208|193:82,1,210,2|0,0:0|0:0,0:0:0:0:
369,92,97794,2,0,L|376:213,1,105,2|0,0:0|0:0,0:0:0:0:
195,275,98139,2,0,L|320:283,1,105,2|0,0:0|0:0,0:0:0:0:
425,290,98484,1,0,0:0:0:0:
243,332,98656,2,0,L|96:338,1,105,2|0,0:0|0:0,0:0:0:0:
475,204,99001,2,0,L|473:79,1,105,2|0,2:3|0:0,0:0:0:0:
184,50,99346,5,8,0:0:0:0:
181,113,99518,1,0,0:0:0:0:
213,170,99691,1,0,0:0:0:0:
312,192,99863,1,0,0:0:0:0:
160,283,100036,1,2,0:0:0:0:
312,192,100208,1,0,0:0:0:0:
140,288,100380,1,2,0:0:0:0:
312,182,100553,1,0,0:0:0:0:
42,254,100725,6,0,P|36:170|168:98,1,210,8|0,0:0|0:0,0:0:0:0:
393,243,101242,2,0,P|368:182|217:160,1,210,8|0,0:0|0:0,0:0:0:0:
499,55,101760,2,0,L|355:51,1,105,10|0,0:0|0:0,0:0:0:0:
82,182,102104,5,2,0:0:0:0:
347,132,107622,6,0,P|405:164|334:308,1,252,2|0,0:0|0:0,0:0:0:0:
159,307,108311,2,0,L|74:291,1,84,2|2,0:0|0:0,0:0:0:0:
257,182,108829,2,0,L|75:150,1,168,0|2,0:0|0:0,0:0:0:0:
294,83,109518,2,0,L|97:65,1,168,4|2,0:0|0:0,0:0:0:0:
433,176,110208,6,0,P|475:143|438:47,1,168,2|0,0:0|0:0,0:0:0:0:
231,179,111070,2,0,P|221:122|227:86,1,84,2|0,0:0|1:0,0:0:0:0:
373,77,111587,1,0,1:0:0:0:
176,79,111760,2,0,L|46:60,2,126,2|0|4,0:0|0:0|0:0,0:0:0:0:
381,247,112449,1,0,0:0:0:0:
458,203,112622,1,0,0:0:0:0:
462,119,112794,1,0,0:0:0:0:
393,81,112967,1,4,0:0:0:0:
192,109,113139,6,0,L|375:95,1,168,2|0,0:0|0:0,0:0:0:0:
177,222,113829,2,0,L|177:315,1,84,0|2,0:0|0:0,0:0:0:0:
388,323,114346,2,0,L|217:321,1,168,2|0,0:0|0:0,0:0:0:0:
49,141,115036,2,0,P|18:228|44:302,1,168,4|2,0:0|0:0,0:0:0:0:
373,246,115725,6,0,L|178:261,1,168,2|0,0:0|0:0,0:0:0:0:
367,228,116587,2,0,P|379:186|375:133,1,84,2|0,0:0|0:0,0:0:0:0:
190,151,117104,1,0,0:0:0:0:
387,149,117277,2,0,P|436:171|382:329,1,252,4|2,0:0|0:0,0:0:0:0:
205,329,117967,2,0,L|199:237,1,84,2|0,0:0|0:0,0:0:0:0:
321,240,118311,2,0,L|334:134,1,84,2|0,0:0|0:0,0:0:0:0:
165,132,118656,6,0,P|107:164|102:268,1,168,2|0,0:0|0:0,0:0:0:0:
167,306,119173,1,0,0:0:0:0:
353,307,119345,2,0,L|438:291,1,84,8|0,0:0|0:0,0:0:0:0:
255,182,119863,2,0,P|244:125|245:88,1,84,4|2,0:0|0:0,0:0:0:0:
367,73,120208,2,0,L|166:57,2,168,0|0|0,0:0|0:0|0:0,0:0:0:0:
188,89,121242,1,0,0:0:0:0:
377,134,121415,6,0,P|392:186|322:271,1,168,4|0,0:0|0:0,0:0:0:0:
151,190,121932,1,0,0:0:0:0:
261,178,122104,2,0,P|271:121|265:85,1,84,8|0,0:0|0:0,0:0:0:0:
139,77,122621,1,0,0:0:0:0:
336,79,122794,2,0,L|466:60,2,126,4|0|0,0:0|0:0|0:0,0:0:0:0:
131,247,123483,1,8,0:0:0:0:
54,203,123656,1,0,0:0:0:0:
50,119,123828,1,2,0:0:0:0:
119,81,124001,1,0,0:0:0:0:
320,109,124173,6,0,L|133:92,1,168,4|0,0:0|0:0,0:0:0:0:
220,174,124691,1,0,0:0:0:0:
370,226,124863,2,0,L|370:319,1,84,8|0,0:0|0:0,0:0:0:0:
177,317,125380,2,0,P|159:275|165:225,1,84,0|4,0:0|0:0,0:0:0:0:
293,221,125725,2,0,P|380:190|454:216,2,168,0|0|0,0:0|0:0|0:0,0:0:0:0:
121,173,126760,1,0,0:0:0:0:
309,191,126932,6,0,L|504:206,1,168,4|0,0:0|0:0,0:0:0:0:
388,269,127449,1,0,0:0:0:0:
202,263,127621,2,0,P|190:221|194:168,1,84,8|0,0:0|0:0,0:0:0:0:
322,151,128138,1,0,0:0:0:0:
120,152,128311,2,0,P|57:156|8:121,2,126,4|0|8,0:0|0:0|0:0,0:0:0:0:
235,267,129001,2,0,L|241:175,1,84,0|8,0:0|0:0,0:0:0:0:
67,162,129345,2,0,L|54:56,1,84,0|2,0:0|0:0,0:0:0:0:
365,41,129690,5,8,0:0:0:0:
302,228,132449,5,0,0:0:0:0:
256,192,132794,12,8,136587,0:0:0:0:
181,262,137449,5,8,0:0:0:0:
336,185,137622,1,4,0:0:0:0:
176,152,137794,1,8,0:0:0:0:
422,165,137967,6,0,L|426:258,1,84,2|0,0:0|0:0,0:0:0:0:
310,331,138311,1,8,0:0:0:0:
433,339,138484,1,0,0:0:0:0:
292,322,138656,2,0,L|190:315,1,84,2|2,0:0|0:0,0:0:0:0:
342,265,139001,2,0,L|432:264,1,84,8|0,0:0|0:0,0:0:0:0:
152,231,139346,6,0,P|138:180|144:139,1,84,2|0,0:0|0:0,0:0:0:0:
246,117,139691,1,8,0:0:0:0:
367,89,139863,1,0,0:0:0:0:
242,55,140036,1,0,0:0:0:0:
132,39,140208,1,2,0:0:0:0:
251,112,140380,2,0,P|265:168|256:212,1,84,8|0,0:0|0:0,0:0:0:0:
21,216,140725,6,0,L|117:208,1,84,2|2,0:0|0:0,0:0:0:0:
261,255,141070,2,0,L|174:267,1,84,8|0,0:0|0:0,0:0:0:0:
328,338,141415,1,2,0:0:0:0:
407,297,141587,1,0,0:0:0:0:
405,204,141760,1,8,0:0:0:0:
327,141,141932,1,0,0:0:0:0:
60,275,142104,5,2,0:0:0:0:
170,259,142277,1,0,0:0:0:0:
280,242,142449,1,8,0:0:0:0:
116,206,142622,2,0,L|21:190,2,84,2|0|2,0:0|0:0|0:0,0:0:0:0:
266,204,143139,2,0,L|359:197,1,84,8|2,0:0|0:0,0:0:0:0:
90,165,143484,6,0,L|1:164,1,84,2|2,0:0|0:0,0:0:0:0:
131,273,143829,2,0,L|220:272,1,84,8|2,0:0|0:0,0:0:0:0:
62,261,144173,2,0,L|60:173,1,84,2|0,0:0|0:0,0:0:0:0:
169,157,144518,1,8,0:0:0:0:
63,124,144691,1,0,0:0:0:0:
413,238,144863,6,0,P|427:187|421:146,1,84,2|2,0:0|0:0,0:0:0:0:
319,124,145208,1,8,0:0:0:0:
198,96,145380,1,2,0:0:0:0:
317,64,145553,1,0,0:0:0:0:
433,46,145725,1,0,0:0:0:0:
319,124,145897,2,0,P|333:180|324:224,1,84,8|0,0:0|0:0,0:0:0:0:
48,225,146242,6,0,L|36:137,1,84,2|2,0:0|0:0,0:0:0:0:
162,79,146587,2,0,L|248:78,1,84,8|0,0:0|0:0,0:0:0:0:
361,134,146932,2,0,L|371:234,1,84,2|0,0:0|0:0,0:0:0:0:
239,271,147277,2,0,L|147:270,1,84,8|0,0:0|0:0,0:0:0:0:
452,275,147621,5,2,0:0:0:0:
323,258,147794,1,0,0:0:0:0:
452,275,147966,1,0,0:0:0:0:
263,157,148139,1,2,0:0:0:0:
392,140,148312,1,0,0:0:0:0:
263,157,148484,1,8,0:0:0:0:
452,275,148656,2,0,L|452:183,1,84,2|8,0:0|0:0,0:0:0:0:
169,197,149001,6,0,L|162:109,1,84,6|0,0:0|0:0,0:0:0:0:
315,99,149346,1,8,0:0:0:0:
161,98,149518,2,0,L|96:38,2,84,2|2|2,0:2|0:0|0:0,0:0:0:0:
315,99,150036,1,8,0:0:0:0:
48,176,150208,2,0,P|56:240|76:280,1,84,2|2,0:2|0:0,0:0:0:0:
168,292,150553,1,0,0:0:0:0:
460,272,150725,1,2,0:2:0:0:
288,248,150898,2,0,L|360:192,2,84,8|2|2,0:0|0:0|0:0,0:0:0:0:
121,157,151415,5,2,0:2:0:0:
288,152,151587,2,0,P|300:224|296:268,1,84,0|2,0:0|0:0,0:0:0:0:
200,276,151932,1,0,0:0:0:0:
368,284,152104,1,8,0:0:0:0:
200,276,152277,2,0,P|196:220|208:184,1,84,2|2,0:2|0:0,0:0:0:0:
296,180,152622,1,0,0:0:0:0:
468,184,152794,1,8,0:0:0:0:
296,180,152967,1,2,0:2:0:0:
48,256,153139,6,0,P|36:196|44:168,1,84,2|0,0:0|0:0,0:0:0:0:
144,152,153484,1,0,0:0:0:0:
340,208,153656,2,0,L|432:208,2,84,2|0|2,0:0|0:0|0:0,0:0:0:0:
144,152,154173,2,0,P|128:84|132:48,1,84,8|8,0:0|0:0,0:0:0:0:
400,160,154518,6,0,L|505:151,1,84,2|0,0:0|0:0,0:0:0:0:
328,144,154863,1,8,0:0:0:0:
482,143,155035,2,0,L|491:53,1,84,2|2,0:2|0:0,0:0:0:0:
392,36,155380,1,2,0:0:0:0:
220,96,155553,1,8,0:0:0:0:
464,176,155725,2,0,P|475:239|471:281,1,84,2|2,0:2|0:0,0:0:0:0:
384,291,156070,1,0,0:0:0:0:
104,260,156242,1,2,0:2:0:0:
276,208,156415,2,0,P|288:156|272:108,1,84,8|2,0:0|0:0,0:0:0:0:
172,100,156760,1,0,0:0:0:0:
339,105,156932,5,2,0:2:0:0:
172,100,157104,2,0,P|160:172|164:216,1,84,0|2,0:0|0:0,0:0:0:0:
260,224,157449,1,0,0:0:0:0:
429,233,157621,1,8,0:0:0:0:
260,224,157794,2,0,L|184:176,2,84,2|2|0,0:2|0:0|0:0,0:0:0:0:
400,216,158311,1,8,0:0:0:0:
256,268,158484,1,2,0:2:0:0:
452,268,158656,6,0,P|464:208|456:180,1,84,2|0,0:0|0:0,0:0:0:0:
356,148,159001,1,0,0:0:0:0:
172,208,159173,2,0,L|80:208,2,84,2|8|2,0:0|0:0|0:0,0:0:0:0:
368,152,159690,2,0,P|384:84|380:48,1,84,8|2,0:0|0:2,0:0:0:0:
100,68,160036,5,4,0:0:0:0:
256,192,160208,12,0,162622,0:0:0:0:
272,248,162794,5,8,0:0:0:0:
144,248,162967,2,0,P|112:200|156:128,1,125.999996154785,0|0,0:0|0:0,0:0:0:0:
328,100,163484,2,0,L|188:92,1,125.999996154785,0|0,0:0|0:0,0:0:0:0:
316,212,164001,2,0,L|460:212,2,125.999996154785,0|0|0,0:0|0:0|0:0,0:0:0:0:
192,216,164863,2,0,P|152:188|192:112,1,125.999996154785,0|0,0:0|0:0,0:0:0:0:
360,112,165380,6,0,L|208:96,2,125.999996154785,0|0|0,0:0|0:0|0:0,0:0:0:0:
168,212,166242,2,0,P|136:176|184:104,1,125.999996154785,0|0,0:0|0:0,0:0:0:0:
292,112,166760,2,0,L|420:108,2,125.999996154785,0|0|0,0:0|0:0|0:0,0:0:0:0:
152,172,167622,2,0,L|148:248,1,62.9999980773926,0|0,0:0|0:0,0:0:0:0:
276,248,167967,2,0,L|280:316,1,62.9999980773926,0|0,0:0|0:0,0:0:0:0:
120,335,168311,5,0,0:0:0:0:
288,336,168484,2,0,P|324:288|296:232,1,125.999996154785,2|0,0:0|0:0,0:0:0:0:
168,204,169001,2,0,P|144:156|180:100,1,125.999996154785,4|0,0:0|0:0,0:0:0:0:
368,160,169518,2,0,L|232:148,2,125.999996154785,2|2|0,0:0|0:0|0:0,0:0:0:0:
492,136,170380,2,0,P|464:80|392:64,1,125.999996154785,4|0,0:0|0:0,0:0:0:0:
212,204,170898,6,0,L|64:196,2,125.999996154785,2|2|0,0:0|0:0|0:0,0:0:0:0:
344,216,171760,2,0,P|384:176|344:100,1,125.999996154785,4|0,0:0|0:0,0:0:0:0:
176,108,172277,2,0,L|312:104,2,125.999996154785,2|2|0,0:0|0:0|0:0,0:0:0:0:
296,176,173139,2,0,L|296:240,1,62.9999980773926,2|0,0:0|0:0,0:0:0:0:
164,256,173484,2,0,L|160:320,1,62.9999980773926,2|0,0:0|0:0,0:0:0:0:
436,124,173829,6,0,L|496:52,2,84,8|2|0,0:0|0:0|0:0,0:0:0:0:
316,164,174346,1,0,0:0:0:0:
124,168,174518,2,0,L|117:81,1,84,8|0,0:0|0:0,0:0:0:0:
304,160,175036,2,0,P|315:103|314:66,1,84,4|0,0:0|0:0,0:0:0:0:
192,64,175381,2,0,L|393:48,1,168,0|2,0:0|0:0,0:0:0:0:
460,40,175898,1,8,0:0:0:0:
312,84,176070,2,0,L|492:120,1,168,0|4,0:0|0:0,0:0:0:0:
212,168,176587,6,0,L|192:264,2,84,0|2|0,0:0|0:0|0:0,0:0:0:0:
320,164,177105,1,0,0:0:0:0:
128,152,177277,2,0,P|118:95|124:59,1,84,8|0,0:0|0:0,0:0:0:0:
328,80,177794,1,2,0:0:0:0:
132,84,177967,2,2,P|112:124|140:204,1,126,4|0,0:0|0:0,0:0:0:0:
316,248,178484,1,2,0:0:0:0:
192,224,178656,2,0,P|184:180|196:140,1,84,8|2,0:0|0:0,0:0:0:0:
312,152,179001,2,0,P|320:104|296:64,1,84,0|2,0:0|0:0,0:0:0:0:
40,96,179346,6,0,P|24:144|40:184,1,84,4|0,0:0|0:0,0:0:0:0:
128,192,179691,1,0,0:0:0:0:
240,200,179864,1,0,0:0:0:0:
44,248,180036,2,0,L|44:341,1,84,8|0,0:0|0:0,0:0:0:0:
224,336,180553,2,0,P|242:294|236:244,1,84,4|0,0:0|0:0,0:0:0:0:
132,208,180898,2,0,P|219:177|293:203,1,168,0|2,0:0|0:0,0:0:0:0:
376,208,181415,1,0,0:0:0:0:
236,212,181587,2,0,L|64:192,1,168,2|4,0:0|0:0,0:0:0:0:
352,300,182104,6,0,P|376:260|360:204,1,84,0|2,0:0|0:0,0:0:0:0:
260,188,182449,1,0,0:0:0:0:
152,176,182622,1,0,0:0:0:0:
348,168,182794,2,0,P|360:126|356:73,1,84,8|0,0:0|0:0,0:0:0:0:
164,80,183311,1,2,0:0:0:0:
360,104,183484,2,0,L|492:80,2,126,4|0|2,0:0|0:0|0:0,0:0:0:0:
232,256,184174,2,0,L|232:164,1,84,8|2,0:0|0:0,0:0:0:0:
352,188,184518,2,0,L|376:84,1,84,0|2,0:0|0:0,0:0:0:0:
134,71,184863,6,0,P|78:127|110:213,1,168,8|2,0:0|0:0,0:0:0:0:
280,208,185553,2,0,L|448:204,1,168,2|2,0:0|0:0,0:0:0:0:
236,324,186242,2,0,P|196:280|244:176,1,168,2|2,0:0|0:0,0:0:0:0:
424,200,186932,2,0,P|464:164|412:72,1,168,2|2,0:0|0:0,0:0:0:0:
232,64,187622,6,0,P|220:120|224:160,1,84,2|0,0:0|0:0,0:0:0:0:
324,148,187967,2,0,P|344:196|328:240,1,84,2|0,0:0|0:0,0:0:0:0:
224,252,188311,2,0,L|132:240,1,84,2|0,0:0|0:0,0:0:0:0:
232,180,188656,2,0,L|140:168,1,84,2|0,0:0|0:0,0:0:0:0:
256,120,189001,6,0,L|340:108,1,84,2|0,0:0|0:0,0:0:0:0:
256,44,189346,2,0,L|340:32,1,84,2|0,0:0|0:0,0:0:0:0:
200,88,189691,2,0,L|192:180,1,84,2|0,0:0|0:0,0:0:0:0:
288,192,190036,2,0,L|296:288,1,84,2|0,0:0|0:0,0:0:0:0:
256,192,190380,12,0,193139,0:0:0:0:
