osu file format v14

[General]
AudioFilename: audio.mp3
AudioLeadIn: 0
PreviewTime: 107277
Countdown: 0
SampleSet: Soft
StackLeniency: 0.7
Mode: 2
LetterboxInBreaks: 0
WidescreenStoryboard: 1

[Editor]
Bookmarks: 102104,193139
DistanceSpacing: 1
BeatDivisor: 4
GridSize: 4
TimelineZoom: 1.4

[Metadata]
Title:STARS ALIGN
TitleUnicode:STARS ALIGN
Artist:dark cat
ArtistUnicode:dark cat
Creator:wonjae
Version:Collab Platter
Source:osu!
Tags:catstep electronic mappers guild featured artist paranoid grapes jbh jbhyperion absolute zero wildone94 benita
BeatmapID:2242333
BeatmapSetID:1055938

[Difficulty]
HPDrainRate:4
CircleSize:3
OverallDifficulty:8
ApproachRate:8
SliderMultiplier:1.88
SliderTickRate:1

[Events]
//Background and Video events
0,0,"blues.jpg",0,0
//Break Periods
2,27822,31010
2,55408,57217
2,102304,106872
2,129891,131699
//Storyboard Layer 0 (Background)
//Storyboard Layer 1 (Fail)
//Storyboard Layer 2 (Pass)
//Storyboard Layer 3 (Foreground)
//Storyboard Layer 4 (Overlay)
//Storyboard Sound Samples

[TimingPoints]
36,344.827586206897,4,2,1,5,1,0
4863,-100,4,2,1,100,0,0
5380,-100,4,2,77,80,0,0
5553,-100,4,2,1,100,0,0
10898,-100,4,2,77,80,0,0
11071,-100,4,2,1,100,0,0
16415,-100,4,2,77,80,0,0
16588,-100,4,2,1,100,0,0
17277,-100,4,2,2,100,0,0
17449,-100,4,2,1,100,0,0
18656,-100,4,2,1,100,0,0
18828,-100,4,2,1,100,0,0
20036,-100,4,2,2,100,0,0
20208,-100,4,2,1,100,0,0
21415,-100,4,2,2,100,0,0
21587,-100,4,2,1,100,0,0
22794,-100,4,2,2,100,0,0
22966,-100,4,2,1,100,0,0
24173,-100,4,2,1,100,0,0
24345,-100,4,2,1,100,0,0
25553,-100,4,2,2,100,0,0
25725,-100,4,2,1,100,0,0
26070,-100,4,2,77,80,0,0
26242,-100,4,2,1,100,0,0
26760,-100,4,2,2,85,0,0
26932,-100,4,2,1,85,0,0
27104,-100,4,2,2,70,0,0
27276,-100,4,2,1,70,0,0
27449,-100,4,2,2,55,0,0
27622,-100,4,2,1,55,0,0
31760,-100,4,2,2,75,0,0
32622,-100,4,3,3,100,0,0
32794,-100,4,3,0,85,0,0
32967,-100,4,3,0,70,0,0
33139,-100,4,3,3,100,0,0
54518,-100,4,3,3,80,0,0
54863,-100,4,3,3,80,0,0
55208,-100,4,2,2,100,0,0
57967,-100,4,2,1,80,0,0
62104,-100,4,2,77,80,0,0
62277,-100,4,2,1,80,0,0
62622,-100,4,2,0,71,0,0
62967,-100,4,2,1,60,0,0
63139,-100,4,2,1,80,0,0
63311,-100,4,2,77,80,0,0
63484,-100,4,2,1,80,0,0
64863,-100,4,2,1,85,0,0
66242,-100,4,2,1,90,0,0
67622,-100,4,2,77,95,0,0
67794,-100,4,2,1,95,0,0
68139,-100,4,2,0,71,0,0
68311,-100,4,2,1,85,0,0
68484,-100,4,2,1,65,0,0
68656,-100,4,2,1,80,0,0
68829,-100,4,2,1,60,0,0
69001,-100,4,2,1,80,0,0
69173,-100,4,2,4,80,0,0
74001,-100,4,2,4,60,0,0
74173,-100,4,2,4,80,0,0
74346,-100,4,2,4,100,0,0
74518,-100,4,2,1,80,0,0
74691,-100,4,2,4,80,0,0
75898,-100,4,2,1,80,0,0
76071,-100,4,2,4,80,0,0
77277,-100,4,2,1,80,0,0
77450,-100,4,2,4,80,0,0
78656,-100,4,2,1,80,0,0
79346,-100,4,2,1,60,0,0
80036,-100,4,2,1,80,0,0
84173,-100,4,2,77,70,0,0
84691,-100,4,2,1,80,0,0
85380,-100,4,2,77,70,0,0
85553,-100,4,2,1,80,0,0
87967,-100,4,2,0,80,0,0
88311,-100,4,2,1,80,0,0
89691,-100,4,2,1,100,0,0
90898,-100,4,2,1,100,0,0
91070,-100,4,2,1,100,0,0
95208,-100,4,2,77,80,0,0
95380,-100,4,2,1,80,0,0
95725,-100,4,2,0,71,0,0
96415,-100,4,2,77,80,0,0
96587,-100,4,2,1,80,0,0
100725,-100,4,2,1,100,0,0
101932,-100,4,2,1,100,0,0
109518,-100,4,2,77,80,0,0
109691,-100,4,2,1,80,0,0
112277,-100,4,2,77,80,0,0
112450,-100,4,2,1,80,0,0
112967,-100,4,2,77,80,0,0
113139,-100,4,2,1,80,0,0
115036,-100,4,2,77,80,0,0
115209,-100,4,2,1,80,0,0
117104,-100,4,2,1,60,0,0
117277,-100,4,2,77,80,0,0
117450,-100,4,2,1,80,0,0
117794,-100,4,2,0,71,0,0
119346,-100,4,2,2,80,0,0
119518,-100,4,2,1,80,0,0
119863,-100,4,2,77,80,0,0
120036,-100,4,2,1,80,0,0
120725,-100,4,2,2,80,0,0
120897,-100,4,2,1,80,0,0
121415,-100,4,2,77,80,0,0
121588,-100,4,2,1,80,0,0
122104,-100,4,2,2,80,0,0
122276,-100,4,2,1,80,0,0
122794,-100,4,2,77,80,0,0
122967,-100,4,2,1,80,0,0
123484,-100,4,2,2,80,0,0
123656,-100,4,2,1,80,0,0
124173,-100,4,2,77,80,0,0
124346,-100,4,2,1,80,0,0
124863,-100,4,2,2,80,0,0
125035,-100,4,2,1,80,0,0
125553,-100,4,2,77,80,0,0
125726,-100,4,2,1,80,0,0
126242,-100,4,2,2,80,0,0
126414,-100,4,2,1,80,0,0
126932,-100,4,2,77,80,0,0
127105,-100,4,2,1,80,0,0
127622,-100,4,2,2,80,0,0
127794,-100,4,2,1,80,0,0
128139,-100,4,2,1,60,0,0
128311,-100,4,2,77,80,0,0
128484,-100,4,2,1,80,0,0
129173,-100,4,2,2,80,0,0
129518,-100,4,2,2,65,0,0
129691,-100,4,2,1,45,0,0
132622,-100,4,2,1,45,0,0
133139,-100,4,2,1,45,0,0
133829,-100,4,2,1,45,0,0
134518,-100,4,2,1,45,0,0
135208,-100,4,2,1,45,0,0
135898,-100,4,2,1,45,0,0
136242,-100,4,2,1,45,0,0
136587,-100,4,2,2,75,0,0
136846,-100,4,2,2,75,0,0
137104,-100,4,2,2,75,0,0
137449,-100,4,3,3,100,0,0
137621,-100,4,3,0,85,0,0
137794,-100,4,3,0,70,0,0
137966,-100,4,3,3,100,0,0
159346,-100,4,3,3,100,0,0
159691,-100,4,3,3,100,0,0
160036,-100,4,2,2,100,0,0
160208,-100,4,2,2,100,0,0
160380,-100,4,2,1,45,0,0
160725,-100,4,2,1,40,0,0
161070,-100,4,2,1,35,0,0
161415,-100,4,2,1,30,0,0
161760,-100,4,2,1,25,0,0
162105,-100,4,2,1,20,0,0
162449,-100,4,2,1,15,0,0
162794,-100,4,2,1,80,0,0
168139,-100,4,2,1,80,0,0
168311,-100,4,2,1,80,0,0
169001,-100,4,2,77,80,0,0
169174,-100,4,2,1,80,0,0
170380,-100,4,2,77,80,0,0
170553,-100,4,2,1,80,0,0
171760,-100,4,2,77,80,0,0
171933,-100,4,2,1,80,0,0
174518,-100,4,2,2,80,0,0
174691,-100,4,2,1,80,0,0
175036,-100,4,2,77,80,0,0
175209,-100,4,2,1,80,0,0
175898,-100,4,2,2,80,0,0
176070,-100,4,2,1,80,0,0
176415,-100,4,2,77,80,0,0
176588,-100,4,2,1,80,0,0
177277,-100,4,2,2,80,0,0
177450,-100,4,2,1,80,0,0
177967,-100,4,2,77,80,0,0
178140,-100,4,2,1,80,0,0
178656,-100,4,2,2,80,0,0
178829,-100,4,2,1,80,0,0
179346,-100,4,2,77,80,0,0
179519,-100,4,2,1,80,0,0
180036,-100,4,2,2,80,0,0
180209,-100,4,2,1,80,0,0
180553,-100,4,2,77,80,0,0
180726,-100,4,2,1,80,0,0
181415,-100,4,2,2,80,0,0
181587,-100,4,2,1,80,0,0
181932,-100,4,2,77,80,0,0
182105,-100,4,2,1,80,0,0
182794,-100,4,2,2,80,0,0
182967,-100,4,2,1,80,0,0
183484,-100,4,2,77,80,0,0
183657,-100,4,2,1,80,0,0
184173,-100,4,2,2,80,0,0
184346,-100,4,2,1,80,0,0
184863,-100,4,2,2,80,0,0
185208,-100,4,2,1,80,0,0
187967,-100,4,2,1,75,0,0
188311,-100,4,2,1,70,0,0
188656,-100,4,2,1,65,0,0
189001,-100,4,2,1,60,0,0
189346,-100,4,2,1,55,0,0
189691,-100,4,2,1,50,0,0
190725,-100,4,2,1,45,0,0
191069,-100,4,2,1,40,0,0
191414,-100,4,2,1,35,0,0
191759,-100,4,2,1,30,0,0
192104,-100,4,2,1,25,0,0
192449,-100,4,2,1,20,0,0
192793,-100,4,2,1,15,0,0
193139,-100,4,2,1,10,0,0

[Colours]
Combo1 : 123,141,155
Combo2 : 0,128,255
Combo3 : 16,167,239
Combo4 : 0,0,136

[HitObjects]
249,287,4863,5,2,0:0:0:0:
252,188,5036,1,0,0:0:0:0:
325,149,5208,1,2,0:0:0:0:
416,142,5380,1,4,0:0:0:0:
153,123,5553,5,8,0:0:0:0:
254,159,6760,2,0,P|359:260|263:343,1,282,2|2,0:0|0:0,0:0:0:0:
120,347,7794,1,2,3:2:0:0:
312,273,8311,2,0,B|209:354|134:252|134:252|48:248|246:170,1,376,2|0,0:0|3:0,0:0:0:0:
418,192,9518,1,2,0:0:0:0:
253,95,10036,1,2,0:0:0:0:
389,86,10380,5,2,0:0:0:0:
390,182,10553,1,0,0:0:0:0:
300,238,10725,1,2,0:0:0:0:
197,233,10898,1,4,0:0:0:0:
454,316,11070,5,10,0:0:0:0:
342,324,11415,2,0,L|218:342,2,94,2|0|2,0:0|0:0|3:2,0:0:0:0:
224,240,12277,2,0,P|193:187|307:25,1,282,2|2,0:0|0:0,0:0:0:0:
443,51,13311,1,2,3:2:0:0:
274,84,13829,6,0,B|469:112|469:112|497:165|493:200|350:165,1,376,2|2,0:0|3:2,0:0:0:0:
190,216,15036,1,2,3:2:0:0:
357,296,15553,1,2,0:0:0:0:
219,295,15898,1,2,0:0:0:0:
135,206,16070,1,0,0:0:0:0:
135,206,16242,1,2,0:0:0:0:
219,295,16415,1,4,0:0:0:0:
475,310,16587,5,8,0:0:0:0:
301,230,17277,2,0,P|220:166|225:73,1,188,8|0,0:0|0:0,0:0:0:0:
333,60,17794,2,0,L|38:91,2,282,2|2|2,0:0|0:0|0:0,0:0:0:0:
234,77,19346,6,0,P|344:141|235:337,1,376,2|8,0:0|0:0,0:0:0:0:
82,329,20553,1,2,0:0:0:0:
251,191,21070,1,2,0:0:0:0:
135,112,21415,1,8,0:0:0:0:
58,58,21587,1,0,0:0:0:0:
58,58,21760,1,2,0:0:0:0:
135,112,21932,1,0,0:0:0:0:
392,234,22104,5,2,0:0:0:0:
265,229,22449,2,0,L|157:236,2,94,2|0|12,0:0|0:0|0:0,0:0:0:0:
431,153,23311,2,0,P|420:225|296:283,1,188,2|0,0:0|0:0,0:0:0:0:
231,307,23829,2,0,L|522:317,2,282,2|2|2,0:0|0:0|0:0,0:0:0:0:
304,251,25553,6,0,P|182:175|256:48,1,282,8|0,0:0|0:0,0:0:0:0:
400,149,26242,2,0,L|495:149,2,94,2|8|0,0:0|0:0|0:0,0:0:0:0:
275,137,26760,1,0,0:0:0:0:
85,219,26932,2,0,L|90:326,1,94,2|8,0:0|0:0,0:0:0:0:
270,156,27277,2,0,L|364:144,1,94,2|8,0:0|0:0,0:0:0:0:
109,63,27622,5,8,0:0:0:0:
289,171,31760,5,8,0:0:0:0:
88,223,32622,1,8,0:0:0:0:
271,304,32794,1,4,0:0:0:0:
329,303,32967,1,8,0:0:0:0:
68,338,33139,5,2,0:0:0:0:
65,264,33311,1,0,0:0:0:0:
139,203,33484,1,8,0:0:0:0:
227,204,33656,1,0,0:0:0:0:
316,132,33829,1,2,0:0:0:0:
329,33,34001,1,2,0:0:0:0:
233,18,34173,1,8,0:0:0:0:
147,22,34346,1,0,0:0:0:0:
307,56,34518,5,2,0:0:0:0:
133,12,34691,1,0,0:0:0:0:
221,73,34863,1,8,0:0:0:0:
275,114,35036,1,0,0:0:0:0:
221,73,35208,1,0,0:0:0:0:
138,61,35380,1,2,0:0:0:0:
59,60,35553,1,8,0:0:0:0:
340,77,35898,5,2,0:0:0:0:
339,156,36070,1,2,0:0:0:0:
267,202,36242,1,8,0:0:0:0:
184,196,36415,1,0,0:0:0:0:
268,215,36587,1,2,0:0:0:0:
185,281,36760,1,0,0:0:0:0:
182,346,36932,1,8,0:0:0:0:
268,370,37104,1,0,0:0:0:0:
456,349,37277,6,8,L|450:128,1,188,2|8,0:0|0:0,0:0:0:0:
363,115,37794,1,2,0:0:0:0:
365,54,37967,1,0,0:0:0:0:
288,41,38139,1,2,0:0:0:0:
372,54,38311,1,8,0:0:0:0:
453,66,38484,1,0,0:0:0:0:
195,164,38656,5,2,0:0:0:0:
107,167,38829,1,0,0:0:0:0:
195,164,39001,1,8,0:0:0:0:
277,223,39173,1,0,0:0:0:0:
192,278,39346,1,2,0:0:0:0:
192,342,39518,1,2,0:0:0:0:
269,367,39691,1,8,0:0:0:0:
359,368,39863,1,0,0:0:0:0:
187,295,40036,5,2,0:0:0:0:
362,250,40208,1,0,0:0:0:0:
273,168,40380,1,8,0:0:0:0:
236,122,40553,1,0,0:0:0:0:
273,168,40725,1,0,0:0:0:0:
357,223,40898,1,2,0:0:0:0:
442,230,41070,1,8,0:0:0:0:
112,291,41415,5,2,0:0:0:0:
122,202,41587,1,2,0:0:0:0:
193,170,41760,1,8,0:0:0:0:
301,166,41932,1,0,0:0:0:0:
193,170,42104,1,2,0:0:0:0:
279,231,42277,1,0,0:0:0:0:
367,291,42449,1,8,0:0:0:0:
279,231,42622,1,0,0:0:0:0:
103,116,42794,6,0,P|98:208|110:345,1,188,2|8,0:0|0:0,0:0:0:0:
261,313,43311,1,2,0:0:0:0:
89,300,43484,1,0,0:0:0:0:
20,231,43656,1,8,0:0:0:0:
89,161,43829,1,2,0:0:0:0:
172,105,44001,1,8,0:0:0:0:
423,49,44173,5,2,0:0:0:0:
311,111,44518,2,0,L|288:227,1,94,8|2,0:0|0:2,0:0:0:0:
192,241,44863,2,0,L|233:343,1,94,2|2,0:0|0:0,0:0:0:0:
417,348,45208,2,0,L|307:353,1,94,8|2,0:0|0:2,0:0:0:0:
148,339,45553,1,2,0:0:0:0:
262,242,45898,6,0,L|230:139,1,94,2|8,0:2|0:0,0:0:0:0:
118,127,46242,2,0,L|166:29,1,94,2|2,0:0|0:0,0:0:0:0:
342,61,46587,2,0,L|465:66,1,94,2|2,0:2|0:0,0:0:0:0:
259,103,46932,5,2,0:0:0:0:
337,149,47104,1,2,0:2:0:0:
392,192,47277,1,8,0:0:0:0:
337,149,47449,1,8,0:0:0:0:
251,98,47622,1,2,0:0:0:0:
259,33,47794,1,0,0:0:0:0:
344,24,47967,1,2,0:2:0:0:
419,19,48139,1,2,0:0:0:0:
170,111,48311,6,0,P|75:125|21:217,1,188,2|8,0:0|0:0,0:0:0:0:
78,292,48829,1,2,0:0:0:0:
168,232,49001,1,2,0:0:0:0:
218,185,49174,1,2,0:0:0:0:
168,232,49346,1,8,0:0:0:0:
78,292,49518,1,0,0:0:0:0:
328,308,49691,1,2,0:0:0:0:
226,219,50036,5,8,0:0:0:0:
403,193,50208,1,2,0:2:0:0:
484,113,50725,1,8,0:0:0:0:
307,78,50898,1,2,0:2:0:0:
484,113,51070,5,2,0:0:0:0:
481,182,51242,1,0,0:0:0:0:
300,250,51415,1,2,0:2:0:0:
209,252,51587,1,8,0:0:0:0:
298,323,52104,1,2,0:2:0:0:
373,338,52277,1,2,0:0:0:0:
194,218,52449,5,2,0:0:0:0:
182,131,52622,1,2,0:0:0:0:
258,87,52794,1,8,0:0:0:0:
351,83,52967,1,8,0:0:0:0:
265,35,53139,1,2,0:0:0:0:
116,116,53484,1,8,0:0:0:0:
189,120,53656,1,2,0:0:0:0:
443,132,53829,6,0,P|468:200|379:300,1,188,2|8,0:0|0:0,0:0:0:0:
299,298,54346,1,2,0:0:0:0:
228,230,54518,1,10,0:0:0:0:
301,168,54691,1,0,0:0:0:0:
388,112,54863,1,8,0:0:0:0:
295,40,55036,1,2,0:0:0:0:
44,43,55208,5,4,0:0:0:0:
118,226,57967,5,8,0:0:0:0:
118,226,58311,1,0,0:0:0:0:
306,315,58484,2,0,L|503:341,2,188,2|2|2,0:0|0:0|0:0,0:0:0:0:
110,226,59346,5,2,0:0:0:0:
268,130,59691,1,0,0:0:0:0:
89,84,59863,2,0,L|284:57,2,188,2|2|2,0:0|0:0|0:0,0:0:0:0:
268,130,60725,5,2,0:0:0:0:
157,211,61070,1,0,0:0:0:0:
344,291,61242,2,0,L|137:307,2,188,2|2|2,0:0|0:0|0:0,0:0:0:0:
102,248,62104,6,0,P|77:196|192:14,1,282,4|2,0:0|0:0,0:0:0:0:
362,59,62794,1,2,0:0:0:0:
361,124,62967,1,0,0:0:0:0:
305,164,63139,1,2,0:0:0:0:
226,166,63311,1,4,0:0:0:0:
472,260,63484,5,8,0:0:0:0:
321,256,64001,2,0,L|320:146,1,94,2|0,0:0|0:0,0:0:0:0:
409,118,64346,2,0,L|203:99,1,188,2|2,0:0|0:0,0:0:0:0:
405,30,64863,5,2,0:0:0:0:
278,70,65380,2,0,L|277:169,1,94,2|0,0:0|0:0,0:0:0:0:
201,214,65725,2,0,L|421:228,1,188,2|2,0:0|0:0,0:0:0:0:
203,318,66242,5,2,0:0:0:0:
312,248,66760,2,0,L|315:136,1,94,2|0,0:0|0:0,0:0:0:0:
228,111,67104,2,0,L|108:94,1,94,2|0,0:0|0:0,0:0:0:0:
37,79,67449,1,2,0:0:0:0:
283,60,67622,6,0,P|373:80|384:263,1,282,4|2,0:0|0:0,0:0:0:0:
214,264,68311,1,2,0:0:0:0:
218,347,68484,1,0,0:0:0:0:
300,350,68656,1,2,0:0:0:0:
376,347,68829,1,0,0:0:0:0:
133,341,69001,5,8,0:0:0:0:
267,185,69346,2,0,L|268:88,1,94,0|2,0:0|0:0,0:0:0:0:
87,121,69691,2,0,L|188:125,1,94,12|0,0:0|0:0,0:0:0:0:
259,196,70036,2,0,L|122:194,1,94,0|2,0:0|0:0,0:0:0:0:
342,291,70380,5,2,0:0:0:0:
256,237,70725,2,0,L|250:125,1,94,0|2,0:0|0:0,0:0:0:0:
432,122,71070,2,0,L|457:19,1,94,12|2,0:0|0:0,0:0:0:0:
378,23,71415,2,0,L|268:18,1,94,0|2,0:0|0:0,0:0:0:0:
97,33,71760,5,2,0:0:0:0:
198,95,72104,2,0,L|201:207,1,94,0|2,0:0|0:0,0:0:0:0:
21,217,72449,2,0,L|155:223,1,94,12|2,0:0|0:0,0:0:0:0:
26,277,72794,2,0,L|22:382,1,94,0|2,0:0|0:0,0:0:0:0:
210,346,73139,6,0,B|289:323|392:355|392:355|399:235,1,282,2|2,0:0|0:0,0:0:0:0:
215,118,73829,1,12,0:0:0:0:
154,191,74001,1,0,0:0:0:0:
181,308,74173,1,2,0:0:0:0:
292,335,74346,1,2,0:0:0:0:
45,296,74518,6,0,P|31:185|85:137,1,188,8|8,0:0|0:0,0:0:0:0:
166,122,75036,1,0,0:0:0:0:
355,100,75208,1,12,0:0:0:0:
351,169,75380,1,0,0:0:0:0:
300,213,75553,1,8,0:0:0:0:
223,214,75725,1,0,0:0:0:0:
411,274,75898,6,0,P|442:214|357:106,1,188,8|8,0:0|0:0,0:0:0:0:
303,90,76415,1,0,0:0:0:0:
120,94,76587,1,12,0:0:0:0:
126,189,76760,1,0,0:0:0:0:
203,233,76932,1,8,0:0:0:0:
287,241,77104,1,2,0:0:0:0:
125,328,77277,6,0,L|22:338,2,94,8|0|8,3:2|0:0|3:2,0:0:0:0:
314,318,77794,2,0,L|447:299,2,94,0|12|0,3:2|3:2|0:0,0:0:0:0:
123,193,78311,2,0,L|0:197,1,94,8|0,3:2|3:2,0:0:0:0:
282,51,78656,5,8,0:0:0:0:
217,101,79346,1,2,0:0:0:0:
217,187,79518,1,0,0:0:0:0:
323,248,79691,1,2,0:0:0:0:
218,299,79863,1,0,0:0:0:0:
472,345,80036,6,0,L|477:217,1,94,8|2,0:0|0:0,0:0:0:0:
306,132,80725,1,2,0:0:0:0:
402,116,81070,1,0,0:0:0:0:
214,188,81242,2,0,L|41:289,2,188,2|2|0,0:0|0:0|0:0,0:0:0:0:
408,178,82104,1,2,0:0:0:0:
259,163,82622,6,0,L|460:204,2,188,2|2|0,0:0|0:0|0:0,0:0:0:0:
62,191,83484,1,2,0:0:0:0:
157,137,83829,2,0,L|149:29,1,94,0|2,0:0|0:0,0:0:0:0:
360,73,84173,2,0,P|423:127|382:237,1,188,0|0,0:0|0:0,0:0:0:0:
313,272,84691,1,0,0:0:0:0:
103,327,84863,1,2,0:0:0:0:
82,270,85036,1,0,0:0:0:0:
120,191,85208,1,2,0:0:0:0:
42,153,85380,1,4,0:0:0:0:
231,194,85553,5,0,0:0:0:0:
269,192,85725,1,2,0:0:0:0:
131,112,86242,1,2,0:0:0:0:
273,39,86587,1,0,0:0:0:0:
273,39,86760,2,0,L|480:39,1,188,2|2,0:0|0:0,0:0:0:0:
281,107,87622,1,2,0:0:0:0:
453,182,87967,1,2,2:3:0:0:
132,287,88311,5,8,0:0:0:0:
83,179,88484,1,0,0:0:0:0:
145,91,88656,1,0,0:0:0:0:
252,63,88829,1,0,0:0:0:0:
349,56,89001,1,2,0:0:0:0:
255,32,89173,1,0,0:0:0:0:
350,92,89346,1,2,0:0:0:0:
376,186,89518,1,0,0:0:0:0:
125,267,89691,6,0,P|71:181|181:69,1,282,8|8,0:0|0:0,0:0:0:0:
358,267,90380,1,0,0:0:0:0:
362,170,90553,1,0,0:0:0:0:
274,113,90725,1,8,0:0:0:0:
174,90,90898,1,0,0:0:0:0:
435,54,91070,5,0,0:0:0:0:
435,54,91242,1,2,0:0:0:0:
245,170,91760,1,2,0:0:0:0:
435,54,92104,1,0,0:0:0:0:
435,54,92277,2,0,L|243:53,1,188,2|2,0:0|0:0,0:0:0:0:
128,128,92967,1,0,0:0:0:0:
323,213,93139,2,0,L|427:215,2,94,2|0|0,0:0|0:0|0:0,0:0:0:0:
131,296,93656,6,0,L|111:192,1,94,2|0,0:0|0:0,0:0:0:0:
200,165,94001,2,0,L|218:61,1,94,2|0,0:0|0:0,0:0:0:0:
125,17,94346,1,0,0:0:0:0:
312,61,94518,1,2,0:0:0:0:
200,128,94863,1,0,0:0:0:0:
200,128,95036,1,2,0:0:0:0:
384,233,95208,6,0,L|182:241,1,188,4|0,0:0|0:0,0:0:0:0:
196,240,95725,1,0,0:0:0:0:
385,301,95898,1,2,0:0:0:0:
457,230,96070,1,0,0:0:0:0:
383,158,96242,1,2,0:0:0:0:
295,120,96415,1,4,0:0:0:0:
45,190,96587,6,0,L|40:78,1,94,0|2,0:0|0:0,0:0:0:0:
203,124,97104,2,0,L|213:12,1,94,0|2,0:0|0:0,0:0:0:0:
112,33,97622,1,0,0:0:0:0:
298,162,97794,2,0,L|502:189,2,188,2|2|0,0:0|0:0|0:0,0:0:0:0:
111,274,98656,2,0,L|107:173,1,94,2|0,0:0|0:0,0:0:0:0:
298,119,99001,2,0,L|310:-4,1,94,2|0,2:3|0:0,0:0:0:0:
127,29,99346,5,8,0:0:0:0:
130,120,99518,1,0,0:0:0:0:
206,186,99691,1,0,0:0:0:0:
314,194,99863,1,0,0:0:0:0:
206,186,100036,1,2,0:0:0:0:
140,267,100208,1,0,0:0:0:0:
226,328,100380,1,2,0:0:0:0:
336,335,100553,1,0,0:0:0:0:
77,315,100725,6,0,L|72:197,1,94,8|0,0:0|0:0,0:0:0:0:
163,157,101070,1,0,0:0:0:0:
415,150,101242,2,0,L|428:35,1,94,8|0,0:0|0:0,0:0:0:0:
330,23,101587,1,0,0:0:0:0:
148,90,101760,2,0,L|151:206,1,94,10|0,0:0|0:0,0:0:0:0:
417,312,102104,5,2,0:0:0:0:
388,192,107622,6,0,P|444:140|384:64,1,188,2|0,0:0|0:0,0:0:0:0:
292,64,108139,1,0,0:0:0:0:
480,64,108311,2,0,L|488:160,1,94,2|2,0:0|0:0,0:0:0:0:
188,160,108829,6,0,L|192:356,1,188,0|2,0:0|0:0,0:0:0:0:
380,348,109518,2,0,L|192:348,1,188,4|2,0:0|0:0,0:0:0:0:
324,348,110208,1,2,0:0:0:0:
151,355,110380,6,0,L|147:255,1,94,2|0,0:0|0:0,0:0:0:0:
232,256,110725,2,0,L|332:256,1,94,0|0,0:0|0:0,0:0:0:0:
144,256,111070,2,0,L|48:256,1,94,2|2,0:0|2:0,0:0:0:0:
352,256,111587,6,0,L|420:192,2,94,2|2|0,2:0|0:0|0:0,0:0:0:0:
268,256,112104,1,0,0:0:0:0:
431,256,112277,1,4,0:0:0:0:
260,256,112449,2,0,L|252:152,1,94,0|0,0:0|0:0,0:0:0:0:
440,160,112794,2,0,L|336:160,1,94,0|4,0:0|0:0,0:0:0:0:
168,164,113139,6,0,L|164:64,1,94,2|0,0:0|0:0,0:0:0:0:
304,68,113656,1,0,0:0:0:0:
120,68,113829,2,0,L|24:68,1,94,0|2,0:0|0:0,0:0:0:0:
324,168,114346,6,0,L|136:196,1,188,2|0,0:0|0:0,0:0:0:0:
305,168,115036,1,4,0:0:0:0:
120,196,115380,2,0,L|308:168,1,188,2|2,0:0|0:0,0:0:0:0:
120,196,115898,6,0,L|124:92,1,94,0|0,0:0|0:0,0:0:0:0:
224,100,116242,2,0,L|312:36,1,94,0|0,0:0|0:0,0:0:0:0:
204,44,116587,1,2,0:0:0:0:
388,44,116760,2,0,L|392:144,1,94,0|0,0:0|0:0,0:0:0:0:
304,172,117104,1,0,0:0:0:0:
124,172,117277,6,0,P|64:248|116:308,1,188,4|0,0:0|0:0,0:0:0:0:
208,308,117794,1,2,0:0:0:0:
388,312,117967,2,0,L|304:272,1,94,2|0,0:0|0:0,0:0:0:0:
208,308,118311,2,0,L|292:268,1,94,2|0,0:0|0:0,0:0:0:0:
464,268,118656,6,0,L|468:172,1,94,2|0,0:0|0:0,0:0:0:0:
336,172,119173,1,0,0:0:0:0:
152,172,119346,2,0,L|56:172,1,94,8|0,0:0|0:0,0:0:0:0:
200,172,119863,1,4,0:0:0:0:
380,172,120036,6,0,B|476:172|476:172|476:80,1,188,2|0,0:0|0:0,0:0:0:0:
380,80,120553,1,0,0:0:0:0:
200,80,120725,2,0,L|304:80,1,94,8|0,0:0|0:0,0:0:0:0:
152,80,121242,1,0,0:0:0:0:
340,80,121415,6,0,P|396:152|340:212,1,188,4|0,0:0|0:0,0:0:0:0:
248,212,121932,1,0,0:0:0:0:
436,212,122104,1,8,0:0:0:0:
340,212,122277,2,0,L|152:192,1,188,0|0,0:0|0:0,0:0:0:0:
340,212,122794,6,0,B|436:212|436:212|436:312,1,188,4|0,0:0|0:0,0:0:0:0:
340,308,123311,1,0,0:0:0:0:
152,308,123484,2,0,L|148:204,1,94,8|0,0:0|0:0,0:0:0:0:
244,212,123829,1,2,0:0:0:0:
132,212,124001,1,0,0:0:0:0:
320,212,124173,6,0,L|416:192,1,94,4|0,0:0|0:0,0:0:0:0:
280,192,124691,1,0,0:0:0:0:
100,192,124863,1,8,0:0:0:0:
196,192,125036,2,0,B|292:192|292:192|292:100,1,188,0|0,0:0|0:0,0:0:0:0:
112,100,125553,5,4,0:0:0:0:
20,100,125725,2,0,B|20:200|20:200|108:200,1,188,0|0,0:0|0:0,0:0:0:0:
296,200,126242,1,8,0:0:0:0:
392,200,126415,1,0,0:0:0:0:
204,200,126760,1,0,0:0:0:0:
392,200,126932,6,0,P|448:144|392:68,1,188,4|0,0:0|0:0,0:0:0:0:
300,68,127449,1,0,0:0:0:0:
116,68,127622,2,0,L|112:168,1,94,8|0,0:0|0:0,0:0:0:0:
208,160,127967,2,0,L|216:280,1,94,0|0,0:0|0:0,0:0:0:0:
28,252,128311,6,0,B|28:348|28:348|120:348,1,188,4|0,0:0|0:0,0:0:0:0:
204,348,128829,1,8,0:0:0:0:
112,348,129001,1,0,0:0:0:0:
188,292,129173,1,8,0:0:0:0:
188,196,129346,1,0,0:0:0:0:
104,152,129518,1,2,0:0:0:0:
292,152,129691,5,8,0:0:0:0:
256,192,132449,5,0,0:0:0:0:
256,192,132622,12,0,136242,0:0:0:0:
384,192,136587,5,8,0:0:0:0:
256,192,136846,1,0,0:0:0:0:
128,192,137104,1,0,0:0:0:0:
316,192,137449,1,8,0:0:0:0:
128,192,137622,2,0,L|20:192,1,94,4|8,0:0|0:0,0:0:0:0:
300,192,137967,6,0,L|304:96,1,94,2|0,0:0|0:0,0:0:0:0:
124,96,138311,2,0,L|46:45,2,94,8|0|2,0:0|0:0|0:0,0:0:0:0:
220,96,138829,1,2,0:0:0:0:
44,96,139001,2,0,L|40:200,1,94,8|0,0:0|0:0,0:0:0:0:
136,192,139346,6,0,L|240:192,1,94,2|0,0:0|0:0,0:0:0:0:
408,192,139691,1,8,0:0:0:0:
488,153,139863,1,0,0:0:0:0:
487,64,140036,1,0,0:0:0:0:
405,27,140208,1,2,0:0:0:0:
228,28,140380,2,0,L|120:28,1,94,8|0,0:0|0:0,0:0:0:0:
248,28,140725,6,0,L|256:128,1,94,2|2,0:0|0:0,0:0:0:0:
72,120,141070,2,0,L|176:120,2,94,8|0|2,0:0|0:0|0:0,0:0:0:0:
176,120,141587,1,0,0:0:0:0:
360,120,141760,2,0,L|364:24,1,94,8|0,0:0|0:0,0:0:0:0:
100,28,142104,5,2,0:0:0:0:
92,132,142277,1,0,0:0:0:0:
280,192,142449,2,0,L|388:192,2,94,8|2|0,0:0|0:0|0:0,0:0:0:0:
108,192,142967,1,2,0:0:0:0:
288,192,143139,2,0,L|292:300,1,94,8|2,0:0|0:0,0:0:0:0:
92,192,143484,6,0,L|88:288,1,94,2|2,0:0|0:0,0:0:0:0:
272,288,143829,1,8,0:0:0:0:
272,196,144001,1,2,0:0:0:0:
180,196,144173,1,2,0:0:0:0:
284,196,144346,1,0,0:0:0:0:
104,196,144518,2,0,L|100:92,1,94,8|0,0:0|0:0,0:0:0:0:
204,100,144863,6,0,L|308:100,1,94,2|2,0:0|0:0,0:0:0:0:
120,100,145208,1,8,0:0:0:0:
212,100,145380,1,2,0:0:0:0:
308,100,145553,1,0,0:0:0:0:
204,100,145725,1,0,0:0:0:0:
384,100,145898,2,0,L|480:100,1,94,8|0,0:0|0:0,0:0:0:0:
376,100,146242,6,0,L|368:0,1,94,2|2,0:0|0:0,0:0:0:0:
188,8,146587,1,8,0:0:0:0:
184,112,146760,1,0,0:0:0:0:
248,192,146932,1,2,0:0:0:0:
352,192,147104,1,0,0:0:0:0:
168,192,147277,2,0,L|72:192,1,94,8|0,0:0|0:0,0:0:0:0:
336,292,147622,6,0,L|440:292,1,94,2|0,0:0|0:0,0:0:0:0:
252,292,147967,1,0,0:0:0:0:
160,292,148139,2,0,L|156:192,1,94,2|0,0:0|0:0,0:0:0:0:
336,200,148484,1,8,0:0:0:0:
244,200,148656,1,2,0:0:0:0:
348,200,148829,1,8,0:0:0:0:
88,200,149001,6,0,L|80:96,1,94,6|0,0:0|0:0,0:0:0:0:
268,104,149346,1,8,0:0:0:0:
360,104,149518,2,0,L|364:8,1,94,2|2,0:2|0:0,0:0:0:0:
269,9,149863,1,2,0:0:0:0:
454,34,150036,2,0,L|357:8,1,94,8|2,0:0|0:2,0:0:0:0:
269,9,150380,6,0,L|365:9,1,94,2|0,0:0|0:0,0:0:0:0:
184,8,150725,1,2,0:2:0:0:
88,8,150898,2,0,L|188:8,1,94,8|2,0:0|0:0,0:0:0:0:
276,8,151242,1,2,0:0:0:0:
96,8,151415,2,0,L|92:120,1,94,2|0,0:2|0:0,0:0:0:0:
188,104,151760,5,2,0:0:0:0:
84,104,151932,1,0,0:0:0:0:
268,104,152104,2,0,L|364:104,1,94,8|2,0:0|0:2,0:0:0:0:
364,200,152449,1,2,0:0:0:0:
260,200,152622,1,0,0:0:0:0:
444,200,152794,2,0,L|348:192,1,94,8|2,0:0|0:2,0:0:0:0:
92,192,153139,6,0,L|88:288,1,94,2|0,0:0|0:0,0:0:0:0:
272,284,153484,1,0,0:0:0:0:
180,284,153656,1,2,0:0:0:0:
84,284,153829,1,0,0:0:0:0:
196,284,154001,1,2,0:0:0:0:
16,284,154173,2,0,L|20:180,1,94,8|8,0:0|0:0,0:0:0:0:
208,285,154518,6,0,L|212:189,1,94,2|0,0:0|0:0,0:0:0:0:
400,192,154863,1,8,0:0:0:0:
304,192,155036,2,0,L|208:192,1,94,2|2,0:2|0:0,0:0:0:0:
312,192,155380,1,2,0:0:0:0:
132,192,155553,1,8,0:0:0:0:
40,192,155725,2,0,L|44:92,1,94,2|2,0:2|0:0,0:0:0:0:
140,100,156070,5,0,0:0:0:0:
328,100,156242,1,2,0:2:0:0:
234,100,156415,2,0,L|138:100,1,94,8|2,0:0|0:0,0:0:0:0:
244,100,156760,1,0,0:0:0:0:
64,100,156932,2,0,L|164:100,1,94,2|0,0:2|0:0,0:0:0:0:
416,100,157277,6,0,L|420:208,1,94,2|0,0:0|0:0,0:0:0:0:
240,196,157622,1,8,0:0:0:0:
136,196,157794,2,0,L|132:296,1,94,2|2,0:2|0:0,0:0:0:0:
236,288,158139,1,0,0:0:0:0:
56,292,158311,2,0,L|52:184,1,94,8|2,0:0|0:2,0:0:0:0:
316,192,158656,6,0,L|412:192,1,94,2|0,0:0|0:0,0:0:0:0:
220,192,159001,1,0,0:0:0:0:
128,192,159173,1,2,0:0:0:0:
128,288,159346,1,8,0:0:0:0:
232,288,159518,1,2,0:0:0:0:
412,288,159691,2,0,L|416:184,1,94,8|2,0:0|0:2,0:0:0:0:
128,192,160036,5,4,0:0:0:0:
256,192,160208,12,0,162449,0:0:0:0:
372,192,162794,6,0,L|376:96,1,94,8|0,0:0|0:0,0:0:0:0:
216,168,163311,2,0,L|212:72,1,94,0|0,0:0|0:0,0:0:0:0:
364,72,163829,1,0,0:0:0:0:
280,72,164001,6,0,L|120:172,1,188,0|0,0:0|0:0,0:0:0:0:
288,192,164691,2,0,L|192:252,1,94,0|0,0:0|0:0,0:0:0:0:
76,240,165208,1,0,0:0:0:0:
160,240,165380,6,0,L|344:192,1,188,0|0,0:0|0:0,0:0:0:0:
172,192,166070,2,0,L|76:192,1,94,0|0,0:0|0:0,0:0:0:0:
228,192,166587,1,0,0:0:0:0:
144,192,166760,6,0,L|332:192,1,188,0|0,0:0|0:0,0:0:0:0:
484,192,167449,1,0,0:0:0:0:
304,192,167622,2,0,L|300:96,1,94,0|0,0:0|0:0,0:0:0:0:
396,100,167967,1,0,0:0:0:0:
216,100,168139,1,0,0:0:0:0:
216,100,168311,5,0,0:0:0:0:
312,100,168484,1,2,0:0:0:0:
352,176,168656,1,0,0:0:0:0:
304,248,168829,1,0,0:0:0:0:
220,248,169001,2,0,P|170:186|216:100,1,188,4|0,0:0|0:0,0:0:0:0:
312,100,169518,6,0,L|124:100,1,188,2|2,0:0|0:0,0:0:0:0:
276,100,170208,2,0,L|164:100,1,94,0|4,0:0|0:0,0:0:0:0:
32,100,170725,1,0,0:0:0:0:
116,100,170898,6,0,L|280:192,1,188,2|2,0:0|0:0,0:0:0:0:
448,192,171587,2,0,L|444:292,1,94,0|4,0:0|0:0,0:0:0:0:
276,288,172104,1,0,0:0:0:0:
372,288,172277,6,0,L|376:192,1,94,2|0,0:0|0:0,0:0:0:0:
280,192,172622,1,2,0:0:0:0:
132,192,172967,1,0,0:0:0:0:
312,192,173139,2,0,L|208:192,1,94,2|0,0:0|0:0,0:0:0:0:
124,192,173484,2,0,L|220:192,1,94,2|0,0:0|0:0,0:0:0:0:
476,192,173829,5,8,0:0:0:0:
484,192,174001,1,2,0:0:0:0:
352,192,174346,1,0,0:0:0:0:
180,192,174518,2,0,L|176:96,1,94,8|0,0:0|0:0,0:0:0:0:
272,96,174863,1,0,0:0:0:0:
176,96,175036,6,0,L|342:0,1,188,4|0,0:0|0:0,0:0:0:0:
488,0,175725,1,2,0:0:0:0:
312,0,175898,2,0,L|216:0,1,94,8|0,0:0|0:0,0:0:0:0:
218,0,176242,1,0,0:0:0:0:
312,0,176415,6,0,L|320:188,1,188,4|2,0:0|0:0,0:0:0:0:
168,192,177104,1,0,0:0:0:0:
348,188,177277,2,0,L|444:192,2,94,8|0|0,0:0|0:0|0:0,0:0:0:0:
254,192,177794,6,0,L|442:192,1,188,2|0,0:0|0:0,0:0:0:0:
292,192,178484,1,2,0:0:0:0:
116,196,178656,1,8,0:0:0:0:
33,229,178829,1,2,0:0:0:0:
33,317,179001,1,0,0:0:0:0:
114,352,179173,1,2,0:0:0:0:
304,256,179346,6,0,L|308:352,1,94,4|0,0:0|0:0,0:0:0:0:
160,352,179863,1,0,0:0:0:0:
336,352,180036,2,0,L|340:256,1,94,8|0,0:0|0:0,0:0:0:0:
256,192,180380,1,0,0:0:0:0:
160,192,180553,6,0,L|352:192,1,188,4|0,0:0|0:0,0:0:0:0:
196,192,181242,1,2,0:0:0:0:
376,192,181415,2,0,L|472:192,1,94,0|2,0:0|0:0,0:0:0:0:
470,192,181760,1,0,0:0:0:0:
376,192,181932,6,0,L|176:192,1,188,4|2,0:0|0:0,0:0:0:0:
340,192,182622,1,0,0:0:0:0:
160,192,182794,2,0,L|156:96,1,94,8|0,0:0|0:0,0:0:0:0:
252,96,183139,1,0,0:0:0:0:
148,96,183311,6,0,P|80:52|144:0,1,188,2|0,0:0|0:0,0:0:0:0:
292,0,184001,1,2,0:0:0:0:
468,104,184173,2,0,L|372:104,1,94,8|2,0:0|0:0,0:0:0:0:
480,188,184518,2,0,L|368:188,1,94,0|2,0:0|0:0,0:0:0:0:
128,192,184863,6,0,L|124:4,1,188,8|2,0:0|0:0,0:0:0:0:
276,280,185553,2,0,L|284:80,1,188,2|2,0:0|0:0,0:0:0:0:
452,316,186242,6,0,L|440:120,1,188,2|2,0:0|0:0,0:0:0:0:
252,328,186932,2,0,L|260:132,1,188,2|2,0:0|0:0,0:0:0:0:
72,136,187622,5,2,0:0:0:0:
77,222,187794,1,0,0:0:0:0:
123,295,187966,1,2,0:0:0:0:
199,336,188139,1,0,0:0:0:0:
285,336,188311,1,2,0:0:0:0:
360,294,188484,1,0,0:0:0:0:
406,221,188656,1,2,0:0:0:0:
411,135,188828,1,0,0:0:0:0:
256,192,189001,12,0,193139,0:0:0:0:
