osu file format v14

[General]
AudioFilename: audio.mp3
AudioLeadIn: 0
PreviewTime: 107277
Countdown: 0
SampleSet: Soft
StackLeniency: 0.7
Mode: 2
LetterboxInBreaks: 0
WidescreenStoryboard: 1

[Editor]
Bookmarks: 33139,55208,80036,107622,132449,137967,160036,173829,184863
DistanceSpacing: 1.2
BeatDivisor: 4
GridSize: 4
TimelineZoom: 1.6

[Metadata]
Title:STARS ALIGN
TitleUnicode:STARS ALIGN
Artist:dark cat
ArtistUnicode:dark cat
Creator:wonjae
Version:Absolute Zero's Cup
Source:osu!
Tags:catstep electronic mappers guild featured artist paranoid grapes jbh jbhyperion absolute zero wildone94 benita
BeatmapID:2235757
BeatmapSetID:1055938

[Difficulty]
HPDrainRate:3
CircleSize:2.4
OverallDifficulty:6
ApproachRate:6
SliderMultiplier:1.3
SliderTickRate:1

[Events]
//Background and Video events
0,0,"blues.jpg",0,0
//Break Periods
2,27821,30710
2,102304,106572
2,132649,135537
2,160236,161744
//Storyboard Layer 0 (Background)
//Storyboard Layer 1 (Fail)
//Storyboard Layer 2 (Pass)
//Storyboard Layer 3 (Foreground)
//Storyboard Layer 4 (Overlay)
//Storyboard Sound Samples

[TimingPoints]
36,344.827586206897,4,2,1,5,1,0
4863,-100,4,2,1,45,0,0
5380,-100,4,2,1,45,0,0
5553,-100,4,2,1,100,0,0
10898,-100,4,2,77,80,0,0
11071,-100,4,2,1,100,0,0
16415,-100,4,2,77,80,0,0
16588,-100,4,2,1,100,0,0
17277,-100,4,2,2,100,0,0
17449,-100,4,2,1,100,0,0
18656,-100,4,2,2,100,0,0
18828,-100,4,2,1,100,0,0
18829,-100,4,2,1,100,0,0
20036,-100,4,2,2,100,0,0
20208,-100,4,2,1,100,0,0
21415,-100,4,2,2,100,0,0
21587,-100,4,2,1,100,0,0
22794,-100,4,2,2,100,0,0
22966,-100,4,2,1,100,0,0
24173,-100,4,2,2,100,0,0
24345,-100,4,2,1,100,0,0
25553,-100,4,2,2,100,0,0
25725,-100,4,2,1,100,0,0
26070,-100,4,2,77,80,0,0
26242,-100,4,2,1,100,0,0
26760,-100,4,2,2,85,0,0
26932,-100,4,2,1,85,0,0
27104,-100,4,2,2,70,0,0
27276,-100,4,2,1,70,0,0
27449,-100,4,2,2,55,0,0
27622,-100,4,2,1,55,0,0
30380,-100,4,2,1,25,0,0
30725,-100,4,2,1,30,0,0
31070,-100,4,2,1,35,0,0
31415,-100,4,2,1,40,0,0
31760,-100,4,2,2,75,0,0
32622,-100,4,3,3,100,0,0
32794,-100,4,3,0,85,0,0
32967,-100,4,3,0,70,0,0
33139,-100,4,3,3,100,0,0
54518,-100,4,3,3,80,0,0
54863,-100,4,3,3,80,0,0
55208,-100,4,2,2,100,0,0
57967,-100,4,2,1,80,0,0
62104,-100,4,2,77,80,0,0
62277,-100,4,2,1,80,0,0
62967,-100,4,2,1,60,0,0
63139,-100,4,2,1,80,0,0
63311,-100,4,2,77,80,0,0
63484,-100,4,2,1,80,0,0
64863,-100,4,2,1,85,0,0
66242,-100,4,2,1,90,0,0
67622,-100,4,2,77,95,0,0
67794,-100,4,2,1,95,0,0
68139,-100,4,2,1,95,0,0
68311,-100,4,2,1,85,0,0
68484,-100,4,2,1,65,0,0
68656,-100,4,2,1,80,0,0
68829,-100,4,2,1,60,0,0
69001,-100,4,2,1,80,0,0
69173,-100,4,2,4,80,0,0
74001,-100,4,2,4,60,0,0
74173,-100,4,2,4,80,0,0
74346,-100,4,2,4,100,0,0
74518,-100,4,2,1,80,0,0
74691,-100,4,2,4,80,0,0
75898,-100,4,2,1,80,0,0
76071,-100,4,2,4,80,0,0
77277,-100,4,2,1,80,0,0
77450,-100,4,2,4,80,0,0
78656,-100,4,2,1,80,0,0
79346,-100,4,2,1,60,0,0
80036,-100,4,2,1,80,0,0
84173,-100,4,2,1,80,0,0
84691,-100,4,2,1,80,0,0
85380,-100,4,2,77,80,0,0
85553,-100,4,2,1,80,0,0
87967,-100,4,2,0,80,0,0
88311,-100,4,2,1,80,0,0
89691,-100,4,2,1,100,0,0
90898,-100,4,2,77,80,0,0
91070,-100,4,2,1,80,0,0
95208,-100,4,2,77,80,0,0
95380,-100,4,2,1,80,0,0
95725,-100,4,2,1,80,0,0
96415,-100,4,2,77,80,0,0
96587,-100,4,2,1,80,0,0
100725,-100,4,2,1,100,0,0
101932,-100,4,2,1,80,0,0
109518,-100,4,2,77,80,0,0
109691,-100,4,2,1,80,0,0
112277,-100,4,2,77,80,0,0
112450,-100,4,2,1,80,0,0
112967,-100,4,2,77,80,0,0
113139,-100,4,2,1,80,0,0
115036,-100,4,2,77,80,0,0
115209,-100,4,2,1,80,0,0
117104,-100,4,2,1,60,0,0
117277,-100,4,2,77,80,0,0
117450,-100,4,2,1,80,0,0
117794,-100,4,2,1,80,0,0
119346,-100,4,2,2,80,0,0
119518,-100,4,2,1,80,0,0
119863,-100,4,2,77,80,0,0
120036,-100,4,2,1,80,0,0
120725,-100,4,2,2,80,0,0
120897,-100,4,2,1,80,0,0
121415,-100,4,2,77,80,0,0
121588,-100,4,2,1,80,0,0
122104,-100,4,2,2,80,0,0
122276,-100,4,2,1,80,0,0
122794,-100,4,2,77,80,0,0
122967,-100,4,2,1,80,0,0
123484,-100,4,2,2,80,0,0
123656,-100,4,2,1,80,0,0
124173,-100,4,2,77,80,0,0
124346,-100,4,2,1,80,0,0
124863,-100,4,2,2,80,0,0
125035,-100,4,2,1,80,0,0
125553,-100,4,2,77,80,0,0
125726,-100,4,2,1,80,0,0
126242,-100,4,2,2,80,0,0
126414,-100,4,2,1,80,0,0
126932,-100,4,2,77,80,0,0
127105,-100,4,2,1,80,0,0
127622,-100,4,2,2,80,0,0
127794,-100,4,2,1,80,0,0
128139,-100,4,2,1,60,0,0
128311,-100,4,2,77,80,0,0
128484,-100,4,2,1,80,0,0
129173,-100,4,2,2,80,0,0
129518,-100,4,2,2,65,0,0
129691,-100,4,2,1,45,0,0
132622,-100,4,2,1,5,0,0
133139,-100,4,2,1,10,0,0
133829,-100,4,2,1,15,0,0
134518,-100,4,2,1,20,0,0
135208,-100,4,2,1,25,0,0
135898,-100,4,2,1,30,0,0
136587,-100,4,2,2,75,0,0
137449,-100,4,3,3,100,0,0
137621,-100,4,3,0,85,0,0
137794,-100,4,3,0,70,0,0
137966,-100,4,3,3,100,0,0
159346,-100,4,3,3,100,0,0
159691,-100,4,3,3,100,0,0
160036,-100,4,2,2,100,0,0
160208,-100,4,2,1,50,0,0
160380,-100,4,2,1,45,0,0
160725,-100,4,2,1,40,0,0
161070,-100,4,2,1,35,0,0
161415,-100,4,2,1,30,0,0
161760,-100,4,2,1,25,0,0
162105,-100,4,2,1,20,0,0
162449,-100,4,2,1,15,0,0
162622,-100,4,2,0,5,0,0
162794,-100,4,2,1,80,0,0
168139,-100,4,2,77,80,0,0
168311,-100,4,2,1,80,0,0
169001,-100,4,2,77,80,0,0
169174,-100,4,2,1,80,0,0
170380,-100,4,2,77,80,0,0
170553,-100,4,2,1,80,0,0
171760,-100,4,2,77,80,0,0
171933,-100,4,2,1,80,0,0
174518,-100,4,2,2,80,0,0
174691,-100,4,2,1,80,0,0
175036,-100,4,2,77,80,0,0
175209,-100,4,2,1,80,0,0
175898,-100,4,2,2,80,0,0
176070,-100,4,2,1,80,0,0
176415,-100,4,2,77,80,0,0
176588,-100,4,2,1,80,0,0
177277,-100,4,2,2,80,0,0
177450,-100,4,2,1,80,0,0
177967,-100,4,2,77,80,0,0
178140,-100,4,2,1,80,0,0
178656,-100,4,2,2,80,0,0
178829,-100,4,2,1,80,0,0
179346,-100,4,2,77,80,0,0
179519,-100,4,2,1,80,0,0
180036,-100,4,2,2,80,0,0
180209,-100,4,2,1,80,0,0
180553,-100,4,2,77,80,0,0
180726,-100,4,2,1,80,0,0
181415,-100,4,2,2,80,0,0
181587,-100,4,2,1,80,0,0
181932,-100,4,2,77,80,0,0
182105,-100,4,2,1,80,0,0
182794,-100,4,2,2,80,0,0
182967,-100,4,2,1,80,0,0
183484,-100,4,2,77,80,0,0
183657,-100,4,2,1,80,0,0
184173,-100,4,2,2,80,0,0
184346,-100,4,2,1,80,0,0
184863,-100,4,2,2,80,0,0
185208,-100,4,2,1,80,0,0
187622,-100,4,2,1,80,0,0
187967,-100,4,2,1,75,0,0
188311,-100,4,2,1,70,0,0
188656,-100,4,2,1,65,0,0
189001,-100,4,2,1,60,0,0
189346,-100,4,2,1,55,0,0
189691,-100,4,2,1,50,0,0
190380,-100,4,2,1,50,0,0
190725,-100,4,2,1,45,0,0
191069,-100,4,2,1,40,0,0
191414,-100,4,2,1,35,0,0
191759,-100,4,2,1,30,0,0
192104,-100,4,2,1,25,0,0
192449,-100,4,2,1,20,0,0
192793,-100,4,2,1,15,0,0
193139,-100,4,2,1,10,0,0

[Colours]
Combo1 : 123,141,155
Combo2 : 0,128,255
Combo3 : 16,167,239
Combo4 : 0,0,136

[HitObjects]
297,229,4863,6,0,P|391:195|436:173,1,130,0|0,0:0|0:0,0:0:0:0:
346,156,5380,1,0,0:0:0:0:
262,153,5553,5,8,0:0:0:0:
16,159,6760,1,2,0:0:0:0:
16,159,6932,1,0,0:0:0:0:
167,162,7277,1,2,0:0:0:0:
354,165,7794,1,2,3:2:0:0:
167,162,8311,5,2,0:0:0:0:
440,170,9518,1,2,0:0:0:0:
440,170,9691,1,0,0:0:0:0:
289,173,10036,1,2,0:0:0:0:
440,170,10380,1,2,0:0:0:0:
365,82,10553,2,0,L|283:82,1,65,0|2,0:0|0:0,0:0:0:0:
141,79,11070,5,10,0:0:0:0:
415,74,12277,2,0,L|415:159,1,65,2|0,0:0|0:0,0:0:0:0:
272,135,12794,1,2,0:0:0:0:
81,141,13311,1,2,3:2:0:0:
272,135,13829,5,2,0:0:0:0:
60,83,15036,1,2,3:2:0:0:
60,83,15208,1,0,0:0:0:0:
201,168,15553,1,2,0:0:0:0:
337,314,15898,2,0,L|238:314,1,65,2|0,0:0|0:0,0:0:0:0:
205,314,16242,1,2,0:0:0:0:
56,314,16587,5,8,0:0:0:0:
295,309,17277,1,8,0:0:0:0:
126,313,17794,1,2,0:0:0:0:
295,309,18311,1,2,0:0:0:0:
460,309,18656,1,8,0:0:0:0:
460,309,18829,1,2,0:0:0:0:
239,181,19346,5,2,0:0:0:0:
0,171,20036,1,8,0:0:0:0:
164,171,20553,1,2,0:0:0:0:
0,171,21070,1,2,0:0:0:0:
144,275,21415,1,8,0:0:0:0:
202,274,21587,1,0,0:0:0:0:
261,275,21760,1,2,0:0:0:0:
320,275,21932,1,0,0:0:0:0:
402,276,22104,5,2,0:0:0:0:
164,59,22794,1,12,0:0:0:0:
324,55,23311,1,2,0:0:0:0:
164,59,23829,1,2,0:0:0:0:
11,60,24173,1,12,0:0:0:0:
82,58,24346,1,2,0:0:0:0:
300,58,24863,5,2,0:0:0:0:
61,141,25553,1,8,0:0:0:0:
225,141,26070,1,4,0:0:0:0:
390,142,26587,1,2,0:0:0:0:
248,245,26932,2,0,L|166:244,1,65,2|8,0:0|0:0,0:0:0:0:
251,147,27277,2,0,L|349:149,2,65,2|8|0,0:0|0:0|0:0,0:0:0:0:
366,236,31760,5,8,0:0:0:0:
103,232,32622,2,0,L|14:215,2,65,8|4|8,0:0|0:0|0:0,0:0:0:0:
190,228,33139,5,2,0:0:0:0:
340,228,33484,1,8,0:0:0:0:
190,228,33829,2,0,L|97:205,2,65,2|2|8,0:0|0:0|0:0,0:0:0:0:
353,226,34518,5,2,0:0:0:0:
502,228,34863,1,8,0:0:0:0:
353,226,35208,2,0,L|353:142,1,65,0|2,0:0|0:0,0:0:0:0:
423,161,35553,1,8,0:0:0:0:
267,160,35898,5,2,0:0:0:0:
118,158,36242,1,8,0:0:0:0:
267,160,36587,2,0,L|352:160,2,65,2|2|8,0:0|0:0|0:0,0:0:0:0:
109,160,37277,5,2,0:0:0:0:
258,161,37622,1,8,0:0:0:0:
109,160,37967,2,0,L|109:251,1,65,0|2,0:0|0:0,0:0:0:0:
194,227,38311,2,0,L|107:228,1,65,8|0,0:0|0:0,0:0:0:0:
51,225,38656,5,2,0:0:0:0:
200,317,39001,1,8,0:0:0:0:
349,322,39346,2,0,L|412:304,2,65,2|2|8,0:0|0:0|0:0,0:0:0:0:
186,316,40036,5,2,0:0:0:0:
37,315,40380,1,8,0:0:0:0:
186,316,40725,1,0,0:0:0:0:
186,316,40898,2,0,L|271:316,1,65,2|8,0:0|0:0,0:0:0:0:
409,319,41415,5,2,0:0:0:0:
259,316,41760,1,8,0:0:0:0:
409,319,42104,2,0,L|488:319,2,65,2|2|8,0:0|0:0|0:0,0:0:0:0:
251,256,42794,5,2,0:0:0:0:
101,244,43139,2,0,L|101:168,1,65,8|2,0:0|0:0,0:0:0:0:
250,242,43656,2,0,L|160:241,2,65,8|2|8,0:0|0:0|0:0,0:0:0:0:
341,243,44173,5,2,0:0:0:0:
192,240,44518,1,8,0:0:0:0:
43,237,44863,2,0,L|43:168,1,65,0|2,0:0|0:0,0:0:0:0:
121,174,45208,1,8,0:0:0:0:
283,177,45553,5,2,0:0:0:0:
135,173,45898,1,2,0:2:0:0:
284,68,46242,1,0,0:0:0:0:
355,61,46415,2,0,L|420:92,1,65,2|2,0:0|0:2,0:0:0:0:
247,188,46932,5,2,0:0:0:0:
98,188,47277,1,8,0:0:0:0:
247,188,47622,2,0,L|331:188,2,65,2|2|2,0:0|0:0|0:2,0:0:0:0:
83,336,48311,5,2,0:0:0:0:
232,334,48656,1,8,0:0:0:0:
382,338,49001,2,0,L|382:251,1,65,2|2,0:0|0:0,0:0:0:0:
301,201,49346,2,0,L|234:202,1,65,8|0,0:0|0:0,0:0:0:0:
318,202,49691,5,2,0:0:0:0:
467,206,50036,1,8,0:0:0:0:
318,202,50380,2,0,L|251:202,1,65,0|0,0:0|0:0,0:0:0:0:
188,201,50725,1,8,0:0:0:0:
39,200,51070,5,2,0:0:0:0:
188,201,51415,1,2,0:2:0:0:
337,200,51760,2,0,L|337:125,1,65,0|0,0:0|0:0,0:0:0:0:
259,136,52104,1,2,0:2:0:0:
96,131,52449,5,2,0:0:0:0:
245,236,52794,1,8,0:0:0:0:
96,236,53139,2,0,L|17:236,2,65,2|0|8,0:0|0:0|0:0,0:0:0:0:
259,237,53829,5,2,0:0:0:0:
110,242,54173,2,0,L|110:136,1,65,8|2,0:0|0:0,0:0:0:0:
259,176,54691,2,0,L|172:176,1,65,2|8,0:0|0:0,0:0:0:0:
276,178,55036,1,2,0:0:0:0:
363,178,55208,5,4,0:0:0:0:
97,190,57967,5,8,0:0:0:0:
290,193,58484,1,2,0:0:0:0:
161,198,58829,1,2,0:0:0:0:
290,193,59173,1,2,0:0:0:0:
290,193,59346,5,2,0:0:0:0:
485,192,59863,1,2,0:0:0:0:
356,194,60208,1,2,0:0:0:0:
485,192,60553,1,2,0:0:0:0:
485,192,60725,5,2,0:0:0:0:
291,192,61242,1,2,0:0:0:0:
426,193,61587,1,2,0:0:0:0:
288,307,61932,1,2,0:0:0:0:
217,303,62104,6,0,B|75:190|75:190|108:145,1,195,4|2,0:0|0:0,0:0:0:0:
219,183,62967,1,0,0:0:0:0:
82,179,63311,1,4,0:0:0:0:
82,179,63484,5,8,0:0:0:0:
277,182,64001,1,2,0:0:0:0:
141,182,64346,1,2,0:0:0:0:
277,182,64691,1,2,0:0:0:0:
277,182,64863,5,2,0:0:0:0:
471,184,65380,1,2,0:0:0:0:
335,187,65725,1,2,0:0:0:0:
199,189,66070,1,2,0:0:0:0:
199,189,66242,5,2,0:0:0:0:
394,193,66760,1,2,0:0:0:0:
261,193,67104,1,2,0:0:0:0:
394,193,67449,1,2,0:0:0:0:
466,82,67622,6,0,P|375:115|267:97,2,195,4|2|2,0:0|0:0|0:0,0:0:0:0:
306,67,69001,5,8,0:0:0:0:
112,73,69518,1,2,0:0:0:0:
29,75,69691,2,0,L|112:74,1,65,12|0,0:0|0:0,0:0:0:0:
231,79,70208,1,2,0:0:0:0:
231,79,70380,5,2,0:0:0:0:
426,99,70898,1,0,0:0:0:0:
339,97,71070,1,4,0:0:0:0:
339,97,71242,1,0,0:0:0:0:
182,90,71587,1,2,0:0:0:0:
182,90,71760,5,2,0:0:0:0:
379,179,72277,1,0,0:0:0:0:
296,136,72449,2,0,L|229:136,1,65,4|0,0:0|0:0,0:0:0:0:
80,135,72967,1,2,0:0:0:0:
165,252,73139,6,0,L|374:162,1,195,2|2,0:0|0:0,0:0:0:0:
428,148,73829,2,0,L|428:213,1,65,12|0,0:0|0:0,0:0:0:0:
278,101,74346,1,2,0:0:0:0:
192,103,74518,6,0,L|192:242,1,130,8|8,0:0|0:0,0:0:0:0:
34,231,75208,2,0,L|116:231,1,65,12|0,0:0|0:0,0:0:0:0:
249,231,75725,1,0,0:0:0:0:
249,231,75898,6,0,L|79:232,1,130,8|8,0:0|0:0,0:0:0:0:
276,123,76587,2,0,L|341:123,1,65,12|0,0:0|0:0,0:0:0:0:
209,126,77104,1,2,0:0:0:0:
135,128,77277,6,0,L|-31:137,1,130,8|8,3:2|3:2,0:0:0:0:
155,194,77967,1,0,0:0:0:0:
235,194,78139,1,0,3:2:0:0:
393,193,78484,1,0,3:2:0:0:
322,192,78656,5,8,0:0:0:0:
139,336,79518,2,0,L|307:337,1,130,0|0,0:0|0:0,0:0:0:0:
341,338,80036,5,8,0:0:0:0:
268,336,80208,1,0,0:0:0:0:
131,334,80553,2,0,L|132:243,1,65,0|0,0:0|0:0,0:0:0:0:
307,266,81242,5,0,0:0:0:0:
444,268,81587,1,0,0:0:0:0:
307,266,81932,2,0,L|386:266,1,65,0|0,0:0|0:0,0:0:0:0:
194,267,82622,5,0,0:0:0:0:
57,266,82967,1,0,0:0:0:0:
197,274,83311,2,0,L|197:177,1,65,0|0,0:0|0:0,0:0:0:0:
60,198,83829,5,0,0:0:0:0:
133,196,84001,1,0,0:0:0:0:
269,206,84346,2,0,P|370:203|447:185,1,130,0|0,0:0|0:0,0:0:0:0:
473,159,84863,1,2,0:0:0:0:
337,153,85208,1,2,0:0:0:0:
188,147,85553,6,0,L|275:146,1,65,0|2,0:0|0:0,0:0:0:0:
389,235,86070,2,0,L|317:235,1,65,0|2,0:0|0:0,0:0:0:0:
143,235,86760,5,2,0:0:0:0:
284,238,87104,1,2,0:0:0:0:
426,236,87449,2,0,L|426:167,1,65,0|2,0:0|0:0,0:0:0:0:
268,175,87967,6,0,L|99:175,1,130,2|8,2:3|0:0,0:0:0:0:
272,325,88656,2,0,B|361:326|350:198,1,130,0|2,0:0|0:0,0:0:0:0:
191,212,89346,1,2,0:0:0:0:
108,215,89518,1,0,0:0:0:0:
205,212,89691,6,0,L|436:212,2,195,8|8|8,0:0|0:0|0:0,0:0:0:0:
42,214,91070,5,0,0:0:0:0:
120,215,91242,1,2,0:0:0:0:
270,215,91587,2,0,L|271:306,1,65,0|2,0:0|0:0,0:0:0:0:
66,155,92277,5,2,0:0:0:0:
217,148,92622,1,2,0:0:0:0:
66,155,92967,2,0,L|139:129,1,65,0|2,0:0|0:0,0:0:0:0:
332,117,93656,5,2,0:0:0:0:
183,119,94001,1,2,0:0:0:0:
34,121,94346,2,0,L|34:211,1,65,0|2,0:0|0:0,0:0:0:0:
183,119,94863,1,0,0:0:0:0:
267,121,95036,6,0,B|339:186|339:186|280:234,1,130,2|0,0:0|0:0,0:0:0:0:
151,309,95725,2,0,L|223:309,1,65,0|2,0:0|0:0,0:0:0:0:
365,313,96242,1,2,0:0:0:0:
216,195,96587,6,0,L|109:195,1,65,0|2,0:0|0:0,0:0:0:0:
301,130,97104,2,0,L|301:217,1,65,0|2,0:0|0:0,0:0:0:0:
505,196,97794,5,2,0:0:0:0:
355,192,98139,1,2,0:0:0:0:
505,196,98484,2,0,L|423:196,1,65,0|2,0:0|0:0,0:0:0:0:
269,340,99001,6,0,B|184:341|184:341|241:310,1,130,2|8,2:3|0:0,0:0:0:0:
378,263,99691,2,0,L|237:198,1,130,2|2,0:0|0:0,0:0:0:0:
424,127,100380,2,0,L|501:127,1,65,2|0,0:0|0:0,0:0:0:0:
422,57,100725,6,0,L|188:57,2,195,8|8|10,0:0|0:0|0:0,0:0:0:0:
301,144,102104,1,2,0:0:0:0:
90,138,107622,5,2,0:0:0:0:
289,141,108139,2,0,L|429:108,1,130,2|2,0:0|0:0,0:0:0:0:
266,56,108829,1,2,0:0:0:0:
266,56,109001,5,0,0:0:0:0:
68,264,109518,2,0,L|238:245,1,130,4|2,0:0|0:0,0:0:0:0:
347,229,110208,1,2,0:0:0:0:
347,229,110380,5,0,0:0:0:0:
149,260,110898,2,0,L|330:323,1,130,0|2,0:0|0:0,0:0:0:0:
421,307,111587,1,0,0:0:0:0:
492,306,111760,5,2,0:0:0:0:
289,218,112277,1,4,0:0:0:0:
212,219,112449,2,0,L|134:219,1,65,2|0,0:0|0:0,0:0:0:0:
297,108,112967,1,4,0:0:0:0:
373,110,113139,5,2,0:0:0:0:
174,182,113656,1,0,0:0:0:0:
24,178,114001,1,2,0:0:0:0:
174,182,114346,1,2,0:0:0:0:
174,182,114518,5,0,0:0:0:0:
374,187,115036,2,0,L|199:187,1,130,4|2,0:0|0:0,0:0:0:0:
394,271,115725,1,2,0:0:0:0:
394,271,115898,5,0,0:0:0:0:
194,269,116415,2,0,L|333:252,1,130,0|2,0:0|0:0,0:0:0:0:
476,212,117104,1,0,0:0:0:0:
402,215,117277,6,0,L|173:144,1,195,4|2,0:0|0:0,0:0:0:0:
364,151,118139,1,0,0:0:0:0:
512,153,118484,1,0,0:0:0:0:
428,148,118656,5,2,0:0:0:0:
230,155,119173,1,2,0:0:0:0:
149,156,119346,2,0,L|233:156,1,65,8|0,0:0|0:0,0:0:0:0:
363,165,119863,1,4,0:0:0:0:
363,165,120036,5,0,0:0:0:0:
159,166,120553,1,2,0:0:0:0:
241,170,120725,2,0,L|315:161,1,65,0|0,0:0|0:0,0:0:0:0:
455,169,121242,1,0,0:0:0:0:
455,169,121415,5,4,0:0:0:0:
249,306,121932,1,0,0:0:0:0:
168,307,122104,2,0,L|168:220,1,65,8|0,0:0|0:0,0:0:0:0:
319,241,122622,1,0,0:0:0:0:
240,244,122794,6,0,L|37:150,1,195,4|0,0:0|0:0,0:0:0:0:
144,82,123484,2,0,L|228:82,1,65,8|0,0:0|0:0,0:0:0:0:
359,79,124001,1,0,0:0:0:0:
359,79,124173,5,4,0:0:0:0:
154,188,124691,1,0,0:0:0:0:
226,184,124863,2,0,L|293:184,1,65,8|0,0:0|0:0,0:0:0:0:
441,182,125380,1,0,0:0:0:0:
441,182,125553,5,4,0:0:0:0:
237,318,126070,1,2,0:0:0:0:
319,319,126242,2,0,L|319:225,1,65,0|0,0:0|0:0,0:0:0:0:
172,201,126760,1,0,0:0:0:0:
96,201,126932,5,4,0:0:0:0:
300,205,127449,1,0,0:0:0:0:
382,204,127622,2,0,L|382:122,1,65,8|0,0:0|0:0,0:0:0:0:
246,128,128139,1,0,0:0:0:0:
159,133,128311,6,0,B|39:198|39:198|137:219,1,195,4|8,0:0|0:0,0:0:0:0:
246,212,129173,1,8,0:0:0:0:
96,210,129518,1,2,0:0:0:0:
171,209,129691,5,8,0:0:0:0:
347,210,130380,1,0,0:0:0:0:
480,210,131070,1,0,0:0:0:0:
392,210,131760,1,0,0:0:0:0:
281,210,132449,1,8,0:0:0:0:
106,217,136587,5,8,0:0:0:0:
368,210,137449,2,0,L|437:210,2,65,8|4|8,0:0|0:0|0:0,0:0:0:0:
280,212,137967,5,2,0:0:0:0:
131,218,138311,1,8,0:0:0:0:
280,212,138656,2,0,L|280:144,1,65,2|2,0:0|0:0,0:0:0:0:
363,147,139001,1,8,0:0:0:0:
201,151,139346,5,2,0:0:0:0:
52,156,139691,1,8,0:0:0:0:
201,53,140036,1,0,0:0:0:0:
120,56,140208,2,0,L|35:81,1,65,2|8,0:0|0:0,0:0:0:0:
220,175,140725,5,2,0:0:0:0:
370,175,141070,1,8,0:0:0:0:
220,175,141415,2,0,L|220:89,1,65,2|2,0:0|0:0,0:0:0:0:
302,111,141760,1,8,0:0:0:0:
140,108,142104,5,2,0:0:0:0:
290,106,142449,1,8,0:0:0:0:
439,104,142794,2,0,L|368:104,1,65,0|2,0:0|0:0,0:0:0:0:
303,193,143139,2,0,L|385:193,1,65,8|2,0:0|0:0,0:0:0:0:
443,190,143484,5,2,0:0:0:0:
293,192,143829,1,8,0:0:0:0:
144,192,144173,2,0,L|68:192,2,65,2|2|8,0:0|0:0|0:0,0:0:0:0:
307,108,144863,5,2,0:0:0:0:
157,106,145208,1,8,0:0:0:0:
307,108,145553,1,0,0:0:0:0:
390,108,145725,2,0,L|469:108,1,65,2|8,0:0|0:0,0:0:0:0:
305,273,146242,5,2,0:0:0:0:
156,278,146587,1,8,0:0:0:0:
305,273,146932,1,2,0:0:0:0:
386,276,147104,2,0,L|314:275,1,65,2|8,0:0|0:0,0:0:0:0:
157,203,147622,5,2,0:0:0:0:
307,213,147967,2,0,L|307:132,1,65,8|2,0:0|0:0,0:0:0:0:
158,106,148484,2,0,L|158:194,1,65,8|2,0:0|0:0,0:0:0:0:
76,174,148829,1,8,0:0:0:0:
158,171,149001,5,6,0:0:0:0:
308,171,149346,1,8,0:0:0:0:
158,171,149691,1,2,0:0:0:0:
76,174,149863,2,0,L|76:91,1,65,2|8,0:0|0:0,0:0:0:0:
239,109,150380,5,2,0:0:0:0:
387,112,150725,1,2,0:2:0:0:
239,109,151070,2,0,L|152:109,2,65,2|2|2,0:0|0:0|0:2,0:0:0:0:
402,210,151760,5,2,0:0:0:0:
253,210,152104,1,8,0:0:0:0:
104,210,152449,1,2,0:0:0:0:
168,213,152622,2,0,L|265:214,1,65,2|8,0:0|0:0,0:0:0:0:
412,211,153139,5,2,0:0:0:0:
263,215,153484,1,8,0:0:0:0:
114,215,153829,2,0,L|198:215,1,65,0|2,0:0|0:0,0:0:0:0:
253,104,154173,2,0,L|173:103,1,65,8|8,0:0|0:0,0:0:0:0:
120,105,154518,5,2,0:0:0:0:
269,99,154863,1,8,0:0:0:0:
416,102,155208,2,0,L|499:102,2,65,2|2|8,0:0|0:0|0:0,0:0:0:0:
253,153,155898,5,2,0:0:0:0:
402,158,156242,1,2,0:2:0:0:
253,153,156587,1,2,0:0:0:0:
170,153,156760,2,0,L|281:153,1,65,2|2,0:0|0:2,0:0:0:0:
402,158,157277,5,2,0:0:0:0:
264,218,157622,1,8,0:0:0:0:
114,158,157967,1,2,0:0:0:0:
185,157,158139,2,0,L|292:135,1,65,2|8,0:0|0:0,0:0:0:0:
421,135,158656,5,2,0:0:0:0:
271,138,159001,2,0,L|186:138,1,65,8|2,0:0|0:0,0:0:0:0:
57,137,159518,1,2,0:0:0:0:
139,239,159691,2,0,L|243:237,1,65,8|2,0:0|0:2,0:0:0:0:
126,238,160036,5,4,0:0:0:0:
291,245,162794,5,8,0:0:0:0:
371,246,162967,1,2,0:0:0:0:
222,95,163311,1,0,0:0:0:0:
142,95,163484,1,2,0:0:0:0:
336,244,164001,5,2,0:0:0:0:
486,247,164346,1,2,0:0:0:0:
336,244,164691,2,0,L|246:244,1,65,0|2,0:0|0:0,0:0:0:0:
72,243,165380,5,2,0:0:0:0:
221,244,165725,1,2,0:0:0:0:
371,254,166070,1,0,0:0:0:0:
446,254,166242,1,2,0:0:0:0:
286,148,166587,1,0,0:0:0:0:
204,145,166760,6,0,L|32:146,1,130,2|2,0:0|0:0,0:0:0:0:
224,241,167449,2,0,L|294:241,1,65,0|2,0:0|0:0,0:0:0:0:
439,237,167967,1,2,0:0:0:0:
290,154,168311,5,0,0:0:0:0:
370,154,168484,1,2,0:0:0:0:
220,274,168829,1,0,0:0:0:0:
142,276,169001,1,4,0:0:0:0:
338,276,169518,5,2,0:0:0:0:
488,279,169863,1,2,0:0:0:0:
338,276,170208,2,0,L|264:274,1,65,0|4,0:0|0:0,0:0:0:0:
80,148,170898,5,2,0:0:0:0:
229,152,171242,1,2,0:0:0:0:
378,158,171587,2,0,L|463:158,1,65,0|4,0:0|0:0,0:0:0:0:
249,279,172277,5,2,0:0:0:0:
100,276,172622,1,2,0:0:0:0:
296,284,173139,2,0,L|474:289,1,130,2|2,0:0|0:0,0:0:0:0:
504,288,173656,1,0,0:0:0:0:
418,208,173829,6,0,L|319:208,1,65,8|2,0:0|0:0,0:0:0:0:
145,140,174518,2,0,L|145:238,1,65,8|0,0:0|0:0,0:0:0:0:
295,207,175036,1,4,0:0:0:0:
145,205,175380,5,2,0:0:0:0:
0,206,175725,1,2,0:0:0:0:
74,206,175898,1,8,0:0:0:0:
145,205,176070,1,2,0:0:0:0:
295,205,176415,1,4,0:0:0:0:
219,205,176587,6,0,L|219:102,1,65,0|2,0:0|0:0,0:0:0:0:
436,142,177277,2,0,L|364:142,1,65,8|2,0:0|0:0,0:0:0:0:
222,239,177794,2,0,L|387:239,1,130,2|0,0:0|0:0,0:0:0:0:
202,159,178484,2,0,L|87:159,2,65,2|8|2,0:0|0:0|0:0,0:0:0:0:
352,160,179173,1,2,0:0:0:0:
352,160,179346,6,0,L|253:160,1,65,4|0,0:0|0:0,0:0:0:0:
495,158,180035,2,0,L|495:236,1,65,8|0,0:0|0:0,0:0:0:0:
345,215,180553,1,4,0:0:0:0:
495,223,180897,5,0,0:0:0:0:
345,215,181242,1,2,0:0:0:0:
270,213,181415,1,8,0:0:0:0:
195,212,181587,1,2,0:0:0:0:
46,208,181932,1,4,0:0:0:0:
120,43,182104,6,0,L|215:43,1,65,0|2,0:0|0:0,0:0:0:0:
409,53,182794,2,0,L|409:157,1,65,8|0,0:0|0:0,0:0:0:0:
259,207,183311,6,0,L|437:208,1,130,2|0,0:0|0:0,0:0:0:0:
239,52,184001,2,0,L|129:52,1,65,2|8,0:0|0:0,0:0:0:0:
256,125,184346,1,2,0:0:0:0:
407,125,184690,1,2,0:0:0:0:
330,126,184863,6,0,L|330:287,3,130,8|0|2|2,0:0|0:0|0:0|0:0,0:0:0:0:
207,253,186242,6,0,L|206:119,3,130,2|2|2|2,0:0|0:0|0:0|0:0,0:0:0:0:
256,192,187622,12,0,193139,0:0:0:0:
