osu file format v14

[General]
AudioFilename: audio.mp3
AudioLeadIn: 0
PreviewTime: 33139
Countdown: 1
SampleSet: Normal
StackLeniency: 0.4
Mode: 0
LetterboxInBreaks: 0
WidescreenStoryboard: 1

[Editor]
Bookmarks: 21070,55208,89691,119346,129691,137967,160036,162794,173829,184863
DistanceSpacing: 1.3
BeatDivisor: 4
GridSize: 8
TimelineZoom: 1.6

[Metadata]
Title:STARS ALIGN
TitleUnicode:STARS ALIGN
Artist:dark cat
ArtistUnicode:dark cat
Creator:meguziiz
Version:Extra
Source:
Tags:
BeatmapID:1912349
BeatmapSetID:911167

[Difficulty]
HPDrainRate:5.1
CircleSize:4.2
OverallDifficulty:9
ApproachRate:9.5
SliderMultiplier:1.25
SliderTickRate:1

[Events]
//Background and Video events
0,0,"bek grond.jpg",0,0
//Break Periods
2,55408,57442
2,80236,87442
2,91269,98476
2,102304,107097
2,160236,162269
//Storyboard Layer 0 (Background)
//Storyboard Layer 1 (Fail)
//Storyboard Layer 2 (Pass)
//Storyboard Layer 3 (Foreground)
//Storyboard Sound Samples

[TimingPoints]
36,344.827586206897,4,1,1,100,1,0
2967,-200,4,1,1,50,0,0
6760,-133.333333333333,4,1,1,50,0,0
9518,-133.333333333333,4,1,1,50,0,0
12277,-200,4,1,1,50,0,0
20553,-133.333333333333,4,1,1,50,0,0
27622,-1000,4,1,1,100,0,0
27643,-1000,4,1,1,11,0,0
31760,-133.333333333333,4,1,1,100,0,0
33139,-80,4,1,1,100,0,1
51932,-100,4,1,1,100,0,1
55036,-333.333333333333,4,1,1,100,0,1
55208,-333.333333333333,4,1,1,100,0,0
57967,-333.333333333333,4,1,1,100,0,0
58311,-333.333333333333,4,1,1,15,0,0
59346,-100,4,1,1,15,0,0
61070,-66.6666666666667,4,1,1,15,0,0
63484,-133.333333333333,4,1,1,100,0,1
63570,-66.6666666666667,4,1,1,100,0,0
63656,-66.6666666666667,4,1,1,15,0,0
63829,-80,4,1,1,15,0,0
69001,-80,4,1,1,70,0,0
69518,-80,4,1,1,35,0,0
74518,-80,4,1,1,70,0,0
74691,-80,4,1,1,35,0,0
78656,-80,4,1,1,100,0,0
79346,-80,4,1,1,23,0,0
79691,-80,4,1,1,40,0,0
80036,-80,4,1,1,100,0,0
89691,-400,4,1,1,48,0,0
90208,-285.714285714286,4,1,1,76,0,0
90725,-200,4,1,1,100,0,0
99001,-1000,4,1,1,100,0,0
107622,-100,4,1,1,45,0,0
111242,-80,4,1,1,45,0,0
114001,-66.6666666666667,4,1,1,45,0,0
114346,-80,4,1,1,45,0,0
129691,-80,4,1,1,18,0,0
130898,-80,4,1,1,7,0,0
131932,-80,4,1,1,5,0,0
132449,-1000,4,1,1,78,0,0
132536,-1000,4,1,1,54,0,0
134001,-1000,4,1,1,37,0,0
135380,-1000,4,1,1,5,0,0
136587,-1000,4,1,1,75,0,0
137967,-100,4,1,1,100,0,1
143484,-166.666666666667,4,1,1,100,0,1
146415,-100,4,1,1,100,0,1
151242,-74.0740740740741,4,1,1,100,0,1
151415,-100,4,1,1,100,0,1
160036,-100,4,1,1,100,0,0
162794,-333.333333333333,4,2,1,34,0,0
165725,-200,4,2,1,34,0,0
166760,-142.857142857143,4,2,1,34,0,0
171415,-500.000000000003,4,2,1,34,0,0
173484,-166.666666666667,4,2,1,34,0,0
173829,-80,4,1,1,56,0,0
179691,-66.6666666666667,4,1,1,56,0,0
180725,-200,4,1,1,56,0,0

[HitObjects]
69,53,2967,6,0,B|208:91|208:91|118:222|118:222|284:246,1,468.75,0|2,0:0|2:0,0:0:0:0:
140,56,6760,6,0,L|138:154,1,93.7500035762788,8|0,0:0|0:0,0:0:0:0:
234,76,7277,2,0,L|248:187,1,93.7500035762788,8|0,0:0|0:0,0:0:0:0:
336,115,7794,2,0,B|330:155|330:155|320:208,1,93.7500035762788,8|0,0:0|0:0,0:0:0:0:
423,64,8311,2,0,L|441:167,1,93.7500035762788,8|0,0:0|0:0,0:0:0:0:
210,73,9518,6,0,P|230:101|211:91,1,93.7500035762788,8|0,0:0|0:0,0:0:0:0:
126,133,10036,6,0,P|106:161|125:151,1,93.7500035762788,8|0,0:0|0:0,0:0:0:0:
131,248,10553,5,8,0:0:0:0:
236,183,10725,1,0,0:0:0:0:
258,276,10898,5,0,0:0:0:0:
236,108,11070,1,2,2:0:0:0:
72,84,12277,6,0,B|46:78|86:100|125:101,1,62.5,8|0,0:0|0:0,0:0:0:0:
245,145,12794,2,0,B|282:152|194:171|195:171,1,62.5,8|0,0:0|0:0,0:0:0:0:
47,222,13311,6,0,B|21:216|61:238|100:239,1,62.5,8|0,0:0|0:0,0:0:0:0:
220,283,13828,2,0,B|257:290|169:309|170:309,1,62.5,8|0,0:0|0:0,0:0:0:0:
81,107,15036,6,0,B|112:118|112:118|145:112,1,62.5,8|0,0:0|0:0,0:0:0:0:
214,65,15553,2,0,B|253:68|253:68|287:65,1,62.5,8|0,0:0|0:0,0:0:0:0:
374,91,16070,2,0,B|375:133|375:133|366:159,1,62.5,8|0,0:0|0:0,0:0:0:0:
299,190,16587,1,2,2:0:0:0:
245,162,17277,5,8,2:0:0:0:
112,82,17794,6,0,L|113:150,1,62.5,8|0,0:0|0:0,0:0:0:0:
182,36,18311,2,0,L|182:108,1,62.5,8|8,0:0|2:0,0:0:0:0:
262,79,18829,2,0,P|291:99|324:104,1,62.5,8|0,0:0|0:0,0:0:0:0:
396,56,19346,1,0,0:0:0:0:
138,141,20036,5,8,2:0:0:0:
277,137,20553,6,0,L|276:243,1,93.7500035762788,8|0,0:0|0:0,0:0:0:0:
194,108,21070,2,0,P|231:65|281:66,1,93.7500035762788,8|8,0:0|2:0,0:0:0:0:
366,126,21587,2,0,B|363:162|363:162|354:184,2,46.8750017881394,8|0|0,0:0|0:0|0:0,0:0:0:0:
375,50,22104,5,8,0:0:0:0:
218,160,22794,5,8,2:0:0:0:
391,137,23311,6,0,P|389:168|356:233,1,93.7500035762788,0|0,3:0|0:0,0:0:0:0:
431,303,23829,2,0,P|389:309|323:297,1,93.7500035762788,2|8,3:0|2:0,0:0:0:0:
121,208,24346,2,0,P|158:191|226:193,1,93.7500035762788,8|0,0:0|0:0,0:0:0:0:
298,228,24863,1,0,0:0:0:0:
94,112,25553,5,0,2:0:0:0:
261,61,25725,1,0,0:0:0:0:
156,198,25898,1,0,0:0:0:0:
206,14,26070,1,0,0:0:0:0:
255,249,26242,5,0,0:0:0:0:
131,46,26415,1,0,0:0:0:0:
49,191,26587,1,0,0:0:0:0:
256,105,26760,1,8,2:0:0:0:
164,222,26932,5,0,0:0:0:0:
213,32,27104,1,8,2:0:0:0:
299,185,27277,5,0,0:0:0:0:
81,96,27449,1,8,2:0:0:0:
87,227,27622,6,0,P|97:257|102:267,1,43.75,8|0,0:0|0:0,0:0:0:0:
141,127,29001,6,0,P|151:144|161:168,1,43.75
311,166,30380,6,0,P|302:181|278:190,1,43.75
211,110,31760,1,2,0:0:0:0:
168,74,32622,5,8,0:0:0:0:
279,246,32794,1,8,0:0:0:0:
328,50,32967,1,8,0:0:0:0:
199,170,33139,6,0,B|166:193|166:193|132:242,1,78.125,2|0,0:0|0:0,0:0:0:0:
47,210,33484,2,0,P|56:258|88:295,1,78.125,8|0,0:0|0:0,0:0:0:0:
120,179,33829,2,0,P|126:113|101:75,1,78.125
197,21,34173,2,0,P|236:46|259:99,1,78.125,8|0,0:0|0:0,0:0:0:0:
189,214,34518,2,0,P|212:255|263:273,1,78.125
259,144,34863,5,8,0:0:0:0:
85,109,35036,1,0,0:0:0:0:
110,218,35208,2,0,B|127:267|129:268|181:290,1,78.125
216,215,35553,5,8,0:0:0:0:
175,97,35725,1,0,0:0:0:0:
316,189,35898,5,0,0:0:0:0:
252,64,36070,1,0,0:0:0:0:
189,167,36242,2,0,P|161:198|154:258,1,78.125,8|0,0:0|0:0,0:0:0:0:
255,226,36587,2,0,P|277:173|271:128,1,78.125
339,47,36932,2,0,P|374:71|391:123,1,78.125,8|0,0:0|0:0,0:0:0:0:
476,56,37277,2,0,P|483:96|471:146,1,78.125
314,143,37622,5,8,0:0:0:0:
429,244,37794,1,0,0:0:0:0:
246,67,37967,5,0,0:0:0:0:
141,213,38139,1,0,0:0:0:0:
133,35,38311,5,8,0:0:0:0:
217,255,38484,1,0,0:0:0:0:
286,163,38656,2,0,P|328:152|383:169,1,78.125
271,263,39001,2,0,P|233:236|203:178,1,78.125,8|0,0:0|0:0,0:0:0:0:
336,70,39346,2,0,L|243:70,1,78.125
304,154,39691,2,0,L|403:162,1,78.125,8|0,0:0|0:0,0:0:0:0:
171,60,40036,6,0,L|172:152,1,78.125
86,26,40380,2,0,L|87:127,1,78.125,8|0,0:0|0:0,0:0:0:0:
6,36,40725,5,0,0:0:0:0:
177,32,40898,1,0,0:0:0:0:
41,175,41070,5,8,0:0:0:0:
112,23,41242,1,0,0:0:0:0:
168,194,41415,5,0,0:0:0:0:
63,14,41587,1,0,0:0:0:0:
26,115,41760,1,8,0:0:0:0:
190,107,41932,1,0,0:0:0:0:
302,98,42104,6,0,L|294:208,1,78.125
217,48,42449,1,8,0:0:0:0:
287,252,42622,1,0,0:0:0:0:
400,91,42794,1,0,0:0:0:0:
295,145,42967,6,0,L|291:238,1,78.125,0|8,0:0|0:0,0:0:0:0:
201,82,43311,2,0,L|200:169,1,78.125
113,55,43656,2,0,P|144:21|192:6,1,78.125,8|0,0:0|0:0,0:0:0:0:
274,32,44001,5,8,0:0:0:0:
281,158,44173,1,2,0:0:0:0:
413,82,44346,2,0,L|414:193,1,78.125,0|8,0:0|0:0,0:0:0:0:
484,231,44691,2,0,P|451:261|401:270,1,78.125
338,193,45036,6,0,P|290:161|236:161,1,78.125,0|8,0:0|0:0,0:0:0:0:
108,250,45380,2,0,P|145:278|206:268,1,78.125
168,66,45725,2,0,P|186:112|208:129,1,78.125,0|8,0:0|0:0,0:0:0:0:
276,76,46070,2,0,P|308:101|350:109,1,78.125
405,60,46415,5,0,0:0:0:0:
406,184,46587,1,8,0:0:0:0:
485,100,46760,1,0,0:0:0:0:
334,112,46932,1,0,0:0:0:0:
331,204,47104,5,0,0:0:0:0:
364,30,47277,1,8,0:0:0:0:
428,148,47449,5,0,0:0:0:0:
237,94,47622,1,0,0:0:0:0:
425,68,47794,5,0,0:0:0:0:
246,179,47967,1,8,0:0:0:0:
344,282,48139,6,0,L|344:181,1,78.125
258,251,48484,2,0,L|257:147,1,78.125,0|8,0:0|0:0,0:0:0:0:
160,158,48829,2,0,P|166:113|206:80,1,78.125
241,13,49173,2,0,P|282:38|293:81,1,78.125,0|8,0:0|0:0,0:0:0:0:
376,89,49518,2,0,P|366:127|331:170,1,78.125
265,143,49863,5,0,0:0:0:0:
116,159,50036,1,8,0:0:0:0:
240,80,50208,5,0,0:0:0:0:
146,246,50380,1,0,0:0:0:0:
116,96,50553,5,0,0:0:0:0:
271,232,50725,1,8,0:0:0:0:
339,145,50898,2,0,L|339:49,1,78.125
244,122,51242,6,0,L|244:214,1,78.125,0|8,0:0|0:0,0:0:0:0:
134,231,51587,2,0,P|188:279|224:283,1,78.125
181,57,51932,2,0,P|114:65|98:75,1,62.5,0|8,0:0|0:0,0:0:0:0:
166,157,52277,5,0,0:0:0:0:
276,35,52449,1,0,0:0:0:0:
226,200,52622,5,0,0:0:0:0:
348,82,52794,1,8,0:0:0:0:
136,94,52967,5,0,0:0:0:0:
358,148,53139,1,0,0:0:0:0:
188,53,53311,5,0,0:0:0:0:
323,201,53484,1,8,0:0:0:0:
116,232,53656,5,0,0:0:0:0:
198,153,53829,1,0,0:0:0:0:
207,270,54001,1,0,0:0:0:0:
112,143,54173,1,8,0:0:0:0:
252,197,54346,1,0,0:0:0:0:
151,293,54518,5,8,0:0:0:0:
212,112,54691,1,0,0:0:0:0:
348,139,54863,2,0,P|360:178|353:218,1,62.5,8|0,0:0|0:0,0:0:0:0:
290,260,55208,1,2,2:0:0:0:
190,86,57967,6,0,L|190:126,1,37.4999988555909,2|0,0:0|0:0,0:0:0:0:
270,139,58484,2,0,L|271:180,1,37.4999988555909
367,158,59001,5,0,0:0:0:0:
296,303,59173,1,0,0:0:0:0:
314,78,59346,1,0,0:0:0:0:
166,217,59518,1,0,0:0:0:0:
408,129,59691,1,0,0:0:0:0:
342,152,59863,6,0,P|308:143|272:147,1,62.5
283,303,60208,2,0,P|265:262|235:241,1,62.5
126,172,60553,2,0,P|163:186|192:183,1,62.5
239,98,60898,5,0,0:0:0:0:
259,209,61070,1,0,0:0:0:0:
319,82,61242,5,0,0:0:0:0:
343,206,61415,1,0,0:0:0:0:
192,93,61587,5,0,0:0:0:0:
204,222,61760,1,0,0:0:0:0:
277,46,61932,1,0,0:0:0:0:
139,161,62104,1,0,0:0:0:0:
338,134,62277,1,0,0:0:0:0:
314,240,62449,2,0,P|286:279|221:302,1,93.7500035762788
224,173,62794,6,0,L|224:126,1,46.8750017881394
275,84,62967,2,0,L|276:148,1,46.8750017881394
331,177,63139,2,0,L|330:125,1,46.8750017881394
373,71,63311,2,0,L|374:136,1,46.8750017881394
407,169,63484,1,2,2:0:0:0:
79,60,64001,6,0,P|98:107|127:122,1,78.125
221,315,64346,2,0,P|210:264|216:218,1,78.125
326,64,64691,2,0,P|368:65|406:107,1,78.125
352,188,65036,5,0,0:0:0:0:
468,33,65208,1,0,0:0:0:0:
349,67,65380,2,0,P|301:86|286:126,1,78.125
293,207,65725,2,0,P|276:260|241:284,1,78.125
211,113,66070,6,0,L|210:198,1,78.125
139,71,66415,2,0,L|137:159,1,78.125
242,55,66759,5,0,0:0:0:0:
72,170,66931,1,0,0:0:0:0:
195,31,67104,5,0,0:0:0:0:
98,234,67276,1,0,0:0:0:0:
303,108,67449,5,0,0:0:0:0:
86,82,67621,1,0,0:0:0:0:
201,287,67794,5,0,0:0:0:0:
268,40,67966,1,0,0:0:0:0:
123,177,68138,5,0,0:0:0:0:
312,280,68311,1,0,0:0:0:0:
208,49,68483,5,0,0:0:0:0:
357,129,68656,2,0,P|398:166|408:198,1,78.125
214,162,69001,1,2,0:0:0:0:
68,187,69518,5,0,0:0:0:0:
115,66,69691,1,8,2:0:0:0:
217,105,69863,1,0,0:0:0:0:
186,227,70036,1,0,0:0:0:0:
68,187,70208,1,0,0:0:0:0:
115,66,70380,1,0,0:0:0:0:
115,66,70898,5,0,0:0:0:0:
150,219,71070,1,8,2:0:0:0:
303,157,71243,1,0,0:0:0:0:
258,9,71415,1,0,0:0:0:0:
115,66,71587,1,0,0:0:0:0:
150,219,71760,1,0,0:0:0:0:
150,219,72277,5,0,0:0:0:0:
174,85,72449,1,8,2:0:0:0:
259,219,72622,1,0,0:0:0:0:
107,130,72794,1,0,0:0:0:0:
278,104,72967,1,0,0:0:0:0:
183,263,73139,1,0,0:0:0:0:
84,62,73656,6,0,B|128:80|128:80|167:120,1,78.125,0|8,0:0|2:0,0:0:0:0:
255,145,74001,2,0,B|227:176|227:176|180:193,1,78.125
104,248,74346,2,0,B|86:207|86:207|90:157,1,78.125,0|8,0:0|0:0,0:0:0:0:
191,158,75036,5,0,0:0:0:0:
292,61,75208,1,8,2:0:0:0:
299,201,75380,5,0,0:0:0:0:
183,56,75553,1,0,0:0:0:0:
376,122,75725,5,0,0:0:0:0:
157,222,75898,1,0,0:0:0:0:
157,222,76415,5,0,0:0:0:0:
94,69,76587,1,8,2:0:0:0:
225,278,76760,5,0,0:0:0:0:
263,85,76932,1,0,0:0:0:0:
458,76,77104,2,0,L|451:167,1,78.125
458,76,77794,5,0,0:0:0:0:
282,47,77967,1,8,2:0:0:0:
426,189,78139,5,0,0:0:0:0:
218,104,78311,1,0,0:0:0:0:
347,269,78484,5,0,0:0:0:0:
300,75,78656,1,8,0:0:0:0:
99,132,79346,6,0,L|99:219,1,78.125
183,93,79691,2,0,L|185:197,1,78.125
105,37,80036,1,2,0:0:0:0:
231,114,87967,6,0,L|232:287,1,156.25,2|8,3:0|2:0,0:0:0:0:
143,109,89691,6,0,P|141:123|149:144,1,31.25
234,55,90208,2,0,P|241:73|265:84,1,43.749998664856
366,98,90725,2,0,P|363:117|338:159,1,62.5,0|2,0:0|0:0,0:0:0:0:
281,85,99001,6,0,P|277:94|272:95,1,12.5,2|8,3:0|2:0,0:0:0:0:
281,85,100725,5,0,0:0:0:0:
193,206,100898,1,0,0:0:0:0:
170,59,101070,5,0,0:0:0:0:
281,177,101242,1,0,0:0:0:0:
94,186,101415,1,0,0:0:0:0:
189,321,101587,5,0,0:0:0:0:
369,173,101760,2,0,L|368:187,1,12.5,0|2,0:0|0:0,0:0:0:0:
165,96,107622,5,0,0:0:0:0:
205,217,108311,5,0,0:0:0:0:
255,137,108484,1,0,0:0:0:0:
281,226,108656,1,0,0:0:0:0:
197,160,108829,1,0,0:0:0:0:
299,166,109001,1,0,0:0:0:0:
213,68,109173,5,0,0:0:0:0:
244,222,109346,1,0,0:0:0:0:
308,87,109518,5,0,0:0:0:0:
126,172,109691,1,0,0:0:0:0:
264,19,109863,1,0,0:0:0:0:
394,78,110036,2,0,L|394:169,1,62.5
246,171,110380,2,0,P|266:147|301:131,1,62.5
147,222,110725,2,0,P|163:170|184:152,1,62.5
51,209,111070,5,0,0:0:0:0:
65,315,111242,1,0,0:0:0:0:
109,138,111415,5,0,0:0:0:0:
187,222,111587,1,0,0:0:0:0:
68,66,111760,5,0,0:0:0:0:
258,92,111932,1,0,0:0:0:0:
244,239,112104,5,0,0:0:0:0:
157,69,112277,1,0,0:0:0:0:
312,213,112449,5,0,0:0:0:0:
194,74,112622,1,0,0:0:0:0:
159,228,112794,1,0,0:0:0:0:
247,150,112967,1,0,0:0:0:0:
135,157,113139,1,0,0:0:0:0:
246,235,113311,6,0,L|245:331,1,78.125
316,182,113656,2,0,L|316:268,1,78.125
266,125,114001,2,0,P|321:106|368:133,1,93.7500035762788
257,201,114346,5,0,0:0:0:0:
139,126,114518,1,0,0:0:0:0:
150,256,114691,1,0,0:0:0:0:
215,100,114863,1,0,0:0:0:0:
345,185,115036,2,0,P|328:244|285:258,1,78.125
217,198,115380,5,0,0:0:0:0:
308,103,115553,1,0,0:0:0:0:
214,163,115725,2,0,L|226:258,1,78.125
142,271,116070,5,0,0:0:0:0:
131,108,116242,2,0,L|141:217,1,78.125
220,109,116587,1,0,0:0:0:0:
228,273,116760,2,0,L|225:173,1,78.125
124,255,117104,2,0,P|130:325|154:349,1,78.125
149,152,117449,2,0,P|101:130|59:148,1,78.125
37,224,117794,5,0,0:0:0:0:
158,69,117967,1,0,0:0:0:0:
215,247,118139,5,0,0:0:0:0:
88,59,118311,1,0,0:0:0:0:
120,270,118484,5,0,0:0:0:0:
219,78,118656,1,2,0:0:0:0:
361,73,119346,6,0,L|361:160,1,78.125,8|0,2:0|0:0,0:0:0:0:
297,221,119691,1,0,0:0:0:0:
203,158,119863,2,0,L|203:68,1,78.125
121,153,120208,1,0,0:0:0:0:
159,244,120380,2,0,P|219:270|253:260,1,78.125
59,217,120725,6,0,P|59:275|87:318,1,78.125,8|0,2:0|0:0,0:0:0:0:
145,153,121070,2,0,P|153:95|142:58,1,78.125
72,102,121415,5,0,0:0:0:0:
83,189,121587,1,0,0:0:0:0:
157,242,121760,2,0,P|202:249|251:228,1,78.125
319,233,122104,5,8,2:0:0:0:
240,151,122277,1,0,0:0:0:0:
326,124,122449,1,0,0:0:0:0:
397,200,122622,2,0,P|391:273|383:303,1,78.125
309,220,122967,5,0,0:0:0:0:
252,167,123139,2,0,P|253:124|279:86,1,78.125
98,80,123484,5,8,2:0:0:0:
256,43,123656,1,0,0:0:0:0:
97,185,123829,5,0,0:0:0:0:
296,93,124001,1,0,0:0:0:0:
143,261,124173,5,0,0:0:0:0:
199,53,124346,1,0,0:0:0:0:
240,164,124518,2,0,L|240:256,1,78.125
151,140,124863,5,8,2:0:0:0:
239,68,125035,1,0,0:0:0:0:
297,133,125208,2,0,L|248:204,1,78.125
331,284,125553,2,0,P|356:222|336:199,1,78.125
230,318,125898,2,0,P|257:357|305:360,1,78.125
182,188,126242,2,0,P|130:161|84:187,1,78.125,8|0,2:0|0:0,0:0:0:0:
303,214,126587,2,0,P|355:202|390:163,1,78.125
250,78,126932,5,0,0:0:0:0:
237,224,127104,1,0,0:0:0:0:
139,325,127277,1,0,0:0:0:0:
63,203,127449,5,0,0:0:0:0:
132,106,127622,1,8,2:0:0:0:
276,93,127794,1,0,0:0:0:0:
201,250,127967,6,0,L|201:159,1,78.125
295,198,128311,1,0,0:0:0:0:
288,317,128484,2,0,L|175:317,1,78.125
56,200,128829,5,8,2:0:0:0:
87,158,128915,1,0,0:0:0:0:
131,126,129001,1,0,0:0:0:0:
431,183,129173,5,8,2:0:0:0:
390,148,129260,1,0,0:0:0:0:
341,133,129346,1,0,0:0:0:0:
239,342,129518,5,8,2:0:0:0:
248,80,129691,1,8,2:0:0:0:
152,136,129863,5,0,0:0:0:0:
88,136,130036,1,0,0:0:0:0:
88,200,130208,1,0,0:0:0:0:
152,200,130380,1,8,2:0:0:0:
288,192,130553,5,0,0:0:0:0:
352,136,130725,1,0,0:0:0:0:
288,72,130898,1,0,0:0:0:0:
224,136,131070,1,8,2:0:0:0:
128,192,131242,6,0,L|128:288,1,78.125
209,166,131587,2,0,L|209:254,1,78.125,0|8,0:0|2:0,0:0:0:0:
280,128,131932,2,0,L|280:232,1,78.125
208,112,132277,5,0,0:0:0:0:
118,164,132449,2,0,L|118:113,1,50,8|0,0:0|0:0,0:0:0:0:
185,214,134001,6,0,L|185:171,1,43.75
314,146,135380,2,0,L|315:190,1,43.75,0|2,0:0|0:0,0:0:0:0:
102,76,137449,5,8,0:0:0:0:
267,134,137622,1,8,0:0:0:0:
169,266,137794,1,8,0:0:0:0:
199,47,137967,1,2,0:0:0:0:
88,160,138139,6,0,P|90:213|111:237,1,62.5,0|8,0:0|0:0,0:0:0:0:
135,83,138484,2,0,P|161:60|197:53,1,62.5
167,196,138829,6,0,P|180:228|206:257,1,62.5,0|8,0:0|0:0,0:0:0:0:
234,117,139173,2,0,P|271:101|318:115,1,62.5
272,190,139518,5,0,0:0:0:0:
135,164,139691,1,8,0:0:0:0:
257,318,139863,5,0,0:0:0:0:
206,170,140036,1,0,0:0:0:0:
159,266,140208,5,0,0:0:0:0:
282,135,140380,1,8,0:0:0:0:
364,190,140553,2,0,L|350:262,1,62.5
336,107,140898,2,0,L|277:170,1,62.5,0|8,0:0|0:0,0:0:0:0:
388,302,141242,2,0,L|318:308,1,62.5
350,228,141587,5,0,0:0:0:0:
452,231,141760,1,8,0:0:0:0:
343,134,141932,2,0,L|268:183,1,62.5
208,144,142277,2,0,L|214:223,1,62.5,0|8,0:0|0:0,0:0:0:0:
119,255,142622,5,0,0:0:0:0:
117,112,142794,1,0,0:0:0:0:
241,299,142967,5,0,0:0:0:0:
226,159,143139,1,8,0:0:0:0:
306,215,143311,2,0,L|306:129,1,62.5
241,76,143656,5,0,0:0:0:0:
134,178,143829,1,8,0:0:0:0:
73,64,144001,2,0,L|121:63,1,37.4999988555909
201,157,144346,2,0,L|154:157,1,37.4999988555909,0|8,0:0|0:0,0:0:0:0:
250,245,144691,6,0,L|250:288,1,37.4999988555909
321,231,145036,2,0,L|321:188,1,37.4999988555909,0|8,0:0|0:0,0:0:0:0:
117,283,145380,5,0,0:0:0:0:
214,285,145553,1,0,0:0:0:0:
118,192,145725,5,0,0:0:0:0:
221,198,145898,1,8,0:0:0:0:
167,103,146070,1,0,0:0:0:0:
168,260,146242,2,0,L|166:209,1,37.4999988555909
165,146,146587,6,0,L|165:65,1,62.5,8|0,0:0|0:0,0:0:0:0:
236,37,146932,2,0,P|253:82|250:117,1,62.5
341,111,147277,2,0,P|319:163|291:180,1,62.5,8|0,0:0|0:0,0:0:0:0:
234,253,147622,2,0,P|228:195|238:175,1,62.5
168,71,147967,2,0,P|192:66|229:109,1,62.5,8|0,0:0|0:0,0:0:0:0:
358,82,148311,5,0,0:0:0:0:
320,257,148484,1,8,0:0:0:0:
227,143,148656,1,0,0:0:0:0:
397,215,148829,1,8,0:0:0:0:
299,85,149001,1,0,0:0:0:0:
241,245,149173,6,0,L|172:235,1,62.5,0|8,0:0|0:0,0:0:0:0:
319,171,149518,2,0,L|242:158,1,62.5
328,308,149863,6,0,L|398:317,1,62.5,0|8,0:0|0:0,0:0:0:0:
299,220,150208,2,0,L|365:236,1,62.5
188,300,150553,5,0,0:0:0:0:
203,213,150725,1,8,0:0:0:0:
79,280,150898,5,0,0:0:0:0:
96,192,151070,1,0,0:0:0:0:
203,213,151242,2,0,L|184:331,1,84.3750003218651,0|8,0:0|0:0,0:0:0:0:
157,69,151587,5,0,0:0:0:0:
133,166,151760,1,0,0:0:0:0:
290,153,151932,5,0,0:0:0:0:
204,229,152104,1,8,0:0:0:0:
242,46,152277,6,0,L|320:46,1,62.5
389,117,152622,2,0,L|319:117,1,62.5,0|8,0:0|0:0,0:0:0:0:
412,39,152967,2,0,P|442:61|458:90,1,62.5
421,181,153311,5,0,0:0:0:0:
319,144,153484,1,8,0:0:0:0:
348,236,153656,1,0,0:0:0:0:
380,117,153829,5,0,0:0:0:0:
248,156,154001,1,0,0:0:0:0:
319,37,154173,1,8,0:0:0:0:
146,122,154346,6,0,L|146:200,1,62.5
49,169,154691,2,0,P|53:224|78:248,1,62.5,0|8,0:0|0:0,0:0:0:0:
103,302,155036,2,0,L|149:230,1,62.5
255,193,155380,2,0,P|227:157|188:137,1,62.5,0|8,0:0|0:0,0:0:0:0:
146,322,155725,2,0,P|183:300|196:265,1,62.5
90,161,156070,2,0,P|103:204|133:218,1,62.5,0|8,0:0|0:0,0:0:0:0:
207,165,156415,5,0,0:0:0:0:
248,95,156587,1,0,0:0:0:0:
320,131,156760,1,0,0:0:0:0:
284,211,156932,1,8,0:0:0:0:
207,165,157104,1,0,0:0:0:0:
320,131,157277,6,0,L|386:91,1,62.5
246,240,157622,2,0,L|286:314,1,62.5,8|0,0:0|0:0,0:0:0:0:
175,109,157967,2,0,L|145:44,1,62.5
142,223,158311,2,0,L|78:257,1,62.5,8|0,0:0|0:0,0:0:0:0:
208,192,158656,5,0,0:0:0:0:
280,120,158829,1,0,0:0:0:0:
344,192,159001,1,8,0:0:0:0:
280,272,159173,1,0,0:0:0:0:
192,280,159346,5,8,0:0:0:0:
216,112,159518,1,0,0:0:0:0:
384,144,159691,1,8,0:0:0:0:
344,312,159863,1,0,0:0:0:0:
288,208,160036,1,2,2:0:0:0:
88,112,162794,6,0,L|88:136,1,18.7499994277954
168,80,163139,2,0,L|168:104,1,18.7499994277954
176,208,163484,2,0,L|176:184,1,18.7499994277954
264,184,163829,2,0,L|264:208,1,18.7499994277954
208,104,164173,5,0,0:0:0:0:
328,128,164346,1,0,0:0:0:0:
288,264,164518,2,0,L|288:240,1,18.7499994277954
120,256,164863,5,0,0:0:0:0:
176,192,165036,1,0,0:0:0:0:
200,280,165208,5,0,0:0:0:0:
112,184,165380,1,0,0:0:0:0:
216,120,165553,1,0,0:0:0:0:
272,200,165725,5,0,0:0:0:0:
320,312,165898,1,0,0:0:0:0:
432,304,166070,1,0,0:0:0:0:
408,208,166242,6,0,B|400:192|400:192|384:184,1,31.25
296,96,166587,2,0,L|280:136,1,31.25
168,144,166932,2,0,L|184:184,1,43.749998664856
264,248,167277,2,0,L|280:208,1,43.749998664856
384,120,167622,5,0,0:0:0:0:
384,200,167794,1,0,0:0:0:0:
312,240,167967,1,0,0:0:0:0:
256,296,168139,1,0,0:0:0:0:
168,296,168311,6,0,L|168:240,1,43.749998664856
96,208,168656,2,0,L|96:144,1,43.749998664856
232,168,169001,2,0,L|232:104,1,43.749998664856
136,80,169346,2,0,L|136:32,1,43.749998664856
320,232,169691,2,0,L|320:168,1,43.749998664856
232,56,170036,2,0,L|232:120,1,43.749998664856
120,168,170380,5,0,0:0:0:0:
288,176,170553,1,0,0:0:0:0:
152,256,170725,5,0,0:0:0:0:
264,256,170898,1,0,0:0:0:0:
208,336,171070,1,0,0:0:0:0:
208,184,171242,1,0,0:0:0:0:
352,304,171415,6,0,L|352:288,1,12.5
320,192,171760,2,0,L|320:208,1,12.5
256,96,172104,2,0,L|256:80,1,12.5
392,72,172449,5,0,0:0:0:0:
392,152,172622,1,0,0:0:0:0:
344,216,172794,1,0,0:0:0:0:
256,224,172967,1,0,0:0:0:0:
184,152,173139,5,0,0:0:0:0:
80,280,173311,1,0,0:0:0:0:
248,312,173484,1,0,0:0:0:0:
96,144,173656,1,0,0:0:0:0:
296,176,173829,6,0,P|304:120|336:96,1,78.125,2|0,2:0|0:0,0:0:0:0:
408,56,174173,2,0,P|456:88|464:128,1,78.125
440,248,174518,2,0,P|392:272|352:264,1,78.125,8|0,2:0|0:0,0:0:0:0:
288,56,174863,6,0,P|256:96|256:128,1,78.125
208,296,175208,2,0,P|184:256|192:208,1,78.125
128,128,175553,1,0,0:0:0:0:
304,224,175725,1,0,0:0:0:0:
216,32,175898,6,0,L|288:80,1,78.125,8|0,2:0|0:0,0:0:0:0:
416,224,176242,2,0,L|336:208,1,78.125
128,216,176587,2,0,L|208:192,1,78.125
296,336,176932,2,0,L|288:240,1,78.125
104,32,177277,5,8,2:0:0:0:
208,72,177449,1,0,0:0:0:0:
176,176,177622,1,0,0:0:0:0:
72,144,177794,1,0,0:0:0:0:
104,32,177967,2,0,L|192:56,1,78.125
280,48,178311,6,0,P|288:112|272:152,1,78.125
392,128,178656,2,0,P|368:184|336:208,1,78.125,8|0,2:0|0:0,0:0:0:0:
144,216,179001,2,0,P|192:232|256:224,1,78.125
240,312,179346,2,0,P|294:279|305:235,1,78.125
248,168,179691,5,0,0:0:0:0:
424,96,179863,1,0,0:0:0:0:
128,144,180036,5,8,2:0:0:0:
272,56,180208,1,0,0:0:0:0:
184,264,180380,5,0,0:0:0:0:
176,48,180553,1,0,0:0:0:0:
256,208,180725,5,0,0:0:0:0:
104,120,180898,1,0,0:0:0:0:
128,192,181070,5,0,0:0:0:0:
240,104,181242,1,0,0:0:0:0:
320,192,181415,1,8,2:0:0:0:
232,304,181587,1,0,0:0:0:0:
144,96,181760,5,0,0:0:0:0:
336,80,181932,1,0,0:0:0:0:
176,232,182104,5,0,0:0:0:0:
256,48,182276,1,0,0:0:0:0:
288,256,182449,5,0,0:0:0:0:
328,152,182621,1,0,0:0:0:0:
400,288,182793,5,8,2:0:0:0:
432,176,182966,1,0,0:0:0:0:
208,232,183138,5,0,0:0:0:0:
256,104,183311,1,0,0:0:0:0:
168,64,183484,6,0,L|152:104,1,31.25
176,256,183829,2,0,L|192:216,1,31.25
312,40,184173,2,0,P|312:64|320:72,1,31.25,8|0,2:0|0:0,0:0:0:0:
400,104,184518,2,0,P|392:128|384:128,1,31.25
296,224,184863,5,0,0:0:0:0:
48,32,185208,1,0,0:0:0:0:
88,328,185553,1,0,0:0:0:0:
256,24,185898,1,0,0:0:0:0:
416,272,186242,1,0,0:0:0:0:
112,208,186587,5,0,0:0:0:0:
360,72,186932,1,0,0:0:0:0:
256,320,187277,1,0,0:0:0:0:
168,48,187622,1,0,0:0:0:0:
304,96,187794,5,0,0:0:0:0:
168,192,187967,1,0,0:0:0:0:
336,208,188139,5,0,0:0:0:0:
184,96,188311,1,0,0:0:0:0:
208,280,188484,5,0,0:0:0:0:
352,120,188656,1,0,0:0:0:0:
304,336,188829,5,0,0:0:0:0:
280,80,189001,1,0,0:0:0:0:
384,256,189173,5,0,0:0:0:0:
152,184,189346,1,0,0:0:0:0:
432,152,189518,5,0,0:0:0:0:
240,288,189691,1,0,0:0:0:0:
376,48,189863,5,0,0:0:0:0:
184,72,190036,1,0,0:0:0:0:
296,192,190208,1,0,0:0:0:0:
72,128,190380,5,0,0:0:0:0:
112,168,190467,1,0,0:0:0:0:
168,160,190553,1,0,0:0:0:0:
216,136,190639,1,0,0:0:0:0:
272,120,190725,1,0,0:0:0:0:
304,160,190811,1,0,0:0:0:0:
296,200,190898,1,0,0:0:0:0:
256,224,190984,1,0,0:0:0:0:
216,256,191070,1,0,0:0:0:0:
200,304,191156,1,0,0:0:0:0:
240,328,191242,6,0,L|264:320,16,15.625
256,192,192794,12,4,193484,0:0:0:0:
