osu file format v14

[General]
AudioFilename: audio.mp3
AudioLeadIn: 0
PreviewTime: 32622
Countdown: 0
SampleSet: Soft
StackLeniency: 0.5
Mode: 0
LetterboxInBreaks: 0
WidescreenStoryboard: 0

[Editor]
DistanceSpacing: 1.5
BeatDivisor: 4
GridSize: 4
TimelineZoom: 1

[Metadata]
Title:STARS ALIGN
TitleUnicode:STARS ALIGN
Artist:dark cat
ArtistUnicode:dark cat
Creator:Nozhomi
Version:Shooting Star
Source:
Tags:featured artist catstep dnb drum and bass
BeatmapID:1282215
BeatmapSetID:606998

[Difficulty]
HPDrainRate:6
CircleSize:4.6
OverallDifficulty:8.2
ApproachRate:9
SliderMultiplier:1.6
SliderTickRate:1

[Events]
//Background and Video events
0,0,"stars.jpg",0,0
//Break Periods
2,58172,61509
2,63689,67027
//Storyboard Layer 0 (Background)
//Storyboard Layer 1 (Fail)
//Storyboard Layer 2 (Pass)
//Storyboard Layer 3 (Foreground)
//Storyboard Sound Samples

[TimingPoints]
41,344.827586206897,4,2,1,60,1,0
5558,-133.333333333333,4,2,1,60,0,0
6937,-133.333333333333,4,2,1,15,0,0
7282,-133.333333333333,4,2,1,60,0,0
7454,-133.333333333333,4,2,1,15,0,0
7799,-133.333333333333,4,2,1,60,0,0
7972,-133.333333333333,4,2,1,15,0,0
8316,-133.333333333333,4,2,1,60,0,0
8489,-133.333333333333,4,2,1,15,0,0
9523,-133.333333333333,4,2,1,60,0,0
9696,-133.333333333333,4,2,1,15,0,0
10041,-133.333333333333,4,2,1,60,0,0
10213,-133.333333333333,4,2,1,15,0,0
10385,-133.333333333333,4,2,1,60,0,0
11420,-100,4,2,1,60,0,0
11765,-117.647058823529,4,2,1,60,0,0
12282,-133.333333333333,4,2,1,60,0,0
12454,-133.333333333333,4,2,1,15,0,0
12799,-133.333333333333,4,2,1,60,0,0
12972,-133.333333333333,4,2,1,15,0,0
13316,-133.333333333333,4,2,1,60,0,0
13489,-133.333333333333,4,2,1,15,0,0
13834,-133.333333333333,4,2,1,60,0,0
14006,-133.333333333333,4,2,1,15,0,0
15041,-133.333333333333,4,2,1,60,0,0
15213,-133.333333333333,4,2,1,15,0,0
15558,-133.333333333333,4,2,1,60,0,0
15730,-133.333333333333,4,2,1,15,0,0
15903,-133.333333333333,4,2,1,60,0,0
17799,-133.333333333333,4,2,1,60,0,0
17972,-133.333333333333,4,2,1,15,0,0
18316,-133.333333333333,4,2,1,60,0,0
18489,-133.333333333333,4,2,1,15,0,0
18661,-133.333333333333,4,2,1,60,0,0
19006,-133.333333333333,4,2,1,15,0,0
19351,-133.333333333333,4,2,1,60,0,0
19523,-133.333333333333,4,2,1,15,0,0
20041,-133.333333333333,4,2,1,60,0,0
20558,-133.333333333333,4,2,1,60,0,0
20730,-133.333333333333,4,2,1,15,0,0
21075,-133.333333333333,4,2,1,60,0,0
21247,-133.333333333333,4,2,1,15,0,0
21420,-133.333333333333,4,2,1,60,0,0
22454,-100,4,2,1,60,0,0
22799,-117.647058823529,4,2,1,60,0,0
23316,-133.333333333333,4,2,1,60,0,0
23489,-133.333333333333,4,2,1,15,0,0
23834,-133.333333333333,4,2,1,60,0,0
24006,-133.333333333333,4,2,1,15,0,0
24178,-133.333333333333,4,2,1,60,0,0
24351,-133.333333333333,4,2,1,60,0,0
24523,-133.333333333333,4,2,1,15,0,0
24868,-133.333333333333,4,2,1,60,0,0
27627,-200,4,2,1,50,0,0
28834,-200,4,2,1,10,0,0
29006,-200,4,2,1,50,0,0
30213,-200,4,2,1,10,0,0
30385,-200,4,2,1,50,0,0
31592,-200,4,2,1,10,0,0
31765,-200,4,2,1,60,0,0
32023,-200,4,2,1,45,0,0
32282,-200,4,2,1,30,0,0
32627,-200,4,2,1,70,0,0
33144,-83.3333333333333,4,2,1,80,0,1
34523,-76.9230769230769,4,2,1,80,0,1
35903,-71.4285714285714,4,2,1,80,0,1
38661,-83.3333333333333,4,2,1,80,0,1
40041,-76.9230769230769,4,2,1,80,0,1
41420,-71.4285714285714,4,2,1,80,0,1
44178,-83.3333333333333,4,2,1,80,0,1
54523,-83.3333333333333,4,2,1,70,0,1
54868,-83.3333333333333,4,2,1,60,0,1
55213,-133.333333333333,4,2,1,80,0,0
62109,-133.333333333333,4,2,1,60,0,0
67627,-133.333333333333,4,2,1,70,0,0
78920,-133.333333333333,4,2,1,50,0,0
79178,-133.333333333333,4,2,1,60,0,0
80041,-200,4,2,1,60,0,0
88661,-166.666666666667,4,2,1,50,0,0
89006,-142.857142857143,4,2,1,55,0,0
89351,-125,4,2,1,60,0,0
89696,-100,4,2,1,65,0,0
91075,-133.333333333333,4,2,1,70,0,0
99351,-200,4,2,1,60,0,0
99696,-166.666666666667,4,2,1,50,0,0
100041,-142.857142857143,4,2,1,55,0,0
100385,-125,4,2,1,60,0,0
100730,-100,4,2,1,65,0,0
102282,-100,4,2,1,40,0,0
106247,-100,4,2,1,10,0,0
107627,-133.333333333333,4,2,1,60,0,0
129696,-100,4,2,1,70,0,0
130385,-117.647058823529,4,2,1,60,0,0
131075,-142.857142857143,4,2,1,50,0,0
131765,-181.818181818182,4,2,1,40,0,0
132454,-200,4,2,1,50,0,0
133661,-200,4,2,1,10,0,0
133834,-200,4,2,1,50,0,0
135041,-200,4,2,1,10,0,0
135213,-200,4,2,1,50,0,0
136420,-200,4,2,1,10,0,0
136592,-200,4,2,1,60,0,0
136851,-200,4,2,1,45,0,0
137109,-200,4,2,1,30,0,0
137454,-200,4,2,1,70,0,0
137972,-83.3333333333333,4,2,1,80,0,1
139351,-76.9230769230769,4,2,1,80,0,1
140730,-71.4285714285714,4,2,1,80,0,1
143489,-83.3333333333333,4,2,1,80,0,1
144868,-76.9230769230769,4,2,1,80,0,1
146247,-71.4285714285714,4,2,1,80,0,1
149006,-83.3333333333333,4,2,1,80,0,1
159351,-83.3333333333333,4,2,1,70,0,1
159696,-83.3333333333333,4,2,1,60,0,1
160041,-200,4,2,1,60,0,0
162454,-200,4,2,1,20,0,0
162799,-200,4,2,1,60,0,0
173834,-133.333333333333,4,2,1,70,0,0
184868,-133.333333333333,4,2,1,60,0,0
190730,-133.333333333333,4,2,1,55,0,0
191075,-133.333333333333,4,2,1,50,0,0
191420,-133.333333333333,4,2,1,45,0,0
191765,-133.333333333333,4,2,1,40,0,0
192109,-133.333333333333,4,2,1,35,0,0
192454,-133.333333333333,4,2,1,30,0,0
192799,-133.333333333333,4,2,1,20,0,0
192972,-133.333333333333,4,2,1,5,0,0

[Colours]
Combo1 : 215,169,11
Combo2 : 10,211,222
Combo3 : 147,53,202
Combo4 : 27,30,158

[HitObjects]
334,217,4868,5,2,0:0:0:0:
225,268,5041,1,2,0:0:0:0:
177,166,5213,1,2,0:0:0:0:
286,115,5385,1,2,0:0:0:0:
225,268,5558,2,0,L|228:336,1,60.0000022888184,4|0,0:3|0:0,0:0:0:0:
334,217,6765,6,0,L|337:285,1,60.0000022888184,2|0,0:0|0:0,0:0:0:0:
280,168,7282,2,0,L|259:232,1,60.0000022888184,2|0,0:0|0:0,0:0:0:0:
248,104,7799,2,0,L|206:158,1,60.0000022888184,2|0,0:0|0:0,0:0:0:0:
236,32,8316,2,0,L|178:68,1,60.0000022888184,2|0,0:0|0:0,0:0:0:0:
40,140,9523,6,0,P|64:164|97:176,1,60.0000022888184,2|0,0:0|0:0,0:0:0:0:
232,176,10041,2,0,P|258:163|279:141,1,60.0000022888184,2|0,0:0|0:0,0:0:0:0:
304,44,10385,5,2,0:0:0:0:
232,176,10558,1,2,0:0:0:0:
192,32,10730,1,2,0:0:0:0:
112,164,10903,1,2,0:0:0:0:
296,120,11075,5,4,0:3:0:0:
172,244,11420,2,0,L|180:352,1,80,2|0,0:0|0:0,0:0:0:0:
100,208,11765,2,0,L|108:308,1,68.0000012969971,2|0,0:0|0:0,0:0:0:0:
164,152,12109,1,0,0:0:0:0:
268,212,12282,6,0,P|294:225|346:218,1,60.0000022888184,2|0,0:0|0:0,0:0:0:0:
208,248,12799,2,0,P|228:270|279:281,1,60.0000022888184,2|0,0:0|0:0,0:0:0:0:
140,260,13316,2,0,P|150:286|192:319,1,60.0000022888184,2|0,0:0|0:0,0:0:0:0:
72,232,13834,2,0,L|76:320,1,60.0000022888184,2|0,0:0|0:0,0:0:0:0:
68,160,15041,6,0,L|65:100,1,60.0000022888184,2|0,0:0|0:0,0:0:0:0:
192,32,15558,2,0,L|194:91,1,60.0000022888184,2|0,0:0|0:0,0:0:0:0:
180,188,15903,5,2,0:0:0:0:
338,138,16075,1,2,0:0:0:0:
195,92,16247,1,2,0:0:0:0:
280,228,16420,1,2,0:0:0:0:
292,47,16592,6,0,P|319:36|349:34,1,60.0000022888184,4|0,0:3|0:0,0:0:0:0:
328,248,17282,1,8,0:0:0:0:
464,80,17799,2,0,P|441:60|414:48,1,60.0000022888184,2|0,0:0|0:0,0:0:0:0:
256,72,18316,2,0,L|256:156,1,60.0000022888184,2|0,0:0|0:0,0:0:0:0:
256,204,18661,1,8,0:0:0:0:
256,340,18834,2,0,L|256:260,1,60.0000022888184,2|0,0:0|0:0,0:0:0:0:
160,172,19351,6,0,P|152:204|172:252,1,60.0000022888184,2|0,0:0|0:0,0:0:0:0:
372,192,20041,1,8,0:0:0:0:
176,100,20558,2,0,L|88:96,1,60.0000022888184,2|0,0:0|0:0,0:0:0:0:
116,286,21075,2,0,L|176:284,1,60.0000022888184,2|0,0:0|0:0,0:0:0:0:
284,276,21420,5,10,0:0:0:0:
116,286,21592,1,2,0:0:0:0:
96,120,21765,1,2,0:0:0:0:
264,110,21937,1,2,0:0:0:0:
284,276,22109,5,4,0:3:0:0:
340,92,22454,2,0,P|312:48|276:32,1,80,2|0,0:0|0:0,0:0:0:0:
316,160,22799,2,0,P|361:161|399:132,1,68.0000012969971,8|0,0:0|0:0,0:0:0:0:
264,110,23144,1,0,0:0:0:0:
228,224,23316,2,0,L|236:304,1,60.0000022888184,2|0,0:0|0:0,0:0:0:0:
168,176,23834,2,0,L|88:184,1,60.0000022888184,2|0,0:0|0:0,0:0:0:0:
216,116,24178,1,8,0:0:0:0:
276,164,24351,2,0,L|356:156,1,60.0000022888184,2|0,0:0|0:0,0:0:0:0:
109,182,24868,5,2,0:0:0:0:
288,232,25213,2,0,P|321:236|360:216,1,60.0000022888184
324,92,25558,2,0,P|291:88|252:108,1,60.0000022888184,8|0,0:0|0:0,0:0:0:0:
204,152,25903,1,0,0:0:0:0:
290,291,26075,2,0,L|288:232,1,60.0000022888184,2|0,0:0|0:0,0:0:0:0:
284,160,26420,1,0,0:0:0:0:
364,304,26592,2,0,L|361:244,1,60.0000022888184,2|8,0:0|0:0,0:0:0:0:
357,172,26937,5,2,0:0:0:0:
432,320,27109,1,2,0:0:0:0:
268,308,27282,1,2,0:0:0:0:
400,108,27454,1,2,0:0:0:0:
288,191,27627,6,0,P|256:90|219:190,1,280,4|0,0:3|0:0,0:0:0:0:
288,191,29006,2,0,P|357:272|253:248,1,280,2|0,0:0|0:0,0:0:0:0:
220,190,30385,2,0,P|149:269|254:248,1,280,2|0,0:0|0:0,0:0:0:0:
256,132,31765,5,8,0:0:0:0:
256,132,32023,5,8,0:0:0:0:
256,132,32282,5,8,0:0:0:0:
180,180,32627,5,2,3:0:0:0:
176,32,32799,1,8,3:0:0:0:
94,156,32972,1,4,3:0:0:0:
256,44,33144,5,4,0:3:0:0:
180,180,33316,2,0,P|138:184|91:152,1,95.9999970703126,0|8,0:0|0:0,0:0:0:0:
224,108,33661,1,0,0:0:0:0:
276,256,33834,2,0,L|272:352,1,95.9999970703126,4|0,0:3|0:0,0:0:0:0:
392,228,34178,1,8,0:0:0:0:
392,228,34351,1,2,0:0:0:0:
300,104,34523,5,4,0:3:0:0:
208,248,34696,2,0,L|203:365,1,103.999995239258,0|8,0:0|0:0,0:0:0:0:
72,288,35041,1,0,0:0:0:0:
132,120,35213,2,0,B|144:172|144:172|132:221,1,103.999995239258,4|0,0:3|0:0,0:0:0:0:
44,72,35558,1,8,0:0:0:0:
44,72,35730,1,2,0:0:0:0:
216,156,35903,5,4,0:3:0:0:
368,56,36075,2,0,L|480:64,1,111.999996582031,0|8,0:0|0:0,0:0:0:0:
296,48,36420,1,0,0:0:0:0:
384,208,36592,2,0,L|496:200,1,111.999996582031,4|0,0:3|0:0,0:0:0:0:
316,220,36937,1,8,0:0:0:0:
316,220,37109,1,2,0:0:0:0:
92,344,37282,5,2,3:2:0:0:
56,204,37454,1,2,0:0:0:0:
184,272,37627,1,8,0:0:0:0:
316,220,37799,1,2,0:0:0:0:
204,128,37972,5,2,3:2:0:0:
184,272,38144,1,2,0:0:0:0:
404,184,38316,1,10,0:0:0:0:
216,36,38489,1,2,0:0:0:0:
184,272,38661,5,4,0:3:0:0:
314,182,38834,2,0,P|359:167|403:183,1,95.9999970703126,0|8,0:0|0:0,0:0:0:0:
496,256,39178,1,0,0:0:0:0:
354,339,39351,2,0,L|358:243,1,95.9999970703126,4|0,0:3|0:0,0:0:0:0:
368,72,39696,1,8,0:0:0:0:
368,72,39868,1,2,0:0:0:0:
500,152,40041,5,4,0:3:0:0:
357,243,40213,2,0,L|236:236,1,103.999995239258,0|8,0:0|0:0,0:0:0:0:
332,360,40558,1,0,0:0:0:0:
461,249,40730,2,0,L|358:243,1,103.999995239258,4|0,0:3|0:0,0:0:0:0:
184,236,41075,1,8,0:0:0:0:
184,236,41247,1,2,0:0:0:0:
256,72,41420,5,4,0:3:0:0:
328,236,41592,2,0,P|343:289|331:342,1,111.999996582031,0|8,0:0|0:0,0:0:0:0:
256,180,41937,1,0,0:0:0:0:
180,342,42109,2,0,P|168:289|184:236,1,111.999996582031,4|0,0:3|0:0,0:0:0:0:
344,148,42454,1,8,0:0:0:0:
344,148,42627,1,2,0:0:0:0:
184,236,42799,5,2,3:2:0:0:
236,100,42972,1,2,0:0:0:0:
96,60,43144,1,10,0:0:0:0:
44,196,43316,1,2,0:0:0:0:
184,236,43489,5,2,3:2:0:0:
40,116,43661,1,10,0:0:0:0:
308,96,43834,1,2,3:2:0:0:
40,116,44006,1,10,0:0:0:0:
184,236,44178,6,0,B|196:284|196:284|184:328,1,95.9999970703126,4|0,0:3|0:0,0:0:0:0:
136,168,44523,1,8,0:0:0:0:
136,168,44696,2,0,L|244:164,1,95.9999970703126,2|4,0:0|0:3,0:0:0:0:
367,158,45041,1,0,0:0:0:0:
286,312,45213,1,8,0:0:0:0:
286,312,45385,2,0,L|190:308,1,95.9999970703126,2|4,0:0|0:3,0:0:0:0:
56,296,45730,5,0,0:0:0:0:
144,148,45903,1,8,0:0:0:0:
144,148,46075,2,0,P|156:90|109:43,1,95.9999970703126,2|4,0:0|0:3,0:0:0:0:
12,104,46420,1,0,0:0:0:0:
144,220,46592,1,8,0:0:0:0:
144,220,46765,2,0,P|188:204|212:128,1,95.9999970703126,2|4,0:0|0:3,0:0:0:0:
96,86,47109,5,0,0:0:0:0:
93,270,47282,1,8,0:0:0:0:
93,270,47454,2,0,P|147:292|202:254,1,95.9999970703126,2|4,0:0|0:3,0:0:0:0:
256,160,47799,1,0,0:0:0:0:
419,270,47972,1,10,0:0:0:0:
419,270,48144,1,0,0:0:0:0:
256,160,48316,5,2,3:2:0:0:
366,9,48489,1,2,0:0:0:0:
366,196,48661,1,10,0:0:0:0:
256,45,48834,1,2,0:0:0:0:
433,102,49006,5,2,3:2:0:0:
184,184,49178,1,2,0:0:0:0:
366,9,49351,1,10,0:0:0:0:
368,264,49523,1,2,0:0:0:0:
200,112,49696,6,0,P|158:114|112:164,1,95.9999970703126,4|0,0:3|0:0,0:0:0:0:
143,297,50041,1,8,0:0:0:0:
143,297,50213,2,0,P|111:262|108:216,1,95.9999970703126,2|4,0:0|0:3,0:0:0:0:
200,112,50558,1,0,0:0:0:0:
300,256,50730,1,8,0:0:0:0:
300,256,50903,2,0,B|348:264|348:264|394:256,1,95.9999970703126,2|4,0:0|0:3,0:0:0:0:
512,192,51247,5,0,0:0:0:0:
300,128,51420,1,8,0:0:0:0:
300,128,51592,2,0,B|348:120|348:120|394:127,1,95.9999970703126,2|4,0:0|0:3,0:0:0:0:
512,192,51937,1,0,0:0:0:0:
388,308,52109,1,8,0:0:0:0:
388,308,52282,2,0,L|380:204,1,95.9999970703126,2|4,0:0|0:3,0:0:0:0:
368,80,52627,5,0,0:0:0:0:
308,244,52799,1,8,0:0:0:0:
308,244,52972,2,0,L|300:148,1,95.9999970703126,2|4,0:0|0:3,0:0:0:0:
288,16,53316,1,0,0:0:0:0:
144,112,53489,2,0,L|0:104,1,95.9999970703126,10|0,0:0|0:0,0:0:0:0:
88,256,53834,5,2,3:2:0:0:
144,112,54006,1,2,0:0:0:0:
256,216,54178,1,10,0:0:0:0:
368,112,54351,1,2,0:0:0:0:
402,260,54523,5,2,0:0:0:0:
256,216,54696,1,2,0:0:0:0:
313,163,54868,1,10,0:0:0:0:
330,238,55041,1,2,3:2:0:0:
256,216,55213,5,4,0:0:0:0:
256,192,55299,12,4,57972,0:3:0:0:
80,156,62109,6,0,B|159:149|159:149|180:155|180:155|260:148,1,180.000006866455,2|0,0:0|0:0,0:0:0:0:
284,80,62799,1,2,0:0:0:0:
236,216,62972,1,2,0:0:0:0:
192,80,63144,1,2,0:0:0:0:
156,224,63316,1,2,0:0:0:0:
332,152,63489,5,4,0:3:0:0:
452,276,67627,6,0,B|400:284|400:284|360:272|360:272|320:288|276:280,1,180.000006866455,2|0,0:0|0:0,0:0:0:0:
196,248,68316,1,2,0:0:0:0:
288,136,68489,1,2,0:0:0:0:
276,280,68661,1,2,0:0:0:0:
196,160,68834,1,2,0:0:0:0:
404,220,69006,5,4,0:3:0:0:
276,280,69696,1,8,0:0:0:0:
456,104,70213,2,0,P|424:112|388:112,1,60.0000022888184,0|2,0:0|0:0,0:0:0:0:
64,56,71075,1,8,0:0:0:0:
56,280,71592,2,0,P|88:272|124:272,1,60.0000022888184,0|2,0:0|0:0,0:0:0:0:
448,328,72454,1,8,0:0:0:0:
386,176,73144,6,0,L|207:188,1,180.000006866455,2|0,0:0|0:0,0:0:0:0:
108,220,73834,1,10,0:0:0:0:
204,120,74006,1,2,0:0:0:0:
72,160,74178,1,2,0:0:0:0:
207,188,74351,1,2,0:0:0:0:
200,16,74523,5,4,0:3:0:0:
320,132,74868,1,2,0:0:0:0:
476,68,75213,1,8,0:0:0:0:
408,220,75558,1,2,0:0:0:0:
384,52,75903,1,4,0:3:0:0:
320,208,76247,1,2,0:0:0:0:
184,108,76592,1,8,0:0:0:0:
184,276,76937,1,0,0:0:0:0:
260,204,77109,1,2,0:0:0:0:
260,204,77196,1,0,0:0:0:0:
260,204,77282,6,0,L|286:257,1,60.0000022888184,4|0,0:3|0:0,0:0:0:0:
158,173,77627,2,0,L|184:225,1,60.0000022888184,2|0,0:0|0:0,0:0:0:0:
265,327,77972,2,0,L|291:379,1,60.0000022888184,8|0,0:0|0:0,0:0:0:0:
338,213,78316,2,0,L|364:265,1,60.0000022888184,2|0,0:0|0:0,0:0:0:0:
217,122,78661,6,0,L|257:202,2,90.0000034332277,4|8|8,0:3|0:0|0:0,0:0:0:0:
264,328,79351,5,2,0:0:0:0:
258,202,79523,1,2,0:0:0:0:
368,264,79696,1,2,0:0:0:0:
264,328,79868,1,2,0:0:0:0:
256,136,80041,5,4,0:3:0:0:
172,196,80213,2,0,L|116:188,1,40,2|0,0:0|0:0,0:0:0:0:
256,136,80558,1,0,0:0:0:0:
340,196,80730,2,0,L|396:188,1,40,2|0,0:0|0:0,0:0:0:0:
164,116,81247,6,0,L|140:72,1,40,2|0,0:0|0:0,0:0:0:0:
256,72,81592,2,0,L|256:24,1,40,2|0,0:0|0:0,0:0:0:0:
256,140,81937,1,0,0:0:0:0:
348,116,82109,2,0,L|372:72,1,40,2|0,0:0|0:0,0:0:0:0:
268,209,82627,6,0,P|244:209|212:196,1,40,2|0,0:0|0:0,0:0:0:0:
132,136,82972,2,0,P|115:119|101:87,1,40,2|0,0:0|0:0,0:0:0:0:
228,100,83316,1,0,0:0:0:0:
152,204,83489,2,0,P|126:208|100:198,1,40,2|0,0:0|0:0,0:0:0:0:
360,204,84006,5,2,0:0:0:0:
397,110,84178,2,0,P|359:102|320:112,1,80,2|0,0:0|0:0,0:0:0:0:
224,180,84696,1,0,0:0:0:0:
388,268,84868,1,2,0:0:0:0:
254,357,85041,1,2,0:0:0:0:
224,180,85213,1,2,0:0:0:0:
44,216,85385,1,2,0:0:0:0:
192,80,85558,5,0,0:0:0:0:
304,176,85730,2,0,L|320:224,1,40,2|0,0:0|0:0,0:0:0:0:
360,304,86075,1,0,0:0:0:0:
396,180,86247,2,0,L|412:228,1,40,2|0,0:0|0:0,0:0:0:0:
328,24,86765,6,0,L|344:72,1,40,2|0,0:0|0:0,0:0:0:0:
208,40,87109,2,0,L|224:88,1,40,2|0,0:0|0:0,0:0:0:0:
260,172,87454,1,0,0:0:0:0:
128,136,87627,2,0,L|144:184,1,40,2|0,0:0|0:0,0:0:0:0:
240,240,87972,6,0,L|263:306,1,60
220,352,88316,6,0,P|192:344|164:348,1,40,4|0,0:3|0:0,0:0:0:0:
292,351,88661,2,0,P|310:345|347:347,1,47.9999985351563,2|0,0:0|0:0,0:0:0:0:
192,276,89006,2,0,P|155:279|125:308,1,55.9999982910157,2|0,0:0|0:0,0:0:0:0:
320,276,89351,2,0,P|356:276|397:302,1,64,2|0,0:0|0:0,0:0:0:0:
256,200,89696,6,0,B|232:120|280:120|256:40,1,160,4|0,0:3|0:0,0:0:0:0:
328,156,90213,1,4,0:3:0:0:
164,84,90385,1,2,0:0:0:0:
336,32,90558,1,2,0:0:0:0:
256,200,90730,1,2,3:2:0:0:
256,42,90903,1,2,0:0:0:0:
256,268,91075,5,4,0:3:0:0:
140,297,91247,2,0,P|132:269|144:233,1,60.0000022888184,2|0,0:0|0:0,0:0:0:0:
224,152,91592,1,0,0:0:0:0:
372,239,91765,2,0,P|380:268|372:297,1,60.0000022888184,2|0,0:0|0:0,0:0:0:0:
256,356,92109,1,0,0:0:0:0:
476,336,92282,6,0,L|508:276,1,60.0000022888184,2|0,0:0|0:0,0:0:0:0:
420,239,92627,2,0,L|429:171,1,60.0000022888184,2|0,0:0|0:0,0:0:0:0:
452,68,92972,1,0,0:0:0:0:
332,176,93144,2,0,L|317:109,1,60.0000022888184,2|0,0:0|0:0,0:0:0:0:
296,4,93489,1,0,0:0:0:0:
228,148,93661,2,0,L|190:90,1,60.0000022888184,2|0,0:0|0:0,0:0:0:0:
124,164,94006,2,0,L|69:122,1,60.0000022888184,2|0,0:0|0:0,0:0:0:0:
180,208,94351,1,0,0:0:0:0:
60,236,94523,2,0,L|2:218,1,60.0000022888184,2|0,0:0|0:0,0:0:0:0:
99,307,94868,1,0,0:0:0:0:
124,164,95041,5,2,0:0:0:0:
221,275,95213,1,0,0:0:0:0:
221,275,95385,2,0,P|279:287|337:275,1,120.000004577637,2|0,0:0|0:0,0:0:0:0:
436,160,95903,1,2,0:0:0:0:
408,308,96075,1,2,0:0:0:0:
336,176,96247,1,2,0:0:0:0:
504,244,96420,1,2,0:0:0:0:
340,344,96592,5,0,0:0:0:0:
264,212,96765,2,0,L|268:148,1,60.0000022888184,2|0,0:0|0:0,0:0:0:0:
280,32,97109,1,0,0:0:0:0:
336,176,97282,2,0,L|332:235,1,60.0000022888184,2|0,0:0|0:0,0:0:0:0:
320,356,97627,1,0,0:0:0:0:
232,276,97799,6,0,P|208:264|152:256,1,60.0000022888184,2|0,0:0|0:0,0:0:0:0:
56,260,98144,2,0,P|26:266|0:279,1,60.0000022888184,2|0,0:0|0:0,0:0:0:0:
116,312,98489,1,0,0:0:0:0:
136,164,98661,2,0,P|132:128|116:100,1,60.0000022888184,2|0,0:0|0:0,0:0:0:0:
200,16,99006,6,0,L|208:120,1,90.0000034332277
216,180,99351,6,0,P|233:193|252:204,1,40,4|0,0:3|0:0,0:0:0:0:
324,204,99696,2,0,P|345:197|368:180,1,47.9999985351563,2|0,0:0|0:0,0:0:0:0:
400,100,100041,2,0,P|403:68|392:28,1,55.9999982910157,2|0,0:0|0:0,0:0:0:0:
280,76,100385,2,0,L|286:147,1,64,2|0,0:0|0:0,0:0:0:0:
297,299,100730,6,0,L|285:139,1,160,4|0,0:3|0:0,0:0:0:0:
152,232,101247,1,4,0:3:0:0:
297,299,101420,1,2,0:0:0:0:
285,139,101592,1,2,0:0:0:0:
140,72,101765,1,2,3:2:0:0:
296,32,101937,1,2,0:0:0:0:
224,264,102109,5,4,0:3:0:0:
256,192,102282,12,0,106247,0:0:0:0:
388,308,107627,5,2,0:0:0:0:
388,308,107972,2,0,L|380:244,1,60.0000022888184,2|0,0:0|0:0,0:0:0:0:
372,164,108316,1,2,0:0:0:0:
304,232,108489,2,0,L|288:350,1,120.000004577637,2|0,0:0|0:0,0:0:0:0:
300,160,109178,1,2,0:0:0:0:
300,160,109523,2,0,P|252:176|180:156,1,120.000004577637,2|0,0:0|0:0,0:0:0:0:
356,120,110213,1,2,0:0:0:0:
368,188,110385,5,0,0:0:0:0:
368,188,110730,2,0,L|364:252,1,60.0000022888184,2|0,0:0|0:0,0:0:0:0:
356,332,111075,1,2,0:0:0:0:
440,264,111247,2,0,L|447:144,1,120.000004577637,2|0,0:0|0:0,0:0:0:0:
314,41,111937,2,0,P|256:24|199:40,1,120.000004577637,2|0,0:0|0:0,0:0:0:0:
176,120,112454,5,2,0:0:0:0:
336,120,112627,1,2,0:0:0:0:
192,188,112799,1,2,0:0:0:0:
256,344,112972,1,2,0:0:0:0:
320,188,113144,5,0,0:0:0:0:
156,256,113489,2,0,P|133:239|119:207,1,60.0000022888184,2|0,0:0|0:0,0:0:0:0:
108,128,113834,1,2,0:0:0:0:
44,224,114006,2,0,L|52:364,1,120.000004577637,2|0,0:0|0:0,0:0:0:0:
40,156,114696,1,2,0:0:0:0:
40,156,115041,2,0,P|103:177|172:152,1,120.000004577637,2|0,0:0|0:0,0:0:0:0:
256,28,115730,1,2,0:0:0:0:
227,107,115903,5,0,0:0:0:0:
227,107,116247,2,0,P|256:113|285:106,1,60.0000022888184,2|0,0:0|0:0,0:0:0:0:
352,56,116592,1,2,0:0:0:0:
412,144,116765,2,0,L|408:284,1,120.000004577637,2|0,0:0|0:0,0:0:0:0:
484,300,117282,6,0,L|489:120,1,180.000006866455,2|0,0:0|0:0,0:0:0:0:
456,44,117972,1,2,0:0:0:0:
376,148,118144,1,2,0:0:0:0:
256,96,118316,1,2,0:0:0:0:
296,272,118489,1,2,0:0:0:0:
136,192,118661,5,2,0:0:0:0:
296,272,119006,2,0,L|380:264,1,60.0000022888184,2|0,0:0|0:0,0:0:0:0:
440,256,119351,1,8,0:0:0:0:
364,348,119523,2,0,L|230:335,1,120.000004577637,2|0,0:0|0:0,0:0:0:0:
182,270,120041,1,0,0:0:0:0:
184,180,120213,1,2,0:0:0:0:
184,180,120558,1,2,0:0:0:0:
276,236,120730,2,0,P|305:241|334:235,1,60.0000022888184,8|0,0:0|0:0,0:0:0:0:
304,72,121247,1,2,0:0:0:0:
256,140,121420,5,0,0:0:0:0:
256,140,121765,2,0,P|228:109|224:80,1,60.0000022888184,2|0,0:0|0:0,0:0:0:0:
240,8,122109,1,8,0:0:0:0:
156,76,122282,2,0,L|160:216,1,120.000004577637,2|0,0:0|0:0,0:0:0:0:
164,280,122799,1,0,0:0:0:0:
236,188,122972,2,0,P|248:129|228:68,1,120.000004577637,2|0,0:0|0:0,0:0:0:0:
160,24,123489,5,2,0:0:0:0:
236,188,123661,1,2,0:0:0:0:
104,72,123834,1,2,0:0:0:0:
180,236,124006,1,2,0:0:0:0:
20,176,124178,5,0,0:0:0:0:
20,176,124523,2,0,L|28:260,1,60.0000022888184,2|0,0:0|0:0,0:0:0:0:
78,301,124868,1,8,0:0:0:0:
180,236,125041,2,0,P|242:217|299:226,1,120.000004577637,2|0,0:0|0:0,0:0:0:0:
360,288,125558,1,0,0:0:0:0:
448,308,125730,1,2,0:0:0:0:
448,308,126075,1,2,0:0:0:0:
392,216,126247,2,0,L|396:136,1,60.0000022888184,8|0,0:0|0:0,0:0:0:0:
488,16,126765,1,2,0:0:0:0:
440,88,126937,5,0,0:0:0:0:
440,88,127282,2,0,L|376:84,1,60.0000022888184,2|0,0:0|0:0,0:0:0:0:
316,140,127627,1,8,0:0:0:0:
207,87,127799,2,0,P|150:75|93:93,1,120.000004577637,2|0,0:0|0:0,0:0:0:0:
40,160,128316,6,0,L|52:352,1,180.000006866455,2|0,0:0|0:0,0:0:0:0:
136,332,129006,1,2,0:0:0:0:
124,176,129178,1,2,0:0:0:0:
280,164,129351,1,2,0:0:0:0:
292,320,129523,1,2,0:0:0:0:
136,332,129696,6,0,P|145:254|124:176,1,160,2|0,0:0|0:0,0:0:0:0:
212,276,130385,6,0,P|204:204|175:132,1,136.000002593994,2|0,0:0|0:0,0:0:0:0:
272,212,131075,6,0,P|258:157|235:105,1,111.999996582031,2|0,0:0|0:0,0:0:0:0:
320,132,131765,6,0,P|300:85|272:40,1,88.000002685547,2|0,0:0|0:0,0:0:0:0:
445,235,132454,6,0,P|427:99|327:6,1,280,2|0,0:0|0:0,0:0:0:0:
184,6,133834,2,0,P|84:100|68:244,1,280,2|0,0:0|0:0,0:0:0:0:
119,341,135213,2,0,P|255:366|392:340,1,280,2|0,0:0|0:0,0:0:0:0:
464,240,136592,5,8,0:0:0:0:
464,240,136851,5,8,0:0:0:0:
464,240,137109,5,8,0:0:0:0:
344,284,137454,5,2,3:0:0:0:
256,164,137627,1,8,3:0:0:0:
168,284,137799,1,4,3:0:0:0:
152,76,137972,5,4,0:3:0:0:
256,164,138144,2,0,L|356:156,1,95.9999970703126,0|8,0:0|0:0,0:0:0:0:
484,144,138489,1,0,0:0:0:0:
344,244,138661,2,0,L|248:236,1,95.9999970703126,4|0,0:3|0:0,0:0:0:0:
96,164,139006,1,8,0:0:0:0:
96,164,139178,1,2,0:0:0:0:
156,296,139351,5,4,0:3:0:0:
204,136,139523,2,0,P|216:80|200:28,1,103.999995239258,0|8,0:0|0:0,0:0:0:0:
68,84,139868,1,0,0:0:0:0:
204,204,140041,2,0,L|316:200,1,103.999995239258,4|0,0:3|0:0,0:0:0:0:
472,108,140385,1,8,0:0:0:0:
472,108,140558,1,2,0:0:0:0:
488,264,140730,5,4,0:3:0:0:
308,200,140903,2,0,L|312:84,1,111.999996582031,0|8,0:0|0:0,0:0:0:0:
448,168,141247,1,0,0:0:0:0:
236,236,141420,2,0,L|240:120,1,111.999996582031,4|0,0:3|0:0,0:0:0:0:
384,192,141765,1,8,0:0:0:0:
384,192,141937,1,2,0:0:0:0:
172,268,142109,5,2,3:2:0:0:
28,208,142282,1,2,0:0:0:0:
48,364,142454,1,8,0:0:0:0:
172,268,142627,1,2,0:0:0:0:
28,140,142799,5,2,3:2:0:0:
111,317,142972,1,2,0:0:0:0:
208,116,143144,1,10,0:0:0:0:
304,336,143316,1,2,0:0:0:0:
472,164,143489,5,4,0:3:0:0:
380,28,143661,2,0,L|388:144,1,95.9999970703126,0|8,0:0|0:0,0:0:0:0:
396,260,144006,1,0,0:0:0:0:
308,112,144178,2,0,L|316:228,1,95.9999970703126,4|0,0:3|0:0,0:0:0:0:
404,364,144523,1,8,0:0:0:0:
404,364,144696,1,2,0:0:0:0:
456,224,144868,5,4,0:3:0:0:
287,280,145041,2,0,P|236:288|185:279,1,103.999995239258,0|8,0:0|0:0,0:0:0:0:
48,224,145385,1,0,0:0:0:0:
128,68,145558,2,0,B|140:119|140:119|128:169,1,103.999995239258,4|0,0:3|0:0,0:0:0:0:
72,340,145903,1,8,0:0:0:0:
72,340,146075,1,2,0:0:0:0:
16,196,146247,5,4,0:3:0:0:
184,278,146420,2,0,L|308:270,1,111.999996582031,0|8,0:0|0:0,0:0:0:0:
332,116,146765,1,0,0:0:0:0:
475,256,146937,2,0,L|364:264,1,111.999996582031,4|0,0:3|0:0,0:0:0:0:
220,128,147282,1,8,0:0:0:0:
220,128,147454,1,0,0:0:0:0:
164,276,147627,5,2,3:2:0:0:
348,276,147799,1,2,0:0:0:0:
348,92,147972,1,10,0:0:0:0:
164,92,148144,1,2,0:0:0:0:
256,296,148316,5,2,3:2:0:0:
448,180,148489,1,10,0:0:0:0:
164,92,148661,1,2,3:2:0:0:
448,180,148834,1,10,0:0:0:0:
264,224,149006,6,0,P|247:179|263:135,1,95.9999970703126,4|0,0:3|0:0,0:0:0:0:
312,292,149351,1,8,0:0:0:0:
312,292,149523,2,0,L|204:288,1,95.9999970703126,2|4,0:0|0:3,0:0:0:0:
100,216,149868,1,0,0:0:0:0:
224,356,150041,1,8,0:0:0:0:
224,356,150213,2,0,L|128:352,1,95.9999970703126,2|4,0:0|0:3,0:0:0:0:
12,280,150558,5,0,0:0:0:0:
144,168,150730,1,8,0:0:0:0:
144,168,150903,2,0,L|140:52,1,95.9999970703126,2|4,0:0|0:3,0:0:0:0:
20,132,151247,1,0,0:0:0:0:
172,240,151420,1,8,0:0:0:0:
172,240,151592,2,0,L|251:155,1,95.9999970703126,2|4,0:0|0:3,0:0:0:0:
108,136,151937,5,0,0:0:0:0:
256,252,152109,1,8,0:0:0:0:
256,252,152282,2,0,L|372:248,1,95.9999970703126,2|4,0:0|0:3,0:0:0:0:
300,124,152627,1,0,0:0:0:0:
470,166,152799,1,10,0:0:0:0:
470,166,152972,1,0,0:0:0:0:
356,0,153144,5,2,3:2:0:0:
208,124,153316,1,2,0:0:0:0:
352,248,153489,1,10,0:0:0:0:
180,332,153661,1,2,0:0:0:0:
332,128,153834,5,2,3:2:0:0:
95,205,154006,1,2,0:0:0:0:
242,4,154178,1,10,0:0:0:0:
242,253,154351,1,2,0:0:0:0:
95,51,154523,6,0,P|64:96|80:156,1,95.9999970703126,4|0,0:3|0:0,0:0:0:0:
136,300,154868,1,8,0:0:0:0:
136,300,155041,2,0,L|252:296,1,95.9999970703126,2|4,0:0|0:3,0:0:0:0:
256,158,155385,1,0,0:0:0:0:
376,300,155558,1,8,0:0:0:0:
376,300,155730,2,0,L|260:296,1,95.9999970703126,2|4,0:0|0:3,0:0:0:0:
256,158,156075,5,0,0:0:0:0:
400,68,156247,1,8,0:0:0:0:
400,68,156420,2,0,P|424:116|428:168,1,95.9999970703126,2|4,0:0|0:3,0:0:0:0:
372,280,156765,1,0,0:0:0:0:
256,158,156937,1,8,0:0:0:0:
256,158,157109,2,0,P|262:110|284:68,1,95.9999970703126,2|4,0:0|0:3,0:0:0:0:
392,152,157454,5,0,0:0:0:0:
240,232,157627,1,8,0:0:0:0:
240,232,157799,2,0,P|194:202|180:156,1,95.9999970703126,2|4,0:0|0:3,0:0:0:0:
256,52,158144,1,0,0:0:0:0:
240,232,158316,1,10,0:0:0:0:
240,232,158489,1,0,0:0:0:0:
44,288,158661,5,2,0:0:0:0:
104,124,158834,1,2,0:0:0:0:
240,232,159006,1,10,0:0:0:0:
208,64,159178,1,2,0:0:0:0:
132,220,159351,5,2,0:0:0:0:
308,244,159523,1,2,0:0:0:0:
262,306,159696,1,10,0:0:0:0:
240,232,159868,1,2,0:0:0:0:
308,244,160041,5,4,0:0:0:0:
256,192,160127,12,0,162454,0:0:0:0:
256,192,162799,5,4,0:3:0:0:
160,224,162972,2,0,P|132:224|104:216,1,40,2|0,0:0|0:0,0:0:0:0:
40,160,163316,1,0,0:0:0:0:
148,108,163489,2,0,P|176:108|204:116,1,40,2|0,0:0|0:0,0:0:0:0:
364,108,164006,6,0,P|336:108|308:116,1,40,2|0,0:0|0:0,0:0:0:0:
256,184,164351,2,0,L|256:224,1,40,2|0,0:0|0:0,0:0:0:0:
256,324,164696,1,0,0:0:0:0:
344,272,164868,2,0,P|364:268|384:268,1,40,2|0,0:0|0:0,0:0:0:0:
500,316,165385,6,0,P|485:301|469:290,1,40,2|0,0:0|0:0,0:0:0:0:
448,192,165730,2,0,B|444:172|444:172|447:152,1,40,2|0,0:0|0:0,0:0:0:0:
480,60,166075,1,0,0:0:0:0:
368,104,166247,2,0,B|344:108|344:108|312:104,1,40,2|0,0:0|0:0,0:0:0:0:
256,40,166765,5,2,0:0:0:0:
184,108,166937,1,0,0:0:0:0:
256,180,167109,2,0,P|264:218|255:257,1,80,2|0,0:0|0:0,0:0:0:0:
185,329,167627,5,2,0:0:0:0:
70,247,167799,1,2,0:0:0:0:
150,133,167972,1,2,0:0:0:0:
264,214,168144,1,2,0:0:0:0:
168,232,168316,5,0,0:0:0:0:
150,133,168489,2,0,L|156:72,1,40,2|0,0:0|0:0,0:0:0:0:
256,120,168834,1,0,0:0:0:0:
362,133,169006,2,0,L|356:72,1,40,2|0,0:0|0:0,0:0:0:0:
372,252,169523,6,0,L|366:191,1,40,2|0,0:0|0:0,0:0:0:0:
440,144,169868,2,0,L|444:184,1,40,2|0,0:0|0:0,0:0:0:0:
456,284,170213,1,0,0:0:0:0:
384,364,170385,2,0,L|380:324,1,40,2|0,0:0|0:0,0:0:0:0:
128,364,170903,6,0,L|132:324,1,40,2|0,0:0|0:0,0:0:0:0:
196,248,171247,2,0,L|200:288,1,40,2|0,0:0|0:0,0:0:0:0:
256,372,171592,1,0,0:0:0:0:
312,288,171765,2,0,L|316:248,1,40,2|0,0:0|0:0,0:0:0:0:
196,248,172282,5,2,0:0:0:0:
256,328,172454,1,0,0:0:0:0:
316,248,172627,2,0,L|325:157,1,80,2|0,0:0|0:0,0:0:0:0:
300,72,173144,1,2,0:0:0:0:
184,152,173316,1,2,0:0:0:0:
323,168,173489,1,2,0:0:0:0:
240,112,173661,1,2,0:0:0:0:
284,264,173834,5,4,0:3:0:0:
284,264,174178,2,0,P|256:276|220:272,1,60.0000022888184,2|0,0:0|0:0,0:0:0:0:
136,244,174523,1,8,0:0:0:0:
200,88,174696,2,0,B|216:148|216:148|200:204,1,120.000004577637,2|0,0:0|0:0,0:0:0:0:
40,308,175385,1,2,0:0:0:0:
40,308,175730,1,2,0:0:0:0:
128,348,175903,2,0,L|208:340,1,60.0000022888184,8|0,0:0|0:0,0:0:0:0:
360,260,176420,1,0,0:0:0:0:
316,344,176592,5,0,0:0:0:0:
280,264,176765,2,0,L|284:196,1,60.0000022888184,2|0,0:0|0:0,0:0:0:0:
256,28,177282,1,8,0:0:0:0:
219,176,177454,2,0,P|162:191|105:177,1,120.000004577637,2|0,0:0|0:0,0:0:0:0:
292,136,178144,2,0,P|349:120|406:134,1,120.000004577637,2|0,0:0|0:0,0:0:0:0:
480,196,178661,5,2,0:0:0:0:
456,48,178834,1,2,0:0:0:0:
408,208,179006,1,2,0:0:0:0:
384,60,179178,1,2,0:0:0:0:
292,136,179351,5,0,0:0:0:0:
375,308,179696,2,0,P|356:330|329:342,1,60.0000022888184,2|0,0:0|0:0,0:0:0:0:
256,280,180041,1,8,0:0:0:0:
118,343,180213,2,0,P|71:308|66:250,1,120.000004577637,2|0,0:0|0:0,0:0:0:0:
124,68,180903,1,2,0:0:0:0:
124,68,181247,1,2,0:0:0:0:
208,112,181420,2,0,P|237:117|266:111,1,60.0000022888184,8|0,0:0|0:0,0:0:0:0:
48,16,181937,1,2,0:0:0:0:
36,112,182109,5,0,0:0:0:0:
48,200,182282,2,0,P|54:228|48:258,1,60.0000022888184,2|0,0:0|0:0,0:0:0:0:
224,292,182799,1,8,0:0:0:0:
180,148,182972,2,0,L|187:28,1,120.000004577637,2|0,0:0|0:0,0:0:0:0:
256,96,183489,1,0,0:0:0:0:
325,28,183661,2,0,L|332:148,1,120.000004577637,2|0,0:0|0:0,0:0:0:0:
312,240,184178,5,2,0:0:0:0:
180,148,184351,1,2,0:0:0:0:
331,147,184523,1,2,0:0:0:0:
200,240,184696,1,2,0:0:0:0:
220,84,184868,6,0,P|208:52|208:24,1,60.0000022888184,2|0,0:0|0:0,0:0:0:0:
292,84,185213,2,0,P|304:52|304:24,1,60.0000022888184,2|0,0:0|0:0,0:0:0:0:
212,152,185558,2,0,P|180:137|161:118,1,60.0000022888184,2|0,0:0|0:0,0:0:0:0:
300,152,185903,2,0,P|331:137|350:118,1,60.0000022888184,2|0,0:0|0:0,0:0:0:0:
216,224,186247,2,0,P|180:220|136:208,1,60.0000022888184,2|0,0:0|0:0,0:0:0:0:
296,224,186592,2,0,P|332:220|376:208,1,60.0000022888184,2|0,0:0|0:0,0:0:0:0:
216,292,186937,2,0,L|132:284,1,60.0000022888184,2|0,0:0|0:0,0:0:0:0:
296,292,187282,2,0,L|380:284,1,60.0000022888184,2|0,0:0|0:0,0:0:0:0:
156,286,187627,5,2,0:0:0:0:
52,196,187799,1,2,0:0:0:0:
188,228,187972,1,2,0:0:0:0:
121,107,188144,1,2,0:0:0:0:
236,184,188316,1,2,0:0:0:0:
214,47,188489,1,2,0:0:0:0:
296,160,188661,1,2,0:0:0:0:
322,23,188834,1,2,0:0:0:0:
360,180,189006,5,2,0:0:0:0:
179,114,189178,1,2,0:0:0:0:
286,241,189351,1,2,0:0:0:0:
343,84,189523,1,2,0:0:0:0:
196,208,189696,1,2,0:0:0:0:
253,52,189868,1,2,0:0:0:0:
256,192,190041,12,0,193144,0:0:0:0:
