osu file format v14

[General]
AudioFilename: audio.mp3
AudioLeadIn: 0
PreviewTime: 32622
Countdown: 0
SampleSet: Soft
StackLeniency: 0.7
Mode: 0
LetterboxInBreaks: 0
WidescreenStoryboard: 0

[Editor]
DistanceSpacing: 1.1
BeatDivisor: 2
GridSize: 4
TimelineZoom: 1

[Metadata]
Title:STARS ALIGN
TitleUnicode:STARS ALIGN
Artist:dark cat
ArtistUnicode:dark cat
Creator:Nozhomi
Version:Normal
Source:
Tags:featured artist catstep dnb drum and bass
BeatmapID:1282754
BeatmapSetID:606998

[Difficulty]
HPDrainRate:3
CircleSize:3
OverallDifficulty:4
ApproachRate:5
SliderMultiplier:1
SliderTickRate:1

[Events]
//Background and Video events
0,0,"stars.jpg",0,0
//Break Periods
2,58172,60909
2,63689,66427
//Storyboard Layer 0 (Background)
//Storyboard Layer 1 (Fail)
//Storyboard Layer 2 (Pass)
//Storyboard Layer 3 (Foreground)
//Storyboard Sound Samples

[TimingPoints]
41,344.827586206897,4,2,1,60,1,0
4178,-125,4,2,1,60,0,0
27627,-125,4,2,1,50,0,0
31765,-125,4,2,1,60,0,0
32023,-125,4,2,1,45,0,0
32282,-125,4,2,1,30,0,0
32627,-125,4,2,1,70,0,0
33144,-100,4,2,1,80,0,1
54523,-100,4,2,1,70,0,1
54868,-100,4,2,1,60,0,1
55213,-100,4,2,1,80,0,0
62109,-125,4,2,1,60,0,0
67627,-125,4,2,1,70,0,0
78920,-125,4,2,1,50,0,0
79178,-125,4,2,1,60,0,0
88661,-125,4,2,1,50,0,0
89006,-125,4,2,1,55,0,0
89351,-125,4,2,1,60,0,0
89696,-125,4,2,1,65,0,0
91075,-125,4,2,1,70,0,0
99351,-125,4,2,1,60,0,0
99696,-125,4,2,1,50,0,0
100041,-125,4,2,1,55,0,0
100385,-125,4,2,1,60,0,0
100730,-125,4,2,1,65,0,0
102282,-125,4,2,1,40,0,0
106247,-125,4,2,1,10,0,0
107627,-125,4,2,1,60,0,0
129696,-125,4,2,1,70,0,0
130385,-125,4,2,1,60,0,0
131075,-125,4,2,1,50,0,0
131765,-125,4,2,1,40,0,0
132454,-125,4,2,1,50,0,0
136592,-125,4,2,1,60,0,0
136851,-125,4,2,1,45,0,0
137109,-125,4,2,1,30,0,0
137454,-125,4,2,1,70,0,0
137972,-100,4,2,1,80,0,1
159351,-100,4,2,1,70,0,1
159696,-100,4,2,1,60,0,1
160041,-125,4,2,1,60,0,0
162454,-125,4,2,1,20,0,0
162799,-125,4,2,1,60,0,0
173834,-125,4,2,1,70,0,0
184868,-125,4,2,1,60,0,0
190730,-125,4,2,1,55,0,0
191075,-125,4,2,1,50,0,0
191420,-125,4,2,1,45,0,0
191765,-125,4,2,1,40,0,0
192109,-125,4,2,1,35,0,0
192454,-125,4,2,1,30,0,0
192799,-125,4,2,1,20,0,0
192972,-125,4,2,1,5,0,0

[Colours]
Combo1 : 215,169,11
Combo2 : 10,211,222
Combo3 : 147,53,202
Combo4 : 27,30,158

[HitObjects]
72,88,4868,5,2,0:0:0:0:
144,140,5213,1,2,0:0:0:0:
216,88,5558,6,0,P|280:64|376:96,1,160,4|0,0:3|0:0,0:0:0:0:
436,200,6765,2,0,L|448:336,2,120,2|2|2,0:0|0:0|0:0,0:0:0:0:
332,284,8316,6,0,B|256:300|256:300|175:283,1,160,2|0,0:0|0:0,0:0:0:0:
80,192,9523,2,0,L|86:72,1,120,2|2,0:0|0:0,0:0:0:0:
160,24,10385,1,2,0:0:0:0:
208,96,10730,1,2,0:0:0:0:
292,124,11075,5,4,0:3:0:0:
372,88,11420,2,0,P|380:120|359:179,1,80,2|2,0:0|0:0,0:0:0:0:
240,192,12282,2,0,L|116:196,2,120,2|2|2,0:0|0:0|0:0,0:0:0:0:
344,276,13834,6,0,L|184:280,1,160,2|0,0:0|0:0,0:0:0:0:
64,224,15041,2,0,P|49:281|73:352,1,120,2|2,0:0|0:0,0:0:0:0:
148,360,15903,1,2,0:0:0:0:
184,280,16247,1,2,0:0:0:0:
256,328,16592,6,0,P|336:344|432:312,1,160,4|8,0:3|0:0,0:0:0:0:
464,204,17799,2,0,B|468:159|468:159|461:123|461:123|464:71,2,120,2|2|2,0:0|0:0|0:0,0:0:0:0:
411,325,19351,6,0,P|342:262|336:173,1,160,2|8,0:0|0:0,0:0:0:0:
367,72,20558,2,0,P|310:88|252:76,1,120,2|2,0:0|0:0,0:0:0:0:
180,28,21420,1,10,0:0:0:0:
92,28,21765,1,2,0:0:0:0:
92,116,22109,5,4,0:3:0:0:
180,116,22454,2,0,L|180:200,1,80,2|8,0:0|0:0,0:0:0:0:
312,208,23316,2,0,L|312:88,2,120,2|2|2,0:0|0:0|0:0,0:0:0:0:
256,328,24868,5,2,0:0:0:0:
212,252,25213,1,0,0:0:0:0:
136,296,25558,2,0,P|81:315|25:297,2,120,8|2|2,0:0|0:0|0:0,0:0:0:0:
212,252,26937,1,2,0:0:0:0:
236,168,27282,1,2,0:0:0:0:
256,192,27627,12,8,31765,0:0:0:0:
256,44,33144,5,4,0:3:0:0:
192,136,33489,2,0,P|149:78|149:15,2,100,8|4|8,0:0|0:3|0:0,0:0:0:0:
256,44,34523,1,4,0:3:0:0:
320,136,34868,2,0,P|363:78|363:15,2,100,8|4|8,0:0|0:3|0:0,0:0:0:0:
212,124,35903,5,4,0:3:0:0:
256,224,36247,2,0,L|256:340,2,100,8|4|8,0:0|0:3|0:0,0:0:0:0:
148,212,37282,2,0,P|78:236|7:214,2,150,2|2|10,3:2|0:0|0:0,0:0:0:0:
212,124,38661,5,4,0:3:0:0:
296,52,39006,2,0,P|348:40|404:56,2,100,8|4|8,0:0|0:3|0:0,0:0:0:0:
212,124,40041,1,4,0:3:0:0:
316,152,40385,2,0,L|428:148,1,100,8|4,0:0|0:3,0:0:0:0:
504,216,41075,1,8,0:0:0:0:
412,276,41420,6,0,L|312:279,1,100,4|8,0:3|0:0,0:0:0:0:
260,376,42109,2,0,L|359:372,1,100,4|8,0:3|0:0,0:0:0:0:
467,348,42799,2,0,P|500:282|477:213,2,150,2|2|2,3:2|0:0|3:2,0:0:0:0:
388,276,44178,5,4,0:3:0:0:
320,188,44523,2,0,L|212:180,1,100,8|4,0:0|0:3,0:0:0:0:
288,268,45213,2,0,L|188:260,1,100,8|4,0:0|0:3,0:0:0:0:
256,348,45903,2,0,L|148:340,1,100,8|4,0:0|0:3,0:0:0:0:
48,332,46592,1,8,0:0:0:0:
68,224,46937,5,4,0:3:0:0:
8,132,47282,2,0,P|-2:81|12:35,1,100,8|4,0:0|0:3,0:0:0:0:
108,88,47972,1,10,0:0:0:0:
207,40,48316,2,0,P|256:29|305:38,1,100,2|10,3:2|0:0,0:0:0:0:
409,78,49006,2,0,P|438:117|451:165,1,100,2|10,3:2|0:0,0:0:0:0:
420,272,49696,5,4,0:3:0:0:
332,340,50041,2,0,P|280:360|224:345,1,100,8|4,0:0|0:3,0:0:0:0:
272,246,50730,2,0,P|219:218|191:173,1,100,8|4,0:0|0:3,0:0:0:0:
296,136,51420,2,0,P|276:82|290:31,1,100,8|4,0:0|0:3,0:0:0:0:
391,76,52109,1,8,0:0:0:0:
396,188,52454,5,4,0:3:0:0:
300,244,52799,2,0,L|160:236,1,100,8|4,0:0|0:3,0:0:0:0:
88,236,53489,1,10,0:0:0:0:
146,143,53834,2,0,L|295:150,2,150,2|2|10,3:2|0:0|0:0,0:0:0:0:
56,80,55213,5,4,0:0:0:0:
256,192,55385,12,4,57972,0:3:0:0:
42,145,62109,6,0,B|82:137|82:137|122:149|178:145,1,120,2|0,0:0|0:0,0:0:0:0:
204,140,62799,1,2,0:0:0:0:
256,68,63144,1,2,0:0:0:0:
308,140,63489,5,4,0:3:0:0:
468,276,67627,6,0,B|432:280|432:280|392:272|392:272|356:284|324:280,1,120,2|0,0:0|0:0,0:0:0:0:
308,272,68316,1,2,0:0:0:0:
256,200,68661,1,2,0:0:0:0:
204,272,69006,5,4,0:3:0:0:
156,104,69696,1,8,0:0:0:0:
321,167,71075,1,8,0:0:0:0:
256,332,72454,1,8,0:0:0:0:
191,168,73144,2,0,P|256:128|321:168,1,160,2|10,0:0|0:0,0:0:0:0:
368,244,74178,1,2,0:0:0:0:
404,164,74523,6,0,P|388:120|360:88,1,80,4|2,0:3|0:0,0:0:0:0:
288,52,75213,2,0,P|241:47|200:59,1,80,8|2,0:0|0:0,0:0:0:0:
140,108,75903,2,0,P|113:146|102:187,1,80,4|2,0:3|0:0,0:0:0:0:
128,264,76592,2,0,P|151:304|184:331,1,80,8|0,0:0|0:0,0:0:0:0:
258,360,77282,6,0,B|339:370|397:298|397:298|324:243|247:272,1,320,4|4,0:3|0:3,0:0:0:0:
84,352,79351,1,2,0:0:0:0:
131,278,79696,1,2,0:0:0:0:
96,200,80041,5,4,0:3:0:0:
96,200,80213,2,0,P|80:132|104:72,1,120,2|2,0:0|0:0,0:0:0:0:
212,144,81247,1,2,0:0:0:0:
288,100,81592,2,0,P|346:87|405:97,1,120,2|2,0:0|0:0,0:0:0:0:
449,223,82627,5,2,0:0:0:0:
405,301,82972,2,0,P|346:313|288:304,1,120,2|2,0:0|0:0,0:0:0:0:
200,213,84006,1,2,0:0:0:0:
200,213,84178,2,0,P|184:145|217:81,2,120,2|0|2,0:0|0:0|0:0,0:0:0:0:
292,216,85558,5,0,0:0:0:0:
292,216,85730,2,0,L|288:96,1,120,2|2,0:0|0:0,0:0:0:0:
180,168,86765,1,2,0:0:0:0:
204,252,87110,2,0,P|232:292|312:308,1,120,2|2,0:0|0:0,0:0:0:0:
404,168,88316,6,0,L|288:176,1,80,4|2,0:3|0:0,0:0:0:0:
272,104,89006,2,0,L|156:112,1,80,2|2,0:0|0:0,0:0:0:0:
147,184,89696,2,0,B|7:194,2,120,4|4|2,0:3|0:3|3:2,0:0:0:0:
236,184,91075,5,4,0:3:0:0:
236,184,91247,2,0,P|224:236|236:304,1,120,2|2,0:0|0:0,0:0:0:0:
356,352,92282,1,2,0:0:0:0:
352,264,92627,2,0,L|348:132,1,120,2|2,0:0|0:0,0:0:0:0:
476,108,93661,5,2,0:0:0:0:
472,196,94006,2,0,L|468:316,1,120,2|2,0:0|0:0,0:0:0:0:
352,264,95041,1,2,0:0:0:0:
352,264,95213,2,0,L|348:132,2,120,2|0|2,0:0|0:0|0:0,0:0:0:0:
288,324,96592,5,0,0:0:0:0:
287,325,96764,2,0,P|232:344|176:324,1,120,2|2,0:0|0:0,0:0:0:0:
92,220,97799,1,2,0:0:0:0:
168,172,98144,2,0,L|300:168,1,120,2|2,0:0|0:0,0:0:0:0:
444,96,99351,6,0,P|470:131|472:178,1,80,4|2,0:3|0:0,0:0:0:0:
468,256,100041,2,0,P|461:299|429:333,1,80,2|2,0:0|0:0,0:0:0:0:
356,352,100731,2,0,B|212:364,2,120,4|4|2,0:3|0:3|3:2,0:0:0:0:
440,328,102109,5,4,0:3:0:0:
256,192,102282,12,0,106247,0:0:0:0:
48,36,107627,6,0,L|98:131,1,80,2|0,0:0|0:0,0:0:0:0:
158,165,108316,1,2,0:0:0:0:
158,165,108489,2,0,L|195:236,1,80,2|0,0:0|0:0,0:0:0:0:
241,312,109178,1,2,0:0:0:0:
292,240,109523,2,0,L|254:168,1,80,2|0,0:0|0:0,0:0:0:0:
312,102,110213,2,0,L|349:173,1,80,2|0,0:0|0:0,0:0:0:0:
412,288,111075,5,2,0:0:0:0:
412,288,111247,2,0,P|372:268|308:272,1,80,2|0,0:0|0:0,0:0:0:0:
248,268,111937,2,0,P|208:288|144:284,1,80,2|0,0:0|0:0,0:0:0:0:
128,284,112454,1,2,0:0:0:0:
68,220,112799,1,2,0:0:0:0:
12,152,113144,6,0,P|62:132|116:152,1,80
164,176,113833,1,2,0:0:0:0:
164,176,114006,2,0,L|252:172,1,80,2|0,0:0|0:0,0:0:0:0:
332,168,114695,1,2,0:0:0:0:
296,248,115040,2,0,L|216:252,1,80,2|0,0:0|0:0,0:0:0:0:
264,328,115730,2,0,P|302:334|372:288,1,120,2|2,0:0|0:0,0:0:0:0:
427,226,116592,5,2,0:0:0:0:
427,226,116764,2,0,L|423:146,1,80,2|0,0:0|0:0,0:0:0:0:
412,104,117282,2,0,P|464:84|492:20,2,120,2|0|2,0:0|0:0|0:0,0:0:0:0:
336,152,118661,6,0,L|332:48,1,80,2|0,0:0|0:0,0:0:0:0:
272,16,119350,1,8,0:0:0:0:
272,16,119523,2,0,P|232:12|188:24,1,80,2|0,0:0|0:0,0:0:0:0:
120,72,120212,1,2,0:0:0:0:
200,108,120558,2,0,P|240:112|284:100,1,80,2|0,0:0|0:0,0:0:0:0:
360,68,121247,1,2,0:0:0:0:
360,68,121420,2,0,L|356:168,1,80,0|2,0:0|0:0,0:0:0:0:
420,208,122109,5,8,0:0:0:0:
420,208,122282,2,0,L|416:308,1,80,2|0,0:0|0:0,0:0:0:0:
424,332,122799,2,0,P|364:320|304:336,1,120
268,352,123488,1,2,0:0:0:0:
228,272,123833,1,2,0:0:0:0:
156,320,124178,6,0,P|142:278|150:232,1,80
183,164,124867,1,8,0:0:0:0:
183,164,125040,2,0,P|191:124|183:84,1,80,2|0,0:0|0:0,0:0:0:0:
124,20,125729,1,2,0:0:0:0:
63,85,126075,2,0,P|56:125|64:164,1,80,2|0,0:0|0:0,0:0:0:0:
104,244,126765,1,2,0:0:0:0:
104,244,126937,2,0,P|126:276|159:298,1,80,0|2,0:0|0:0,0:0:0:0:
244,328,127627,5,8,0:0:0:0:
244,328,127799,2,0,P|282:335|321:327,1,80,2|0,0:0|0:0,0:0:0:0:
360,304,128317,2,0,B|370:247|370:247|356:172,1,120,2|0,0:0|0:0,0:0:0:0:
340,144,129006,1,2,0:0:0:0:
264,192,129351,1,2,0:0:0:0:
264,104,129696,6,0,L|248:20,1,80,2|0,0:0|0:0,0:0:0:0:
176,76,130385,2,0,L|105:27,1,80,2|0,0:0|0:0,0:0:0:0:
96,120,131075,2,0,L|12:135,1,80,2|0,0:0|0:0,0:0:0:0:
68,208,131765,2,0,L|19:278,1,80,2|0,0:0|0:0,0:0:0:0:
256,192,132454,12,8,136592,0:0:0:0:
24,176,137972,6,0,P|52:221|117:246,1,100,4|8,0:3|0:0,0:0:0:0:
200,272,138661,1,4,0:3:0:0:
256,176,139006,1,8,0:0:0:0:
312,272,139351,2,0,P|321:325|312:372,1,100,4|8,0:3|0:0,0:0:0:0:
199,369,140041,2,0,P|190:320|200:272,1,100,4|8,0:3|0:0,0:0:0:0:
256,176,140730,6,0,L|252:64,1,100,4|8,0:3|0:0,0:0:0:0:
148,44,141420,2,0,L|144:143,1,100,4|8,0:3|0:0,0:0:0:0:
36,160,142109,2,0,P|20:87|46:18,2,150,2|2|10,3:2|0:0|0:0,0:0:0:0:
112,240,143489,6,0,L|220:236,1,100,4|8,0:3|0:0,0:0:0:0:
256,336,144178,1,4,0:3:0:0:
364,328,144523,1,8,0:0:0:0:
396,224,144868,2,0,B|400:112,1,100,4|8,0:3|0:0,0:0:0:0:
316,52,145558,2,0,B|312:151,1,100,4|8,0:3|0:0,0:0:0:0:
200,152,146247,6,0,B|196:52,1,100,4|8,0:3|0:0,0:0:0:0:
112,124,146937,2,0,B|115:223,1,100,4|8,0:3|0:0,0:0:0:0:
168,320,147627,2,0,P|240:348|320:332,2,150,2|2|2,3:2|0:0|3:2,0:0:0:0:
115,223,149006,5,4,0:3:0:0:
224,208,149351,2,0,P|272:196|323:200,1,100,8|4,0:0|0:3,0:0:0:0:
432,208,150041,2,0,P|397:172|375:125,1,100,8|4,0:0|0:3,0:0:0:0:
328,28,150730,2,0,P|314:75|284:118,1,100,8|4,0:0|0:3,0:0:0:0:
224,208,151420,1,8,0:0:0:0:
144,132,151765,5,4,0:3:0:0:
124,240,152110,2,0,P|146:283|189:308,1,100,8|4,0:0|0:3,0:0:0:0:
256,220,152800,1,10,0:0:0:0:
322,308,153144,2,0,P|365:283|388:240,1,100,2|10,3:2|0:0,0:0:0:0:
388,128,153834,2,0,P|363:85|319:62,1,100,2|10,3:2|0:0,0:0:0:0:
212,48,154524,5,4,0:3:0:0:
208,160,154869,2,0,L|204:276,1,100,8|4,0:0|0:3,0:0:0:0:
128,340,155558,2,0,P|98:292|97:235,1,100,8|4,0:0|0:3,0:0:0:0:
96,140,156247,2,0,P|113:93|150:60,1,100,8|4,0:0|0:3,0:0:0:0:
256,28,156937,1,8,0:0:0:0:
344,96,157282,5,4,0:3:0:0:
256,164,157627,2,0,B|244:215|244:215|255:261,1,100,8|4,0:0|0:3,0:0:0:0:
296,364,158317,1,10,0:0:0:0:
364,276,158661,5,2,0:0:0:0:
396,172,159005,1,10,0:0:0:0:
284,173,159350,1,2,0:0:0:0:
223,80,159695,1,10,0:0:0:0:
116,51,160041,6,0,P|82:276|284:172,1,560,4|0,0:0|0:0,0:0:0:0:
284,84,162799,5,4,0:3:0:0:
284,84,162972,2,0,P|240:93|210:136,1,80,2|0,0:0|0:0,0:0:0:0:
196,156,163489,1,2,0:0:0:0:
288,253,164007,2,0,L|284:174,1,80,2|2,0:0|0:0,0:0:0:0:
328,48,164868,1,2,0:0:0:0:
364,176,165385,6,0,L|368:255,1,80,2|2,0:0|0:0,0:0:0:0:
492,204,166247,1,2,0:0:0:0:
440,84,166765,1,2,0:0:0:0:
363,132,167109,2,0,P|325:141|286:134,1,80,2|0,0:0|0:0,0:0:0:0:
248,112,167627,1,2,0:0:0:0:
188,48,167972,1,2,0:0:0:0:
132,116,168316,5,0,0:0:0:0:
132,116,168489,2,0,L|136:208,1,80,2|0,0:0|0:0,0:0:0:0:
140,240,169006,1,2,0:0:0:0:
268,276,169524,2,0,P|273:234|261:188,1,80,2|2,0:0|0:0,0:0:0:0:
164,110,170385,1,2,0:0:0:0:
71,202,170903,6,0,P|102:227|140:239,1,80,2|2,0:0|0:0,0:0:0:0:
265,197,171764,1,2,0:0:0:0:
388,240,172282,1,2,0:0:0:0:
312,288,172627,2,0,P|276:300|212:280,1,80,2|0,0:0|0:0,0:0:0:0:
196,276,173144,1,2,0:0:0:0:
128,220,173489,1,2,0:0:0:0:
128,132,173834,6,0,L|140:36,1,80,4|2,0:3|0:0,0:0:0:0:
220,84,174523,1,8,0:0:0:0:
220,84,174696,2,0,L|229:163,1,80,2|0,0:0|0:0,0:0:0:0:
244,252,175385,1,2,0:0:0:0:
324,220,175730,1,2,0:0:0:0:
324,220,175903,2,0,P|380:200|440:216,1,120,8|0,0:0|0:0,0:0:0:0:
505,270,176765,5,0,0:0:0:0:
437,325,177110,1,0,0:0:0:0:
437,325,177282,2,0,P|379:339|324:320,1,120,8|0,0:0|0:0,0:0:0:0:
268,252,178144,2,0,L|272:148,1,80,2|0,0:0|0:0,0:0:0:0:
276,128,178661,1,2,0:0:0:0:
336,64,179006,1,2,0:0:0:0:
252,36,179351,6,0,L|172:42,1,80,0|2,0:0|0:0,0:0:0:0:
96,88,180040,1,8,0:0:0:0:
96,88,180213,2,0,B|104:128|104:128|97:166,1,80,2|0,0:0|0:0,0:0:0:0:
60,248,180902,1,2,0:0:0:0:
148,248,181247,1,2,0:0:0:0:
148,248,181420,2,0,P|186:197|188:123,1,120,8|2,0:0|0:0,0:0:0:0:
180,56,182282,5,0,0:0:0:0:
266,92,182627,1,0,0:0:0:0:
266,92,182799,2,0,P|283:158|270:216,1,120,8|0,0:0|0:0,0:0:0:0:
248,292,183661,2,0,P|296:284|340:284,1,80,2|0,0:0|0:0,0:0:0:0:
372,292,184178,1,2,0:0:0:0:
440,348,184523,1,2,0:0:0:0:
488,276,184868,6,0,L|480:176,1,80,2|2,0:0|0:0,0:0:0:0:
396,216,185558,2,0,L|389:136,1,80,2|2,0:0|0:0,0:0:0:0:
304,152,186247,2,0,L|296:52,1,80,2|2,0:0|0:0,0:0:0:0:
212,92,186937,2,0,L|205:12,1,80,2|2,0:0|0:0,0:0:0:0:
128,56,187627,6,0,P|124:36|124:16,2,40,2|2|2,0:0|0:0|0:0,0:0:0:0:
88,136,188316,2,0,P|71:124|57:110,2,40,2|2|2,0:0|0:0|0:0,0:0:0:0:
116,220,189006,2,0,P|96:224|76:223,2,40,2|2|2,0:0|0:0|0:0,0:0:0:0:
192,264,189696,2,0,P|180:280|166:294,1,40,2|2,0:0|0:0,0:0:0:0:
256,192,190041,12,0,193144,0:0:0:0:
