osu file format v14

[General]
AudioFilename: audio.mp3
AudioLeadIn: 0
PreviewTime: 32622
Countdown: 0
SampleSet: Soft
StackLeniency: 0.5
Mode: 0
LetterboxInBreaks: 0
WidescreenStoryboard: 0

[Editor]
DistanceSpacing: 1.4
BeatDivisor: 4
GridSize: 4
TimelineZoom: 1

[Metadata]
Title:STARS ALIGN
TitleUnicode:STARS ALIGN
Artist:dark cat
ArtistUnicode:dark cat
Creator:Nozhomi
Version:Insane
Source:
Tags:featured artist catstep dnb drum and bass
BeatmapID:1324653
BeatmapSetID:606998

[Difficulty]
HPDrainRate:5.5
CircleSize:4
OverallDifficulty:7.2
ApproachRate:8.8
SliderMultiplier:1.6
SliderTickRate:1

[Events]
//Background and Video events
0,0,"stars.jpg",0,0
//Break Periods
2,58172,61480
2,63689,66998
//Storyboard Layer 0 (Background)
//Storyboard Layer 1 (Fail)
//Storyboard Layer 2 (Pass)
//Storyboard Layer 3 (Foreground)
//Storyboard Sound Samples

[TimingPoints]
41,344.827586206897,4,2,1,60,1,0
4868,-133.333333333333,4,2,1,60,0,0
11420,-100,4,2,1,60,0,0
11765,-117.647058823529,4,2,1,60,0,0
12282,-133.333333333333,4,2,1,60,0,0
22454,-111.111111111111,4,2,1,60,0,0
23316,-133.333333333333,4,2,1,60,0,0
27627,-200,4,2,1,50,0,0
28834,-200,4,2,1,10,0,0
29006,-200,4,2,1,50,0,0
30213,-200,4,2,1,10,0,0
30385,-200,4,2,1,50,0,0
31592,-200,4,2,1,10,0,0
31765,-200,4,2,1,60,0,0
32023,-200,4,2,1,45,0,0
32282,-200,4,2,1,30,0,0
32627,-100,4,2,1,70,0,0
33144,-100,4,2,1,80,0,1
54523,-100,4,2,1,70,0,1
54868,-100,4,2,1,60,0,1
55213,-133.333333333333,4,2,1,80,0,0
62109,-133.333333333333,4,2,1,60,0,0
67627,-133.333333333333,4,2,1,70,0,0
78920,-133.333333333333,4,2,1,50,0,0
79178,-133.333333333333,4,2,1,60,0,0
80041,-200,4,2,1,60,0,0
88661,-166.666666666667,4,2,1,50,0,0
89006,-142.857142857143,4,2,1,55,0,0
89351,-125,4,2,1,60,0,0
89696,-111.111111111111,4,2,1,65,0,0
91075,-133.333333333333,4,2,1,70,0,0
99351,-200,4,2,1,60,0,0
99696,-166.666666666667,4,2,1,50,0,0
100041,-142.857142857143,4,2,1,55,0,0
100385,-125,4,2,1,60,0,0
100730,-111.111111111111,4,2,1,65,0,0
102282,-100,4,2,1,40,0,0
106247,-100,4,2,1,10,0,0
107627,-133.333333333333,4,2,1,60,0,0
129696,-100,4,2,1,70,0,0
130385,-117.647058823529,4,2,1,60,0,0
131075,-142.857142857143,4,2,1,50,0,0
131765,-181.818181818182,4,2,1,40,0,0
132454,-200,4,2,1,50,0,0
133661,-200,4,2,1,10,0,0
133834,-200,4,2,1,50,0,0
135041,-200,4,2,1,10,0,0
135213,-200,4,2,1,50,0,0
136420,-200,4,2,1,10,0,0
136592,-200,4,2,1,60,0,0
136851,-200,4,2,1,45,0,0
137109,-200,4,2,1,30,0,0
137454,-100,4,2,1,70,0,0
137972,-100,4,2,1,80,0,1
159351,-100,4,2,1,70,0,1
159696,-100,4,2,1,60,0,1
160041,-200,4,2,1,60,0,0
162454,-200,4,2,1,20,0,0
162799,-200,4,2,1,60,0,0
173834,-133.333333333333,4,2,1,70,0,0
184868,-133.333333333333,4,2,1,60,0,0
190730,-133.333333333333,4,2,1,55,0,0
191075,-133.333333333333,4,2,1,50,0,0
191420,-133.333333333333,4,2,1,45,0,0
191765,-133.333333333333,4,2,1,40,0,0
192109,-133.333333333333,4,2,1,35,0,0
192454,-133.333333333333,4,2,1,30,0,0
192799,-133.333333333333,4,2,1,20,0,0
192972,-133.333333333333,4,2,1,5,0,0

[Colours]
Combo1 : 215,169,11
Combo2 : 10,211,222
Combo3 : 147,53,202
Combo4 : 27,30,158

[HitObjects]
200,32,4868,6,0,P|194:61|200:90,1,60.0000022888184,2|2,0:0|0:0,0:0:0:0:
311,90,5213,2,0,P|317:61|312:31,1,60.0000022888184,2|2,0:0|0:0,0:0:0:0:
256,136,5558,6,0,B|224:256|288:256|256:372,1,240.000009155274,4|0,0:3|0:0,0:0:0:0:
84,140,6765,1,2,0:0:0:0:
428,140,7282,1,2,0:0:0:0:
108,156,7799,1,2,0:0:0:0:
404,156,8316,6,0,P|453:260|403:364,1,240.000009155274,2|0,0:0|0:0,0:0:0:0:
256,96,9523,1,2,0:0:0:0:
108,364,10040,1,2,0:0:0:0:
444,204,10385,2,0,L|440:272,1,60.0000022888184,2|2,0:0|0:0,0:0:0:0:
364,332,10730,2,0,L|361:273,1,60.0000022888184,2|2,0:0|0:0,0:0:0:0:
308,192,11075,5,4,0:3:0:0:
308,192,11420,2,0,P|260:184|208:204,1,80,2|0,0:0|0:0,0:0:0:0:
164,240,11765,2,0,P|132:248|80:244,1,68.0000012969971,2|0,0:0|0:0,0:0:0:0:
20,220,12109,1,0,0:0:0:0:
164,240,12282,5,2,0:0:0:0:
416,64,12799,1,2,0:0:0:0:
444,368,13316,1,2,0:0:0:0:
188,204,13834,6,0,B|196:60|196:60|224:104|280:136,1,240.000009155274,2|0,0:0|0:0,0:0:0:0:
508,52,15041,1,2,0:0:0:0:
272,248,15558,1,2,0:0:0:0:
196,60,15903,2,0,P|164:52|132:60,1,60.0000022888184,2|2,0:0|0:0,0:0:0:0:
140,148,16247,2,0,P|172:156|204:148,1,60.0000022888184,2|2,0:0|0:0,0:0:0:0:
56,112,16592,6,0,L|64:252,1,120.000004577637,4|0,0:3|0:0,0:0:0:0:
204,364,17282,1,8,0:0:0:0:
256,116,17799,1,2,0:0:0:0:
308,364,18316,2,0,P|338:302|312:240,1,120.000004577637,2|8,0:0|0:0,0:0:0:0:
272,194,18834,1,2,0:0:0:0:
272,194,19351,6,0,P|332:214|404:202,1,120.000004577637,2|0,0:0|0:0,0:0:0:0:
348,44,20041,1,8,0:0:0:0:
256,280,20558,1,2,0:0:0:0:
164,44,21075,1,2,0:0:0:0:
36,153,21420,2,0,L|112:149,1,60.0000022888184,10|2,0:0|0:0,0:0:0:0:
136,225,21765,2,0,L|212:221,1,60.0000022888184,2|2,0:0|0:0,0:0:0:0:
256,280,22109,5,4,0:3:0:0:
416,147,22454,2,0,P|424:113|415:78,1,71.9999978027344,2|0,0:0|0:0,0:0:0:0:
380,208,22799,2,0,P|371:242|379:277,1,71.9999978027344,8|0,0:0|0:0,0:0:0:0:
420,344,23144,1,0,0:0:0:0:
380,208,23316,1,2,0:0:0:0:
380,208,23834,2,0,P|312:192|252:224,1,120.000004577637,2|8,0:0|0:0,0:0:0:0:
188,276,24351,1,2,0:0:0:0:
188,276,24868,6,0,L|184:148,1,120.000004577637,2|0,0:0|0:0,0:0:0:0:
324,276,25558,2,0,L|327:156,1,120.000004577637,8|0,0:0|0:0,0:0:0:0:
336,72,26075,1,2,0:0:0:0:
177,131,26420,1,0,0:0:0:0:
201,211,26592,2,0,P|220:237|264:259,1,60.0000022888184,2|8,0:0|0:0,0:0:0:0:
324,276,26937,5,2,0:0:0:0:
436,236,27109,1,2,0:0:0:0:
414,354,27282,1,2,0:0:0:0:
324,276,27454,1,2,0:0:0:0:
231,336,27627,6,0,P|99:350|27:238,1,280,4|0,0:3|0:0,0:0:0:0:
27,238,29006,2,0,P|92:109|219:113,1,280,2|0,0:0|0:0,0:0:0:0:
213,109,30385,2,0,P|291:217|230:336,1,280,2|0,0:0|0:0,0:0:0:0:
231,336,31765,6,0,L|171:339,2,60,8|8|8,0:0|0:0|0:0,0:0:0:0:
332,148,32627,5,2,3:0:0:0:
387,205,32799,1,8,3:0:0:0:
310,223,32972,1,4,3:0:0:0:
428,108,33144,5,4,0:3:0:0:
488,192,33316,2,0,P|492:224|452:296,1,80,0|8,0:0|0:0,0:0:0:0:
392,328,33661,1,0,0:0:0:0:
295,289,33834,2,0,P|256:280|217:288,1,80,4|0,0:3|0:0,0:0:0:0:
120,328,34178,1,8,0:0:0:0:
120,328,34351,1,2,0:0:0:0:
128,208,34523,5,4,0:3:0:0:
217,288,34696,2,0,P|243:240|244:187,1,80,0|8,0:0|0:0,0:0:0:0:
192,108,35041,1,0,0:0:0:0:
128,208,35213,2,0,B|132:288,1,80,4|0,0:3|0:0,0:0:0:0:
44,368,35558,1,8,0:0:0:0:
44,368,35730,1,2,0:0:0:0:
4,236,35903,5,4,0:3:0:0:
132,288,36075,2,0,B|136:368,1,80,0|8,0:0|0:0,0:0:0:0:
246,287,36420,1,0,0:0:0:0:
132,212,36592,2,0,B|136:132,1,80,4|0,0:3|0:0,0:0:0:0:
220,24,36937,1,8,0:0:0:0:
220,24,37109,1,2,0:0:0:0:
348,76,37282,6,0,P|395:71|455:47,2,80,2|2|8,3:2|0:0|0:0,0:0:0:0:
220,24,37799,1,2,0:0:0:0:
240,160,37972,1,2,3:2:0:0:
348,76,38144,1,2,0:0:0:0:
368,212,38316,1,10,0:0:0:0:
240,160,38489,1,2,0:0:0:0:
348,76,38661,5,4,0:3:0:0:
420,152,38834,2,0,L|416:248,1,80,0|8,0:0|0:0,0:0:0:0:
412,336,39178,1,0,0:0:0:0:
324,276,39351,2,0,P|312:236|320:196,1,80,4|0,0:3|0:0,0:0:0:0:
368,108,39696,1,8,0:0:0:0:
368,108,39868,1,2,0:0:0:0:
438,207,40041,5,4,0:3:0:0:
319,199,40213,2,0,L|208:192,1,80,0|8,0:0|0:0,0:0:0:0:
120,184,40558,1,0,0:0:0:0:
172,76,40730,2,0,L|251:80,1,80,4|0,0:3|0:0,0:0:0:0:
368,108,41075,1,8,0:0:0:0:
368,108,41247,1,2,0:0:0:0:
268,204,41420,5,4,0:3:0:0:
252,80,41592,2,0,P|262:37|250:-3,1,80,0|8,0:0|0:0,0:0:0:0:
120,36,41937,1,0,0:0:0:0:
204,144,42109,2,0,P|248:160|300:140,1,80,4|0,0:3|0:0,0:0:0:0:
408,104,42454,1,8,0:0:0:0:
408,104,42627,1,2,0:0:0:0:
364,232,42799,6,0,L|372:340,2,80,2|2|10,3:2|0:0|0:0,0:0:0:0:
329,100,43316,1,2,0:0:0:0:
281,228,43489,1,2,3:2:0:0:
396,155,43661,1,10,0:0:0:0:
260,148,43834,1,2,3:2:0:0:
364,232,44006,1,10,0:0:0:0:
329,100,44178,6,0,P|299:70|236:68,1,80,4|0,0:3|0:0,0:0:0:0:
144,120,44523,1,8,0:0:0:0:
144,120,44696,2,0,P|133:160|162:216,1,80,2|4,0:0|0:3,0:0:0:0:
236,260,45041,1,0,0:0:0:0:
349,184,45213,1,8,0:0:0:0:
349,183,45386,2,0,P|360:145|349:108,1,80,2|4,0:0|0:3,0:0:0:0:
260,44,45730,5,0,0:0:0:0:
148,120,45903,1,8,0:0:0:0:
148,120,46075,2,0,L|60:116,1,80,2|4,0:0|0:3,0:0:0:0:
124,212,46420,1,0,0:0:0:0:
228,124,46592,1,8,0:0:0:0:
228,124,46764,2,0,L|316:128,1,80,2|4,0:0|0:3,0:0:0:0:
404,68,47109,5,0,0:0:0:0:
472,192,47282,1,8,0:0:0:0:
472,192,47454,2,0,P|474:233|448:288,1,80,2|4,0:0|0:3,0:0:0:0:
396,360,47799,1,0,0:0:0:0:
368,252,47972,2,0,P|366:211|392:156,1,80,10|0,0:0|0:0,0:0:0:0:
428,76,48316,6,0,L|348:84,2,80,2|2|10,3:2|0:0|0:0,0:0:0:0:
508,152,48833,1,2,0:0:0:0:
378,174,49006,1,2,3:2:0:0:
272,76,49178,1,2,0:0:0:0:
320,228,49351,1,10,0:0:0:0:
186,172,49523,1,2,0:0:0:0:
232,324,49696,6,0,L|236:244,1,80,4|0,0:3|0:0,0:0:0:0:
319,150,50041,1,8,0:0:0:0:
319,150,50213,2,0,P|329:189|320:228,1,80,2|4,0:0|0:3,0:0:0:0:
232,324,50558,1,0,0:0:0:0:
364,288,50730,1,8,0:0:0:0:
365,287,50902,2,0,P|388:254|397:214,1,80,2|4,0:0|0:3,0:0:0:0:
380,104,51247,5,0,0:0:0:0:
264,171,51420,1,8,0:0:0:0:
264,171,51592,2,0,B|223:180|223:180|185:171,1,80,2|4,0:0|0:3,0:0:0:0:
108,88,51937,1,0,0:0:0:0:
136,224,52109,1,8,0:0:0:0:
136,224,52282,2,0,B|144:264|144:264|128:328,1,80,2|4,0:0|0:3,0:0:0:0:
32,260,52627,5,0,0:0:0:0:
116,152,52799,1,8,0:0:0:0:
116,152,52972,2,0,L|224:164,1,80,2|4,0:0|0:3,0:0:0:0:
256,256,53316,1,0,0:0:0:0:
396,152,53489,2,0,L|296:164,1,80,10|0,0:0|0:0,0:0:0:0:
176,236,53834,6,0,L|96:226,2,80,2|2|10,3:2|0:0|0:0,0:0:0:0:
264,325,54351,1,2,0:0:0:0:
152,309,54523,1,2,0:0:0:0:
260,248,54696,1,2,0:0:0:0:
230,165,54868,1,10,0:0:0:0:
176,236,55041,1,2,3:2:0:0:
260,248,55213,5,4,0:0:0:0:
256,192,55299,12,4,57972,0:3:0:0:
336,316,62109,6,0,B|324:116,1,180.000006866455,2|0,0:0|0:0,0:0:0:0:
256,212,62799,2,0,L|258:271,1,60.0000022888184,2|2,0:0|0:0,0:0:0:0:
408,264,63144,2,0,L|405:204,1,60.0000022888184,2|2,0:0|0:0,0:0:0:0:
320,64,63489,5,4,0:3:0:0:
52,164,67627,6,0,B|108:160|140:184|140:184|176:148|244:160,1,180.000006866455,2|0,0:0|0:0,0:0:0:0:
300,184,68316,1,2,0:0:0:0:
209,260,68489,1,2,0:0:0:0:
320,300,68661,1,2,0:0:0:0:
300,184,68834,1,2,0:0:0:0:
200,272,69006,5,4,0:3:0:0:
256,40,69696,1,8,0:0:0:0:
312,272,71075,1,8,0:0:0:0:
104,112,72454,1,8,0:0:0:0:
408,112,73144,6,0,P|342:172|256:192,1,180.000006866455,2|0,0:0|0:0,0:0:0:0:
144,180,73834,1,10,0:0:0:0:
210,94,74006,1,2,0:0:0:0:
256,192,74178,1,2,0:0:0:0:
144,180,74351,1,2,0:0:0:0:
216,84,74523,5,4,0:3:0:0:
280,260,74868,1,2,0:0:0:0:
312,84,75213,1,8,0:0:0:0:
368,256,75558,1,2,0:0:0:0:
400,80,75903,1,4,0:3:0:0:
456,252,76247,1,2,0:0:0:0:
300,164,76592,1,8,0:0:0:0:
300,344,76937,1,0,0:0:0:0:
388,264,77109,1,2,0:0:0:0:
388,264,77196,1,0,0:0:0:0:
388,264,77282,6,0,L|384:200,1,60.0000022888184,4|0,0:3|0:0,0:0:0:0:
348,124,77627,2,0,L|344:64,1,60.0000022888184,2|0,0:0|0:0,0:0:0:0:
236,72,77972,2,0,L|240:136,1,60.0000022888184,8|0,0:0|0:0,0:0:0:0:
208,216,78317,2,0,L|212:276,1,60.0000022888184,2|0,0:0|0:0,0:0:0:0:
120,332,78661,6,0,P|76:344|20:324,2,90.0000034332277,4|8|8,0:3|0:0|0:0,0:0:0:0:
212,276,79351,5,2,0:0:0:0:
332,308,79523,1,2,0:0:0:0:
288,228,79696,1,2,0:0:0:0:
256,356,79868,1,2,0:0:0:0:
288,228,80041,5,4,0:3:0:0:
220,184,80213,2,0,L|176:188,1,40,2|0,0:0|0:0,0:0:0:0:
116,116,80558,1,0,0:0:0:0:
116,116,80730,2,0,L|156:112,1,40,2|0,0:0|0:0,0:0:0:0:
348,108,81247,6,0,P|340:84|324:64,1,40,2|0,0:0|0:0,0:0:0:0:
252,64,81592,2,0,P|235:82|225:106,1,40,2|0,0:0|0:0,0:0:0:0:
260,172,81937,1,0,0:0:0:0:
260,172,82109,2,0,P|284:177|310:173,1,40,2|0,0:0|0:0,0:0:0:0:
108,148,82627,6,0,P|83:142|57:146,1,40,2|0,0:0|0:0,0:0:0:0:
68,239,82972,2,0,P|88:240|108:236,1,40,2|0,0:0|0:0,0:0:0:0:
200,192,83316,1,0,0:0:0:0:
200,192,83489,2,0,L|196:140,1,40,2|0,0:0|0:0,0:0:0:0:
288,20,84006,5,2,0:0:0:0:
292,100,84178,2,0,L|299:219,1,120,2|0,0:0|0:0,0:0:0:0:
244,296,84868,1,2,0:0:0:0:
196,208,85041,1,2,0:0:0:0:
299,219,85213,1,2,0:0:0:0:
292,100,85385,1,2,0:0:0:0:
375,157,85558,5,0,0:0:0:0:
299,219,85730,2,0,L|250:213,1,40,2|0,0:0|0:0,0:0:0:0:
283,301,86075,1,0,0:0:0:0:
283,301,86247,2,0,L|244:296,1,40,2|0,0:0|0:0,0:0:0:0:
84,272,86765,6,0,L|133:278,1,40,2|0,0:0|0:0,0:0:0:0:
99,189,87109,2,0,L|148:195,1,40,2|0,0:0|0:0,0:0:0:0:
115,107,87454,1,0,0:0:0:0:
114,106,87626,2,0,L|153:111,1,40,2|0,0:0|0:0,0:0:0:0:
232,124,87972,6,0,L|291:116,1,60,0|0,0:0|0:0,0:0:0:0:
348,164,88316,6,0,P|328:180|300:192,1,40,4|0,0:3|0:0,0:0:0:0:
236,200,88661,2,0,P|212:198|179:180,1,47.9999985351563,2|0,0:0|0:0,0:0:0:0:
292,256,89006,2,0,P|296:284|290:311,1,55.9999982910157,2|0,0:0|0:0,0:0:0:0:
236,200,89351,2,0,P|232:172|240:136,1,64,2|0,0:0|0:0,0:0:0:0:
324,48,89696,6,0,P|254:67|168:60,1,143.999995605469,4|0,0:3|0:0,0:0:0:0:
44,20,90213,1,4,0:3:0:0:
80,160,90385,1,2,0:0:0:0:
183,63,90558,1,2,0:0:0:0:
80,160,90730,1,2,3:2:0:0:
44,20,90903,1,2,0:0:0:0:
4,164,91075,5,4,0:3:0:0:
123,63,91247,2,0,P|153:58|183:63,1,60.0000022888184,2|0,0:0|0:0,0:0:0:0:
256,140,91592,1,0,0:0:0:0:
329,63,91765,2,0,P|396:72|444:104,1,120.000004577637,2|0,0:0|0:0,0:0:0:0:
484,212,92282,6,0,L|480:276,1,60.0000022888184,2|0,0:0|0:0,0:0:0:0:
412,188,92627,2,0,L|408:252,1,60.0000022888184,2|0,0:0|0:0,0:0:0:0:
364,348,92972,1,0,0:0:0:0:
308,256,93144,2,0,P|296:188|336:124,1,120.000004577637,2|0,0:0|0:0,0:0:0:0:
312,260,93661,6,0,L|240:256,1,60.0000022888184,2|0,0:0|0:0,0:0:0:0:
120,248,94006,2,0,L|179:251,1,60.0000022888184,2|0,0:0|0:0,0:0:0:0:
272,328,94351,1,0,0:0:0:0:
272,328,94523,2,0,L|147:320,1,120.000004577637,2|0,0:0|0:0,0:0:0:0:
56,268,95041,1,2,0:0:0:0:
124,184,95213,6,0,B|156:100|156:100|124:16,1,180.000006866455,2|0,0:0|0:0,0:0:0:0:
36,96,95903,1,2,0:0:0:0:
124,184,96075,1,2,0:0:0:0:
236,140,96247,1,2,0:0:0:0:
188,272,96420,1,2,0:0:0:0:
124,184,96592,5,0,0:0:0:0:
240,216,96765,2,0,L|312:212,1,60.0000022888184,2|0,0:0|0:0,0:0:0:0:
356,134,97109,1,0,0:0:0:0:
356,134,97282,2,0,L|236:139,1,120.000004577637,2|0,0:0|0:0,0:0:0:0:
328,60,97799,6,0,P|355:55|403:72,1,60.0000022888184,2|0,0:0|0:0,0:0:0:0:
432,144,98144,2,0,P|425:175|384:204,1,60.0000022888184,2|0,0:0|0:0,0:0:0:0:
304,228,98489,1,0,0:0:0:0:
388,296,98661,2,0,L|448:292,1,60.0000022888184,2|0,0:0|0:0,0:0:0:0:
360,364,99006,6,0,L|270:357,1,90.0000034332277,0|0,0:0|0:0,0:0:0:0:
216,308,99351,6,0,L|216:256,1,40,4|0,0:3|0:0,0:0:0:0:
300,236,99696,2,0,L|300:184,1,47.9999985351563,2|0,0:0|0:0,0:0:0:0:
208,148,100041,2,0,L|208:76,1,55.9999982910157,2|0,0:0|0:0,0:0:0:0:
308,16,100385,2,0,L|308:88,1,64,2|0,0:0|0:0,0:0:0:0:
308,224,100730,6,0,L|308:80,1,143.999995605469,4|0,0:3|0:0,0:0:0:0:
200,152,101247,1,4,0:3:0:0:
308,224,101420,1,2,0:0:0:0:
192,284,101592,1,2,0:0:0:0:
200,152,101765,1,2,3:2:0:0:
84,208,101937,1,2,0:0:0:0:
200,292,102109,5,4,0:3:0:0:
256,192,102282,12,0,106247,0:0:0:0:
140,104,107627,5,2,0:0:0:0:
140,104,107972,2,0,L|136:164,1,60.0000022888184,2|0,0:0|0:0,0:0:0:0:
192,240,108316,1,2,0:0:0:0:
280,204,108489,2,0,P|344:192|408:200,1,120.000004577637,2|0,0:0|0:0,0:0:0:0:
404,204,109178,1,2,0:0:0:0:
410,210,109523,2,0,P|406:142|418:82,1,120.000004577637,2|0,0:0|0:0,0:0:0:0:
460,292,110213,1,2,0:0:0:0:
460,292,110385,5,0,0:0:0:0:
316,184,110730,2,0,L|252:180,1,60.0000022888184,2|0,0:0|0:0,0:0:0:0:
160,184,111075,1,2,0:0:0:0:
228,264,111247,2,0,P|292:284|344:268,1,120.000004577637,2|0,0:0|0:0,0:0:0:0:
352,100,111937,2,0,P|288:80|236:96,1,120.000004577637,2|0,0:0|0:0,0:0:0:0:
152,136,112454,2,0,P|120:140|92:133,1,60.0000022888184,2|2,0:0|0:0,0:0:0:0:
220,164,112799,2,0,P|200:189|175:204,1,60.0000022888184,2|2,0:0|0:0,0:0:0:0:
238,94,113144,5,0,0:0:0:0:
238,94,113489,2,0,L|322:90,1,60.0000022888184,2|0,0:0|0:0,0:0:0:0:
396,84,113834,1,2,0:0:0:0:
352,168,114006,2,0,P|344:220|364:296,1,120.000004577637,2|0,0:0|0:0,0:0:0:0:
364,292,114696,1,2,0:0:0:0:
368,300,115041,2,0,P|308:292|248:303,1,120.000004577637,2|0,0:0|0:0,0:0:0:0:
60,372,115730,1,2,0:0:0:0:
60,372,115903,5,0,0:0:0:0:
296,220,116247,2,0,P|300:192|288:148,1,60.0000022888184,2|0,0:0|0:0,0:0:0:0:
248,76,116592,1,2,0:0:0:0:
196,156,116765,2,0,L|200:296,1,120.000004577637,2|0,0:0|0:0,0:0:0:0:
112,312,117282,6,0,L|107:132,1,180.000006866455,2|0,0:0|0:0,0:0:0:0:
144,44,117972,1,2,0:0:0:0:
212,144,118144,1,2,0:0:0:0:
232,20,118316,1,2,0:0:0:0:
300,120,118489,1,2,0:0:0:0:
144,44,118661,5,2,0:0:0:0:
144,44,119006,2,0,P|112:40|64:52,1,60.0000022888184,2|0,0:0|0:0,0:0:0:0:
116,136,119351,1,8,0:0:0:0:
204,100,119523,2,0,P|252:84|324:100,1,120.000004577637,2|0,0:0|0:0,0:0:0:0:
318,97,120041,1,0,0:0:0:0:
324,104,120213,1,2,0:0:0:0:
392,180,120558,1,2,0:0:0:0:
392,180,120730,2,0,L|388:260,1,60.0000022888184,8|0,0:0|0:0,0:0:0:0:
260,380,121247,1,2,0:0:0:0:
260,380,121420,5,0,0:0:0:0:
180,212,121765,2,0,L|92:216,1,60.0000022888184,2|0,0:0|0:0,0:0:0:0:
64,292,122109,1,8,0:0:0:0:
64,292,122282,2,0,L|183:287,1,120.000004577637,2|0,0:0|0:0,0:0:0:0:
272,248,122799,1,0,0:0:0:0:
320,164,122972,2,0,P|336:104|312:44,1,120.000004577637,2|0,0:0|0:0,0:0:0:0:
232,96,123489,2,0,L|235:155,1,60.0000022888184,2|2,0:0|0:0,0:0:0:0:
272,248,123834,2,0,L|275:307,1,60.0000022888184,2|2,0:0|0:0,0:0:0:0:
320,164,124178,5,0,0:0:0:0:
320,164,124523,2,0,P|352:172|404:168,1,60.0000022888184,2|0,0:0|0:0,0:0:0:0:
472,152,124868,1,8,0:0:0:0:
432,64,125041,2,0,P|370:42|304:51,1,120.000004577637,2|0,0:0|0:0,0:0:0:0:
316,46,125558,1,0,0:0:0:0:
316,46,125730,1,2,0:0:0:0:
252,148,126075,1,2,0:0:0:0:
252,148,126247,2,0,L|256:208,1,60.0000022888184,8|0,0:0|0:0,0:0:0:0:
152,372,126765,1,2,0:0:0:0:
152,372,126937,5,0,0:0:0:0:
64,200,127282,2,0,P|60:164|72:132,1,60.0000022888184,2|0,0:0|0:0,0:0:0:0:
124,64,127627,1,8,0:0:0:0:
124,64,127799,2,0,P|180:40|244:48,1,120.000004577637,2|0,0:0|0:0,0:0:0:0:
324,84,128316,2,0,P|403:128|489:74,1,180.000006866455,2|0,0:0|0:0,0:0:0:0:
404,32,129006,1,2,0:0:0:0:
324,84,129178,1,2,0:0:0:0:
280,172,129351,1,2,0:0:0:0:
312,264,129523,1,2,0:0:0:0:
408,328,129696,6,0,L|232:312,1,160,2|0,0:0|0:0,0:0:0:0:
36,268,130385,6,0,L|183:255,1,136.000002593994,2|0,0:0|0:0,0:0:0:0:
348,208,131075,6,0,L|233:198,1,111.999996582031,2|0,0:0|0:0,0:0:0:0:
84,148,131765,6,0,L|180:140,1,88.000002685547,2|0,0:0|0:0,0:0:0:0:
280,72,132454,6,0,P|256:200|380:248,1,280,4|0,0:3|0:0,0:0:0:0:
374,249,133834,2,0,P|275:164|171:247,1,280,2|0,0:0|0:0,0:0:0:0:
172,242,135213,2,0,P|294:198|274:67,1,280,2|0,0:0|0:0,0:0:0:0:
277,70,136592,6,0,P|243:67|207:47,2,60,8|8|8,0:0|0:0|0:0,0:0:0:0:
436,36,137454,5,2,3:0:0:0:
380,94,137627,1,8,3:0:0:0:
457,114,137799,1,4,3:0:0:0:
460,260,137972,5,4,0:3:0:0:
384,200,138144,2,0,L|284:204,1,80,0|8,0:0|0:0,0:0:0:0:
200,212,138489,1,0,0:0:0:0:
244,304,138661,2,0,P|280:319|346:311,1,80,4|0,0:3|0:0,0:0:0:0:
424,300,139006,1,8,0:0:0:0:
424,300,139178,1,2,0:0:0:0:
356,200,139351,5,4,0:3:0:0:
432,108,139523,2,0,P|435:68|420:29,1,80,0|8,0:0|0:0,0:0:0:0:
316,88,139868,1,0,0:0:0:0:
356,200,140041,2,0,P|364:240|356:284,1,80,4|0,0:3|0:0,0:0:0:0:
265,354,140385,1,8,0:0:0:0:
265,354,140558,1,2,0:0:0:0:
222,225,140730,5,4,0:3:0:0:
356,200,140903,2,0,L|464:208,1,80,0|8,0:0|0:0,0:0:0:0:
348,312,141247,1,0,0:0:0:0:
276,194,141420,2,0,L|356:200,1,80,4|0,0:3|0:0,0:0:0:0:
492,208,141765,1,8,0:0:0:0:
492,208,141937,1,2,0:0:0:0:
428,87,142109,6,0,P|436:48|424:8,2,80,2|2|8,3:2|0:0|0:0,0:0:0:0:
356,200,142626,1,2,0:0:0:0:
263,100,142799,1,2,3:2:0:0:
248,236,142972,1,2,0:0:0:0:
96,272,143144,1,10,0:0:0:0:
181,378,143316,1,2,0:0:0:0:
248,236,143489,5,4,0:3:0:0:
172,164,143661,2,0,P|163:126|177:89,1,80,0|8,0:0|0:0,0:0:0:0:
256,20,144006,1,0,0:0:0:0:
335,86,144178,2,0,P|346:123|341:163,1,80,4|0,0:3|0:0,0:0:0:0:
282,250,144523,1,8,0:0:0:0:
282,250,144696,1,2,0:0:0:0:
400,271,144868,5,4,0:3:0:0:
341,163,145041,2,0,L|237:168,1,80,0|8,0:0|0:0,0:0:0:0:
158,228,145385,1,0,0:0:0:0:
72,144,145558,2,0,B|65:103|65:103|74:65,1,80,4|0,0:3|0:0,0:0:0:0:
188,108,145903,1,8,0:0:0:0:
188,108,146075,1,2,0:0:0:0:
158,228,146247,5,4,0:3:0:0:
268,304,146420,2,0,P|308:316|376:296,1,80,0|8,0:0|0:0,0:0:0:0:
472,264,146765,1,0,0:0:0:0:
436,132,146937,2,0,P|389:152|363:187,1,80,4|0,0:3|0:0,0:0:0:0:
346,312,147282,1,8,0:0:0:0:
346,312,147454,1,0,0:0:0:0:
296,184,147627,6,0,L|288:84,2,80,2|2|10,3:2|0:0|0:0,0:0:0:0:
346,312,148144,1,4,0:3:0:0:
452,224,148316,1,2,3:2:0:0:
296,184,148489,1,10,0:0:0:0:
402,96,148661,1,2,3:2:0:0:
452,224,148834,1,10,0:0:0:0:
296,184,149006,6,0,L|192:192,1,80,4|0,0:3|0:0,0:0:0:0:
244,328,149351,1,8,0:0:0:0:
244,328,149523,2,0,L|164:321,1,80,2|4,0:0|0:3,0:0:0:0:
84,244,149868,1,0,0:0:0:0:
216,190,150041,1,8,0:0:0:0:
216,190,150213,2,0,P|224:136|196:92,1,80,2|4,0:0|0:3,0:0:0:0:
116,60,150558,5,0,0:0:0:0:
252,48,150730,1,8,0:0:0:0:
252,48,150903,2,0,P|280:75|294:116,1,80,2|4,0:0|0:3,0:0:0:0:
212,188,151247,1,0,0:0:0:0:
252,336,151420,1,8,0:0:0:0:
252,336,151593,2,0,P|280:308|294:268,1,80,2|4,0:0|0:3,0:0:0:0:
212,188,151937,5,0,0:0:0:0:
360,232,152109,1,8,0:0:0:0:
360,232,152282,2,0,L|456:228,1,80,2|4,0:0|0:3,0:0:0:0:
352,300,152627,1,0,0:0:0:0:
291,191,152799,2,0,L|212:188,1,80,10|0,0:0|0:0,0:0:0:0:
123,119,153144,6,0,P|111:82|122:44,2,80,2|2|10,3:2|0:0|0:0,0:0:0:0:
211,187,153661,1,2,0:0:0:0:
104,260,153834,1,2,3:2:0:0:
123,119,154006,1,2,0:0:0:0:
176,264,154178,1,10,0:0:0:0:
33,245,154351,1,2,0:0:0:0:
123,119,154523,6,0,P|164:104|216:120,1,80,4|0,0:3|0:0,0:0:0:0:
324,176,154868,1,8,0:0:0:0:
324,176,155041,2,0,P|363:182|399:167,1,80,2|4,0:0|0:3,0:0:0:0:
384,56,155385,1,0,0:0:0:0:
265,138,155558,1,8,0:0:0:0:
265,138,155730,2,0,L|269:250,1,80,2|4,0:0|0:3,0:0:0:0:
273,330,156075,5,0,0:0:0:0:
188,220,156247,1,8,0:0:0:0:
188,220,156419,2,0,L|184:108,1,80,2|4,0:0|0:3,0:0:0:0:
240,40,156765,1,0,0:0:0:0:
356,120,156937,1,8,0:0:0:0:
356,120,157109,2,0,P|396:130|452:114,1,80,2|4,0:0|0:3,0:0:0:0:
500,32,157454,5,0,0:0:0:0:
368,43,157627,1,8,0:0:0:0:
368,43,157799,2,0,P|353:79|364:139,1,80,2|4,0:0|0:3,0:0:0:0:
390,226,158144,1,0,0:0:0:0:
296,166,158316,2,0,P|260:151|200:162,1,80,10|0,0:0|0:0,0:0:0:0:
148,238,158661,6,0,L|152:326,2,80,2|2|10,0:0|0:0|0:0,0:0:0:0:
80,146,159178,1,2,0:0:0:0:
200,130,159351,1,2,0:0:0:0:
148,238,159523,1,2,0:0:0:0:
232,206,159696,1,10,0:0:0:0:
268,286,159868,1,2,0:0:0:0:
319,214,160041,5,4,0:0:0:0:
256,192,160127,12,0,162454,0:0:0:0:
340,132,162799,5,4,0:3:0:0:
380,200,162972,2,0,L|376:292,1,80,2|0,0:0|0:0,0:0:0:0:
300,252,163489,2,0,L|301:212,1,40,2|0,0:0|0:0,0:0:0:0:
256,60,164006,6,0,L|256:104,1,40,2|0,0:0|0:0,0:0:0:0:
208,172,164351,2,0,L|212:252,1,80,2|0,0:0|0:0,0:0:0:0:
196,332,164868,2,0,P|168:323|152:304,1,40,2|0,0:0|0:0,0:0:0:0:
280,192,165385,6,0,L|282:237,1,40,2|0,0:0|0:0,0:0:0:0:
360,240,165730,2,0,P|364:199|352:160,1,80,2|0,0:0|0:0,0:0:0:0:
296,104,166247,2,0,P|278:108|240:104,1,40,2|0,0:0|0:0,0:0:0:0:
108,48,166765,5,2,0:0:0:0:
40,110,166937,1,0,0:0:0:0:
108,172,167109,2,0,P|118:217|108:249,1,80,2|0,0:0|0:0,0:0:0:0:
76,324,167627,2,0,B|116:320,1,40,2|2,0:0|0:0,0:0:0:0:
197,261,167972,2,0,B|237:257,1,40,2|2,0:0|0:0,0:0:0:0:
316,196,168316,5,0,0:0:0:0:
344,288,168489,2,0,P|352:328|343:365,1,80,2|0,0:0|0:0,0:0:0:0:
424,340,169006,2,0,P|426:316|416:288,1,40,2|0,0:0|0:0,0:0:0:0:
364,140,169523,6,0,P|362:164|372:192,1,40,2|0,0:0|0:0,0:0:0:0:
440,148,169868,2,0,P|424:92|396:72,1,80,2|0,0:0|0:0,0:0:0:0:
328,76,170385,2,0,P|308:92|296:112,1,40,2|0,0:0|0:0,0:0:0:0:
248,272,170903,6,0,P|244:252|232:232,1,40,2|0,0:0|0:0,0:0:0:0:
172,188,171247,2,0,P|132:172|80:176,1,80,2|0,0:0|0:0,0:0:0:0:
28,212,171765,2,0,L|24:256,1,40,2|0,0:0|0:0,0:0:0:0:
154,346,172282,5,2,0:0:0:0:
86,304,172454,1,0,0:0:0:0:
25,252,172627,2,0,L|33:157,1,80,2|0,0:0|0:0,0:0:0:0:
96,96,173144,1,2,0:0:0:0:
160,172,173316,1,2,0:0:0:0:
256,200,173489,1,2,0:0:0:0:
352,172,173661,1,2,0:0:0:0:
416,96,173834,5,4,0:3:0:0:
416,96,174178,2,0,L|424:172,1,60.0000022888184,2|0,0:0|0:0,0:0:0:0:
428,252,174523,1,8,0:0:0:0:
344,208,174696,2,0,B|304:200|304:200|208:212,1,120.000004577637,2|0,0:0|0:0,0:0:0:0:
220,216,175385,1,2,0:0:0:0:
216,224,175730,1,2,0:0:0:0:
148,300,175903,2,0,L|156:372,1,60.0000022888184,8|0,0:0|0:0,0:0:0:0:
136,208,176420,1,0,0:0:0:0:
56,148,176592,5,0,0:0:0:0:
136,208,176765,2,0,P|152:172|132:84,1,120.000004577637
64,24,177282,1,8,0:0:0:0:
139,94,177454,2,0,B|199:106|199:106|263:94,1,120.000004577637,2|0,0:0|0:0,0:0:0:0:
356,288,178144,2,0,B|296:276|296:276|232:288,1,120.000004577637,2|0,0:0|0:0,0:0:0:0:
148,316,178661,5,2,0:0:0:0:
160,208,178834,1,2,0:0:0:0:
239,287,179006,1,2,0:0:0:0:
287,189,179178,1,2,0:0:0:0:
356,288,179351,5,0,0:0:0:0:
356,288,179696,2,0,L|353:352,1,60.0000022888184,2|0,0:0|0:0,0:0:0:0:
444,320,180041,1,8,0:0:0:0:
440,224,180213,2,0,L|433:104,1,120.000004577637,2|0,0:0|0:0,0:0:0:0:
428,100,180903,1,2,0:0:0:0:
424,96,181247,1,2,0:0:0:0:
360,164,181420,2,0,P|330:170|301:165,1,60.0000022888184,8|0,0:0|0:0,0:0:0:0:
192,72,181937,1,2,0:0:0:0:
104,20,182109,5,0,0:0:0:0:
192,72,182282,2,0,L|196:204,1,120.000004577637,0|0,0:0|0:0,0:0:0:0:
196,288,182799,1,8,0:0:0:0:
108,252,182972,2,0,P|90:199|111:128,1,120.000004577637,2|0,0:0|0:0,0:0:0:0:
407,138,183661,2,0,P|422:195|404:252,1,120.000004577637,2|0,0:0|0:0,0:0:0:0:
320,300,184178,6,0,L|248:296,1,60.0000022888184,2|2,0:0|0:0,0:0:0:0:
248,200,184523,2,0,L|307:203,1,60.0000022888184,2|2,0:0|0:0,0:0:0:0:
404,252,184868,5,2,0:0:0:0:
172,312,185213,1,2,0:0:0:0:
124,76,185558,1,2,0:0:0:0:
256,276,185903,1,2,0:0:0:0:
256,36,186247,1,2,0:0:0:0:
256,276,186592,1,2,0:0:0:0:
388,76,186937,1,2,0:0:0:0:
340,312,187282,1,2,0:0:0:0:
136,68,187627,6,0,P|105:59|57:66,1,60.0000022888184,2|2,0:0|0:0,0:0:0:0:
92,160,187972,2,0,P|63:175|34:214,1,60.0000022888184,2|2,0:0|0:0,0:0:0:0:
128,256,188316,2,0,P|119:287|125:334,1,60.0000022888184,2|2,0:0|0:0,0:0:0:0:
220,296,188661,2,0,P|235:324|274:353,1,60.0000022888184,2|2,0:0|0:0,0:0:0:0:
304,256,189006,5,2,0:0:0:0:
198,151,189178,1,2,0:0:0:0:
220,296,189351,1,2,0:0:0:0:
286,167,189523,1,2,0:0:0:0:
155,233,189696,1,2,0:0:0:0:
304,256,189868,1,2,0:0:0:0:
256,192,190041,12,0,193144,0:0:0:0:
