osu file format v14

[General]
AudioFilename: audio.mp3
AudioLeadIn: 0
PreviewTime: 107622
Countdown: 0
SampleSet: Soft
StackLeniency: 0.7
Mode: 3
LetterboxInBreaks: 0
SpecialStyle: 1
WidescreenStoryboard: 1

[Editor]
DistanceSpacing: 1.3
BeatDivisor: 2
GridSize: 4
TimelineZoom: 0.8999999

[Metadata]
Title:STARS ALIGN
TitleUnicode:STARS ALIGN
Artist:dark cat
ArtistUnicode:dark cat
Creator:[-Chihuahua-]
Version:Normal
Source:osu!
Tags:dark cat english dudehacker truescript catstep dance electronic edm
BeatmapID:1438110
BeatmapSetID:680106

[Difficulty]
HPDrainRate:8
CircleSize:4
OverallDifficulty:8
ApproachRate:5
SliderMultiplier:1.4
SliderTickRate:1

[Events]
//Background and Video events
0,0,"bg.jpg",0,0
//Break Periods
//Storyboard Layer 0 (Background)
//Storyboard Layer 1 (Fail)
//Storyboard Layer 2 (Pass)
//Storyboard Layer 3 (Foreground)
//Storyboard Sound Samples
Sample,44173,0,"LR_Chm Echo long.wav",70
Sample,149001,0,"LR_Chm Echo long.wav",70

[TimingPoints]
36,344.827586206897,4,2,1,50,1,0
33139,-100,4,2,1,100,0,1
55208,-100,4,2,1,30,0,0
57967,-100,4,2,1,40,0,0
80036,-100,4,2,1,30,0,0
107622,-100,4,2,1,70,0,0
137967,-100,4,2,1,100,0,1
149000,-100,4,2,1,100,0,1
160036,-100,4,2,1,40,0,0

[HitObjects]
320,192,4863,5,0,0:0:0:0:
192,192,5036,1,0,0:0:0:0:
320,192,5208,1,0,0:0:0:0:
448,192,5380,1,0,0:0:0:0:
64,192,5553,1,2,0:0:0:0:
192,192,5553,1,0,0:0:0:0:
64,192,6760,1,0,0:0:0:0:
448,192,6760,1,0,0:0:0:0:
192,192,7277,1,0,0:0:0:0:
448,192,7277,1,0,0:0:0:0:
192,192,7794,1,0,0:0:0:0:
320,192,7794,1,0,0:0:0:0:
64,192,8311,1,0,0:0:0:70:LR_HiHat Click.wav
320,192,8311,1,0,0:0:0:0:
64,192,9518,1,0,0:0:0:0:
448,192,9518,1,0,0:0:0:0:
192,192,10036,1,0,0:0:0:0:
448,192,10036,1,0,0:0:0:0:
448,192,10380,1,0,0:0:0:70:LR_HiHat Click.wav
64,192,10553,1,0,0:0:0:0:
320,192,10553,1,0,0:0:0:0:
448,192,10725,1,0,0:0:0:0:
64,192,10898,1,0,0:0:0:0:
192,192,11070,1,2,0:0:0:0:
320,192,11070,1,0,0:0:0:0:
64,192,12277,1,0,0:0:0:0:
192,192,12277,1,0,0:0:0:0:
320,192,12794,1,0,0:0:0:0:
448,192,12794,1,0,0:0:0:0:
64,192,13311,1,0,0:0:0:0:
192,192,13311,1,0,0:0:0:0:
192,192,13829,1,0,0:0:0:70:LR_HiHat Click.wav
448,192,13829,1,0,0:0:0:0:
192,192,15036,1,0,0:0:0:0:
448,192,15036,1,0,0:0:0:0:
64,192,15553,1,0,0:0:0:0:
320,192,15553,1,0,0:0:0:0:
192,192,15898,1,0,0:0:0:70:LR_HiHat Click.wav
320,192,16070,1,0,0:0:0:0:
448,192,16070,1,0,0:0:0:0:
64,192,16242,1,0,0:0:0:0:
448,192,16415,1,0,0:0:0:0:
192,192,16587,1,2,0:0:0:0:
320,192,16587,1,0,0:0:0:0:
64,192,17277,1,0,0:0:0:70:LR_Clap Normal.wav
192,192,17794,1,0,0:0:0:0:
448,192,17794,1,0,0:0:0:0:
64,192,18311,1,0,0:0:0:0:
320,192,18311,1,0,0:0:0:0:
192,192,18656,1,0,0:0:0:70:LR_Clap Normal.wav
64,192,18829,1,0,0:0:0:0:
448,192,18829,1,0,0:0:0:0:
192,192,19346,1,0,0:0:0:70:LR_HiHat Click.wav
320,192,19346,1,0,0:0:0:0:
320,192,20036,1,0,0:0:0:70:LR_Clap Normal.wav
192,192,20553,1,0,0:0:0:0:
448,192,20553,1,0,0:0:0:0:
64,192,21070,1,0,0:0:0:0:
448,192,21070,1,0,0:0:0:0:
320,192,21415,1,0,0:0:0:70:LR_Clap Normal.wav
64,192,21587,1,0,0:0:0:0:
192,192,21587,1,0,0:0:0:0:
448,192,21760,1,0,0:0:0:0:
320,192,21932,1,0,0:0:0:0:
64,192,22104,1,2,0:0:0:0:
192,192,22104,1,0,0:0:0:0:
448,192,22794,1,0,0:0:0:70:LR_Clap Normal.wav
64,192,23311,1,0,0:0:0:0:
320,192,23311,1,0,0:0:0:0:
64,192,23829,1,0,0:0:0:0:
448,192,23829,1,0,0:0:0:0:
320,192,24173,1,0,0:0:0:70:LR_Clap Normal.wav
192,192,24346,1,0,0:0:0:0:
448,192,24346,1,0,0:0:0:0:
64,192,24863,1,0,0:0:0:70:LR_HiHat Click.wav
448,192,24863,1,0,0:0:0:0:
448,192,25553,1,0,0:0:0:70:LR_Clap Normal.wav
64,192,26070,1,0,0:0:0:0:
192,192,26070,1,0,0:0:0:0:
320,192,26587,1,0,0:0:0:0:
448,192,26587,1,0,0:0:0:0:
64,192,27104,1,0,0:0:0:0:
192,192,27104,1,0,0:0:0:0:
64,192,27622,1,2,0:0:0:0:
320,192,27622,1,0,0:0:0:0:
448,192,27967,128,0,29001:0:0:0:0:
192,192,29001,128,0,30380:0:0:0:0:
320,192,30380,128,0,31760:0:0:0:0:
64,192,31760,1,0,0:0:0:70:LR_Clap Normal.wav
448,192,31760,1,0,0:0:0:0:
64,192,32018,1,0,0:0:0:70:LR_HiHat Click.wav
448,192,32018,1,0,0:0:0:0:
192,192,32277,1,0,0:0:0:70:LR_Clap Normal.wav
320,192,32622,1,0,0:0:0:70:Tom1.wav
448,192,32622,1,0,0:0:0:0:
64,192,32794,1,0,0:0:0:70:Tom2.wav
192,192,32794,1,0,0:0:0:0:
320,192,32967,1,0,0:0:0:70:Tom3.wav
448,192,32967,1,0,0:0:0:0:
64,192,33139,1,2,0:0:0:0:
320,192,33311,1,0,0:0:0:0:
192,192,33484,1,8,0:0:0:0:
448,192,33484,1,0,0:0:0:0:
64,192,33656,1,0,0:0:0:0:
320,192,33829,1,0,0:0:0:0:
448,192,34001,1,2,0:0:0:0:
64,192,34173,1,8,0:0:0:0:
192,192,34173,1,0,0:0:0:0:
448,192,34346,1,0,0:0:0:0:
320,192,34518,1,2,0:0:0:0:
64,192,34691,1,0,0:0:0:0:
192,192,34863,1,8,0:0:0:0:
448,192,34863,1,0,0:0:0:0:
64,192,35036,1,0,0:0:0:0:
320,192,35208,1,0,0:0:0:0:
448,192,35380,1,2,0:0:0:0:
64,192,35553,1,8,0:0:0:0:
320,192,35553,1,0,0:0:0:0:
192,192,35725,1,0,0:0:0:0:
448,192,35898,1,2,0:0:0:0:
64,192,36070,1,0,0:0:0:0:
192,192,36242,1,8,0:0:0:0:
320,192,36242,1,0,0:0:0:0:
64,192,36415,1,0,0:0:0:0:
192,192,36587,1,0,0:0:0:0:
320,192,36760,1,2,0:0:0:0:
192,192,36932,1,8,0:0:0:0:
448,192,36932,1,0,0:0:0:0:
320,192,37104,1,0,0:0:0:0:
64,192,37277,1,2,0:0:0:0:
192,192,37449,1,0,0:0:0:0:
320,192,37622,1,8,0:0:0:0:
448,192,37622,1,0,0:0:0:0:
64,192,37794,1,0,0:0:0:0:
192,192,37967,1,0,0:0:0:0:
448,192,38139,1,2,0:0:0:0:
64,192,38311,1,8,0:0:0:0:
192,192,38311,1,0,0:0:0:0:
320,192,38484,1,0,0:0:0:0:
448,192,38656,1,2,0:0:0:0:
192,192,38829,1,0,0:0:0:0:
64,192,39001,1,8,0:0:0:0:
320,192,39001,1,0,0:0:0:0:
448,192,39173,1,0,0:0:0:0:
192,192,39346,1,0,0:0:0:0:
320,192,39518,1,2,0:0:0:0:
64,192,39691,1,8,0:0:0:0:
448,192,39691,1,0,0:0:0:0:
192,192,39863,1,0,0:0:0:0:
64,192,40036,1,2,0:0:0:0:
448,192,40208,1,0,0:0:0:0:
192,192,40380,1,8,0:0:0:0:
320,192,40380,1,0,0:0:0:0:
64,192,40553,1,0,0:0:0:0:
448,192,40725,1,0,0:0:0:0:
320,192,40898,1,2,0:0:0:0:
64,192,41070,1,8,0:0:0:0:
192,192,41070,1,0,0:0:0:0:
448,192,41242,1,0,0:0:0:0:
192,192,41415,1,2,0:0:0:0:
64,192,41587,1,0,0:0:0:0:
320,192,41760,1,8,0:0:0:0:
448,192,41760,1,0,0:0:0:0:
192,192,41932,1,0,0:0:0:0:
64,192,42104,1,0,0:0:0:0:
320,192,42277,1,2,0:0:0:0:
192,192,42449,1,8,0:0:0:0:
448,192,42449,1,0,0:0:0:0:
64,192,42622,1,0,0:0:0:0:
320,192,42794,1,2,0:0:0:0:
448,192,42967,1,0,0:0:0:0:
64,192,43139,1,8,0:0:0:0:
192,192,43139,1,0,0:0:0:0:
320,192,43311,1,2,0:0:0:0:
448,192,43484,1,0,0:0:0:0:
192,192,43656,1,8,0:0:0:0:
320,192,43656,1,0,0:0:0:0:
64,192,43829,1,2,0:0:0:0:
192,192,44001,1,8,0:0:0:0:
448,192,44001,1,0,0:0:0:0:
320,192,44173,128,2,44346:0:0:0:0:
192,192,44346,128,0,44518:0:0:0:0:
64,192,44518,128,8,44691:0:0:0:0:
320,192,44518,1,0,0:0:0:0:
448,192,44691,128,0,44863:0:0:0:0:
320,192,44863,128,0,45036:0:0:0:0:
192,192,45036,128,2,45208:0:0:0:0:
64,192,45208,128,8,45380:0:0:0:0:
448,192,45208,1,0,0:0:0:0:
192,192,45380,128,0,45553:0:0:0:0:
320,192,45553,128,2,45725:0:0:0:0:
448,192,45725,128,0,45898:0:0:0:0:
64,192,45898,1,8,0:0:0:0:
192,192,45898,128,0,46070:0:0:0:0:
320,192,46070,128,0,46242:0:0:0:0:
448,192,46242,128,0,46415:0:0:0:0:
64,192,46415,128,2,46587:0:0:0:0:
192,192,46587,128,8,46760:0:0:0:0:
448,192,46587,1,0,0:0:0:0:
320,192,46760,128,0,46932:0:0:0:0:
192,192,46932,128,2,47104:0:0:0:0:
64,192,47104,128,0,47277:0:0:0:0:
192,192,47277,1,8,0:0:0:0:
448,192,47277,128,0,47449:0:0:0:0:
320,192,47449,128,0,47622:0:0:0:0:
64,192,47622,128,0,47794:0:0:0:0:
192,192,47794,128,2,47967:0:0:0:0:
64,192,47967,1,8,0:0:0:0:
320,192,47967,128,0,48139:0:0:0:0:
448,192,48139,128,0,48311:0:0:0:0:
320,192,48311,128,2,48484:0:0:0:0:
192,192,48484,128,0,48656:0:0:0:0:
64,192,48656,128,8,48829:0:0:0:0:
320,192,48656,1,0,0:0:0:0:
448,192,48829,128,0,49001:0:0:0:0:
320,192,49001,128,0,49173:0:0:0:0:
192,192,49173,128,2,49346:0:0:0:0:
64,192,49346,128,8,49518:0:0:0:0:
448,192,49346,1,0,0:0:0:0:
192,192,49518,128,0,49691:0:0:0:0:
448,192,49691,128,2,49863:0:0:0:0:
320,192,49863,128,0,50036:0:0:0:0:
64,192,50036,128,8,50208:0:0:0:0:
448,192,50036,1,0,0:0:0:0:
192,192,50208,128,0,50380:0:0:0:0:
320,192,50380,128,0,50553:0:0:0:0:
448,192,50553,128,2,50725:0:0:0:0:
64,192,50725,1,8,0:0:0:0:
320,192,50725,128,0,50898:0:0:0:0:
192,192,50898,128,0,51070:0:0:0:0:
64,192,51070,128,2,51242:0:0:0:0:
320,192,51242,128,0,51415:0:0:0:0:
192,192,51415,1,8,0:0:0:0:
448,192,51415,128,0,51587:0:0:0:0:
320,192,51587,128,0,51760:0:0:0:0:
192,192,51760,128,0,51932:0:0:0:0:
64,192,51932,128,2,52104:0:0:0:0:
192,192,52104,128,8,52277:0:0:0:0:
448,192,52104,1,0,0:0:0:0:
320,192,52277,128,0,52449:0:0:0:0:
448,192,52449,128,2,52622:0:0:0:0:
64,192,52622,128,0,52794:0:0:0:0:
192,192,52794,128,8,52967:0:0:0:0:
448,192,52794,1,0,0:0:0:0:
320,192,52967,128,0,53139:0:0:0:0:
192,192,53139,128,0,53311:0:0:0:0:
64,192,53311,128,2,53484:0:0:0:0:
192,192,53484,1,8,0:0:0:0:
448,192,53484,128,0,53656:0:0:0:0:
320,192,53656,128,0,53829:0:0:0:0:
192,192,53829,128,2,54001:0:0:0:0:
64,192,54001,128,0,54173:0:0:0:0:
320,192,54173,1,8,0:0:0:0:
448,192,54173,128,0,54346:0:0:0:0:
192,192,54346,128,0,54518:0:0:0:0:
320,192,54518,128,0,54691:0:0:0:0:
448,192,54691,128,2,54863:0:0:0:0:
64,192,54863,128,8,55036:0:0:0:0:
320,192,54863,1,0,0:0:0:0:
192,192,55036,128,0,55208:0:0:0:0:
320,192,55208,128,0,56587:0:0:0:100:LR3_BassDrop.wav
448,192,56587,128,0,57967:0:0:0:0:
192,192,57277,128,0,57967:0:0:0:0:
64,192,57967,1,2,0:0:0:70:soft-hitwhistle.wav
320,192,57967,1,0,0:0:0:0:
320,192,58484,1,0,0:0:0:0:
320,192,58829,1,0,0:0:0:0:
320,192,59173,1,0,0:0:0:0:
448,192,59346,1,4,0:0:0:0:
64,192,59863,1,0,0:0:0:0:
448,192,60208,1,0,0:0:0:0:
448,192,60553,1,0,0:0:0:0:
192,192,60725,1,4,0:0:0:0:
192,192,61242,1,0,0:0:0:0:
320,192,61587,1,0,0:0:0:0:
448,192,61932,1,0,0:0:0:0:
64,192,62104,1,4,0:0:0:0:
320,192,62622,1,0,0:0:0:0:
192,192,62794,1,4,0:0:0:0:
64,192,62967,1,0,0:0:0:0:
192,192,63139,1,4,0:0:0:0:
320,192,63311,1,0,0:0:0:0:
64,192,63484,1,2,0:0:0:70:soft-hitwhistle.wav
448,192,63484,1,0,0:0:0:0:
320,192,63656,1,0,0:0:0:0:
192,192,63829,1,4,0:0:0:0:
64,192,64001,1,0,0:0:0:0:
192,192,64173,1,4,0:0:0:0:
320,192,64346,1,0,0:0:0:0:
448,192,64518,1,4,0:0:0:0:
320,192,64691,1,0,0:0:0:0:
192,192,64863,1,4,0:0:0:0:
448,192,64863,1,0,0:0:0:0:
64,192,65380,1,0,0:0:0:0:
320,192,65380,1,0,0:0:0:0:
320,192,65725,1,0,0:0:0:0:
448,192,65725,1,0,0:0:0:0:
320,192,66070,1,0,0:0:0:0:
448,192,66070,1,0,0:0:0:0:
64,192,66242,1,4,0:0:0:0:
192,192,66242,1,0,0:0:0:0:
192,192,66760,1,0,0:0:0:0:
448,192,66760,1,0,0:0:0:0:
64,192,67104,1,0,0:0:0:0:
320,192,67104,1,0,0:0:0:0:
64,192,67449,1,0,0:0:0:0:
192,192,67449,1,0,0:0:0:0:
320,192,67622,1,4,0:0:0:0:
448,192,67622,1,0,0:0:0:0:
64,192,68139,1,0,0:0:0:0:
192,192,68139,1,0,0:0:0:0:
320,192,68311,1,4,0:0:0:0:
448,192,68484,1,0,0:0:0:0:
320,192,68656,1,4,0:0:0:0:
192,192,68829,1,0,0:0:0:0:
64,192,69001,1,2,0:0:0:70:soft-hitwhistle.wav
320,192,69001,1,0,0:0:0:70:LR_Chm Echo long.wav
192,192,69173,1,0,0:0:0:0:
448,192,69346,1,4,0:0:0:0:
320,192,69518,1,0,0:0:0:0:
64,192,69691,1,0,0:0:0:70:LR_Clap Normal.wav
448,192,69691,1,0,0:0:0:0:
192,192,69863,1,0,0:0:0:0:
448,192,70036,1,4,0:0:0:0:
320,192,70208,1,0,0:0:0:0:
448,192,70380,1,4,0:0:0:0:
192,192,70553,1,0,0:0:0:0:
448,192,70725,1,4,0:0:0:0:
64,192,70898,1,0,0:0:0:0:
192,192,70898,1,0,0:0:0:0:
320,192,71070,1,0,0:0:0:70:LR_Clap Normal.wav
448,192,71070,1,0,0:0:0:0:
64,192,71242,1,0,0:0:0:0:
192,192,71242,1,0,0:0:0:0:
192,192,71587,1,0,0:0:0:0:
448,192,71587,1,0,0:0:0:0:
64,192,71760,1,4,0:0:0:0:
320,192,71760,1,0,0:0:0:0:
64,192,72277,1,0,0:0:0:0:
320,192,72277,1,0,0:0:0:0:
192,192,72449,1,0,0:0:0:70:LR_Clap Normal.wav
448,192,72449,1,0,0:0:0:0:
64,192,72622,1,0,0:0:0:0:
320,192,72622,1,0,0:0:0:0:
64,192,72967,1,0,0:0:0:0:
192,192,72967,1,0,0:0:0:0:
320,192,73139,1,4,0:0:0:0:
448,192,73139,1,0,0:0:0:0:
64,192,73656,1,0,0:0:0:0:
320,192,73656,1,0,0:0:0:0:
448,192,73829,1,0,0:0:0:70:LR_Clap Normal.wav
192,192,74001,1,0,0:0:0:0:
320,192,74173,1,4,0:0:0:0:
64,192,74346,1,0,0:0:0:0:
320,192,74518,1,2,0:0:0:70:soft-hitwhistle.wav
448,192,74518,1,0,0:0:0:0:
192,192,74691,1,0,0:0:0:0:
64,192,74863,1,4,0:0:0:0:
320,192,74863,1,0,0:0:0:0:
448,192,75036,1,0,0:0:0:0:
192,192,75208,1,0,0:0:0:70:LR_Clap Normal.wav
320,192,75208,1,0,0:0:0:0:
448,192,75380,1,0,0:0:0:0:
320,192,75553,1,4,0:0:0:0:
192,192,75725,1,0,0:0:0:0:
64,192,75898,1,2,0:0:0:70:soft-hitwhistle.wav
320,192,75898,1,0,0:0:0:0:
192,192,76070,1,0,0:0:0:0:
448,192,76242,1,4,0:0:0:0:
320,192,76415,1,0,0:0:0:0:
192,192,76587,1,0,0:0:0:70:LR_Clap Normal.wav
448,192,76587,1,0,0:0:0:0:
64,192,76760,1,0,0:0:0:0:
320,192,76932,1,4,0:0:0:0:
448,192,77104,1,0,0:0:0:0:
64,192,77277,1,2,0:0:0:70:soft-hitwhistle.wav
320,192,77277,1,0,0:0:0:0:
192,192,77449,1,0,0:0:0:0:
320,192,77622,1,4,0:0:0:0:
192,192,77794,1,0,0:0:0:0:
64,192,77967,1,0,0:0:0:70:LR_Clap Normal.wav
320,192,77967,1,0,0:0:0:0:
448,192,78139,1,0,0:0:0:0:
320,192,78311,1,0,0:0:0:70:LR_Clap Normal.wav
192,192,78484,1,0,0:0:0:0:
64,192,78656,1,2,0:0:0:70:soft-hitwhistle.wav
448,192,78656,1,0,0:0:0:0:
448,192,79346,1,0,0:0:0:0:
320,192,79518,1,0,0:0:0:0:
448,192,79691,1,0,0:0:0:0:
64,192,79863,1,0,0:0:0:0:
192,192,80036,1,2,0:0:0:70:soft-hitwhistle.wav
320,192,80036,1,0,0:0:0:0:
448,192,80208,1,0,0:0:0:0:
192,192,80553,1,0,0:0:0:0:
320,192,80725,1,0,0:0:0:70:LR_HiHat Click.wav
192,192,81070,1,0,0:0:0:0:
448,192,81242,1,0,0:0:0:0:
192,192,81415,1,0,0:0:0:70:LR_HiHat Click.wav
448,192,81587,1,0,0:0:0:0:
192,192,81932,1,0,0:0:0:0:
320,192,82104,1,0,0:0:0:70:LR_HiHat Click.wav
64,192,82449,1,0,0:0:0:0:
448,192,82622,1,0,0:0:0:0:
320,192,82794,1,0,0:0:0:70:LR_HiHat Click.wav
64,192,82967,1,0,0:0:0:0:
320,192,83311,1,0,0:0:0:0:
192,192,83484,1,0,0:0:0:70:LR_HiHat Click.wav
320,192,83829,1,0,0:0:0:0:
64,192,84001,1,0,0:0:0:0:
320,192,84173,1,0,0:0:0:70:LR_HiHat Click.wav
448,192,84346,1,0,0:0:0:0:
64,192,84691,1,0,0:0:0:0:
320,192,84863,1,0,0:0:0:70:LR_HiHat Click.wav
192,192,85036,1,0,0:0:0:0:
320,192,85208,1,0,0:0:0:0:
64,192,85208,1,0,0:0:0:0:
448,192,85380,1,0,0:0:0:0:
320,192,85553,1,0,0:0:0:70:LR_HiHat Click.wav
448,192,85725,1,0,0:0:0:0:
320,192,85898,1,0,0:0:0:0:
192,192,86070,1,0,0:0:0:0:
64,192,86242,1,0,0:0:0:70:LR_HiHat Click.wav
448,192,86415,1,0,0:0:0:0:
64,192,86587,1,0,0:0:0:0:
448,192,86760,1,0,0:0:0:0:
448,192,87104,1,0,0:0:0:0:
192,192,87449,1,0,0:0:0:0:
448,192,87622,1,0,0:0:0:70:LR_HiHat Click.wav
320,192,87967,128,0,88311:0:0:0:70:LR_Drum Hit Open.wav
64,192,88311,1,2,0:0:0:70:soft-hitwhistle.wav
192,192,88311,1,0,0:0:0:0:
448,192,88484,1,0,0:0:0:0:
192,192,88656,1,0,0:0:0:0:
320,192,88829,1,0,0:0:0:0:
448,192,89001,1,0,0:0:0:0:
320,192,89173,1,0,0:0:0:0:
192,192,89346,1,0,0:0:0:0:
64,192,89518,1,0,0:0:0:0:
320,192,89691,128,2,90208:0:0:0:70:soft-hitwhistle.wav
448,192,89691,1,0,0:0:0:0:
64,192,90208,1,2,0:0:0:70:soft-hitwhistle.wav
192,192,90208,128,0,90725:0:0:0:0:
320,192,90725,128,2,91070:0:0:0:70:soft-hitwhistle.wav
448,192,90725,1,0,0:0:0:0:
64,192,91070,1,2,0:0:0:70:soft-hitwhistle.wav
448,192,91242,1,0,0:0:0:0:
64,192,91587,1,0,0:0:0:0:
320,192,91760,1,0,0:0:0:30:bell2.wav
64,192,92104,1,0,0:0:0:0:
448,192,92277,1,0,0:0:0:0:
64,192,92449,1,0,0:0:0:30:bell2.wav
448,192,92622,1,0,0:0:0:0:
64,192,92967,1,0,0:0:0:0:
320,192,93139,1,0,0:0:0:30:bell2.wav
64,192,93484,1,0,0:0:0:0:
448,192,93656,1,0,0:0:0:0:
64,192,93829,1,0,0:0:0:30:bell2.wav
448,192,94001,1,0,0:0:0:0:
64,192,94346,1,0,0:0:0:0:
320,192,94518,1,0,0:0:0:30:bell2.wav
320,192,95036,1,0,0:0:0:0:
192,192,95208,1,0,0:0:0:30:bell2.wav
448,192,95380,1,0,0:0:0:0:
320,192,95725,1,0,0:0:0:0:
64,192,95898,1,0,0:0:0:30:bell2.wav
192,192,96070,1,0,0:0:0:0:
448,192,96242,1,0,0:0:0:0:
320,192,96415,1,0,0:0:0:0:
448,192,96587,1,0,0:0:0:30:bell2.wav
320,192,96760,1,0,0:0:0:0:
64,192,96932,1,0,0:0:0:0:
192,192,97104,1,0,0:0:0:0:
448,192,97277,1,0,0:0:0:30:bell2.wav
192,192,97622,1,0,0:0:0:0:
448,192,97794,1,0,0:0:0:0:
192,192,97967,1,0,0:0:0:30:bell2.wav
448,192,98139,1,0,0:0:0:0:
64,192,98484,1,0,0:0:0:0:
448,192,98656,1,0,0:0:0:30:bell2.wav
192,192,99001,128,0,99346:0:0:0:70:LR_Drum Hit Open.wav
320,192,99346,1,0,0:0:0:70:soft-hitwhistle.wav
64,192,99518,1,0,0:0:0:0:
192,192,99691,1,0,0:0:0:0:
320,192,99863,1,0,0:0:0:0:
64,192,100036,1,0,0:0:0:0:
192,192,100208,1,0,0:0:0:0:
320,192,100380,1,0,0:0:0:0:
448,192,100553,1,0,0:0:0:0:
64,192,100725,128,0,101242:0:0:0:70:soft-hitwhistle.wav
320,192,100725,1,0,0:0:0:0:
192,192,101242,1,0,0:0:0:70:soft-hitwhistle.wav
448,192,101242,128,0,101760:0:0:0:0:
64,192,101760,1,0,0:0:0:70:soft-hitwhistle.wav
320,192,101760,128,0,102104:0:0:0:0:
192,192,102104,128,0,103484:0:0:0:70:soft-hitwhistle.wav
320,192,103484,128,0,107622:0:0:0:0:
64,192,107622,1,0,0:0:0:0:
448,192,107622,1,0,0:0:0:0:
448,192,108311,128,0,108484:0:0:0:0:
320,192,108484,128,0,108829:0:0:0:0:
64,192,108829,128,0,109173:0:0:0:0:
192,192,109173,128,0,109518:0:0:0:0:
320,192,109518,128,0,109863:0:0:0:0:
448,192,109863,128,0,110208:0:0:0:0:
64,192,110208,128,0,110380:0:0:0:0:
320,192,111070,128,0,111242:0:0:0:0:
192,192,111242,128,0,111587:0:0:0:0:
64,192,111587,128,0,111932:0:0:0:0:
448,192,111932,128,0,112277:0:0:0:0:
320,192,112277,128,0,112622:0:0:0:0:
64,192,112622,128,0,112967:0:0:0:0:
192,192,112967,128,0,113139:0:0:0:0:
320,192,113829,128,0,114001:0:0:0:0:
192,192,114001,128,0,114346:0:0:0:0:
448,192,114346,128,0,114691:0:0:0:0:
64,192,114691,128,0,115036:0:0:0:0:
192,192,115036,128,0,115380:0:0:0:0:
320,192,115380,128,0,115725:0:0:0:0:
448,192,115725,128,0,115898:0:0:0:0:
192,192,116587,128,0,116760:0:0:0:0:
448,192,116760,128,0,117104:0:0:0:0:
320,192,117104,128,0,117277:0:0:0:0:
64,192,117277,128,0,117794:0:0:0:0:
448,192,117794,128,0,117967:0:0:0:0:
192,192,117967,1,0,0:0:0:0:
320,192,118139,1,0,0:0:0:0:
192,192,118311,1,0,0:0:0:0:
448,192,118484,1,0,0:0:0:0:
64,192,118656,1,0,0:0:0:70:LR_HiHat Click.wav
320,192,118829,1,0,0:0:0:0:
64,192,119001,1,0,0:0:0:0:
448,192,119173,1,0,0:0:0:0:
64,192,119346,1,0,0:0:0:70:LR_Clap Normal.wav
192,192,119346,128,0,119518:0:0:0:0:
320,192,119518,128,0,119863:0:0:0:0:
448,192,119863,128,0,120208:0:0:0:0:
64,192,120208,128,0,120553:0:0:0:0:
192,192,120553,128,0,120898:0:0:0:0:
448,192,120725,1,0,0:0:0:70:LR_Clap Normal.wav
320,192,120898,128,0,121242:0:0:0:0:
448,192,121242,128,0,121415:0:0:0:0:
320,192,122104,128,0,122277:0:0:0:70:LR_Clap Normal.wav
448,192,122104,1,0,0:0:0:0:
64,192,122277,128,0,122622:0:0:0:0:
192,192,122622,128,0,122967:0:0:0:0:
320,192,122967,128,0,123311:0:0:0:0:
448,192,123311,128,0,123656:0:0:0:0:
64,192,123484,1,0,0:0:0:70:LR_Clap Normal.wav
320,192,123656,128,0,124001:0:0:0:0:
192,192,124001,128,0,124173:0:0:0:0:
64,192,124863,128,0,125036:0:0:0:70:LR_Clap Normal.wav
320,192,124863,1,0,0:0:0:0:
192,192,125036,128,0,125380:0:0:0:0:
448,192,125380,128,0,125725:0:0:0:0:
320,192,125725,128,0,126070:0:0:0:0:
192,192,126070,128,0,126415:0:0:0:0:
448,192,126242,1,0,0:0:0:70:LR_Clap Normal.wav
64,192,126415,128,0,126760:0:0:0:0:
192,192,126760,128,0,126932:0:0:0:0:
192,192,127622,128,0,127794:0:0:0:70:LR_Clap Normal.wav
448,192,127622,1,0,0:0:0:0:
320,192,127794,128,0,128139:0:0:0:0:
64,192,128139,128,0,128484:0:0:0:0:
448,192,128484,128,0,128829:0:0:0:0:
192,192,128829,128,0,129173:0:0:0:70:LR_Clap Normal.wav
320,192,129173,128,0,129518:0:0:0:70:LR_Clap Normal.wav
64,192,129518,128,0,129691:0:0:0:70:LR_Clap Normal.wav
192,192,129691,1,0,0:0:0:70:LR_Clap Normal.wav
448,192,129691,1,0,0:0:0:0:
320,192,129863,1,0,0:0:0:70:LR_Clap Normal.wav
192,192,130036,1,0,0:0:0:0:
448,192,130208,1,0,0:0:0:70:LR_Clap Normal.wav
64,192,130380,1,0,0:0:0:0:
320,192,130380,1,0,0:0:0:0:
192,192,130553,1,0,0:0:0:0:
320,192,130725,1,0,0:0:0:0:
64,192,130898,1,0,0:0:0:0:
192,192,131070,1,0,0:0:0:0:
448,192,131070,1,0,0:0:0:0:
320,192,131242,1,0,0:0:0:0:
64,192,131415,1,0,0:0:0:0:
192,192,131587,1,0,0:0:0:0:
320,192,131760,1,0,0:0:0:0:
448,192,131760,1,0,0:0:0:0:
192,192,131932,1,0,0:0:0:0:
64,192,132104,1,0,0:0:0:0:
192,192,132277,1,0,0:0:0:0:
320,192,132449,1,0,0:0:0:70:soft-hitwhistle.wav
448,192,132449,128,0,133829:0:0:0:0:
192,192,133829,128,0,135208:0:0:0:0:
320,192,135208,128,0,136587:0:0:0:0:
64,192,136587,1,0,0:0:0:70:LR_Clap Normal.wav
448,192,136587,1,0,0:0:0:0:
64,192,136846,1,0,0:0:0:70:LR_HiHat Click.wav
448,192,136846,1,0,0:0:0:0:
320,192,137104,1,0,0:0:0:70:LR_Clap Normal.wav
64,192,137449,1,0,0:0:0:70:Tom1.wav
192,192,137449,1,0,0:0:0:0:
320,192,137622,1,0,0:0:0:70:Tom2.wav
448,192,137622,1,0,0:0:0:0:
64,192,137794,1,0,0:0:0:70:Tom3.wav
192,192,137794,1,0,0:0:0:0:
448,192,137967,1,2,0:0:0:0:
320,192,138139,1,0,0:0:0:0:
192,192,138311,1,8,0:0:0:0:
448,192,138311,1,0,0:0:0:0:
320,192,138484,1,0,0:0:0:0:
192,192,138656,1,0,0:0:0:0:
64,192,138829,1,2,0:0:0:0:
192,192,139001,1,8,0:0:0:0:
320,192,139001,1,0,0:0:0:0:
448,192,139173,1,0,0:0:0:0:
192,192,139346,1,2,0:0:0:0:
320,192,139518,1,0,0:0:0:0:
64,192,139691,1,8,0:0:0:0:
448,192,139691,1,0,0:0:0:0:
192,192,139863,1,0,0:0:0:0:
448,192,140036,1,0,0:0:0:0:
320,192,140208,1,2,0:0:0:0:
64,192,140380,1,8,0:0:0:0:
192,192,140380,1,0,0:0:0:0:
320,192,140553,1,0,0:0:0:0:
192,192,140725,1,2,0:0:0:0:
64,192,140898,1,0,0:0:0:0:
192,192,141070,1,8,0:0:0:0:
448,192,141070,1,0,0:0:0:0:
320,192,141242,1,0,0:0:0:0:
192,192,141415,1,0,0:0:0:0:
320,192,141587,1,2,0:0:0:0:
64,192,141760,1,8,0:0:0:0:
448,192,141760,1,0,0:0:0:0:
192,192,141932,1,0,0:0:0:0:
320,192,142104,1,2,0:0:0:0:
448,192,142277,1,0,0:0:0:0:
64,192,142449,1,8,0:0:0:0:
320,192,142449,1,0,0:0:0:0:
192,192,142622,1,0,0:0:0:0:
320,192,142794,1,0,0:0:0:0:
448,192,142967,1,2,0:0:0:0:
192,192,143139,1,8,0:0:0:0:
320,192,143139,1,0,0:0:0:0:
64,192,143311,1,0,0:0:0:0:
448,192,143484,1,2,0:0:0:0:
320,192,143656,1,0,0:0:0:0:
64,192,143829,1,8,0:0:0:0:
448,192,143829,1,0,0:0:0:0:
192,192,144001,1,0,0:0:0:0:
320,192,144173,1,0,0:0:0:0:
448,192,144346,1,2,0:0:0:0:
192,192,144518,1,8,0:0:0:0:
320,192,144518,1,0,0:0:0:0:
64,192,144691,1,0,0:0:0:0:
320,192,144863,1,2,0:0:0:0:
192,192,145036,1,0,0:0:0:0:
64,192,145208,1,8,0:0:0:0:
320,192,145208,1,0,0:0:0:0:
192,192,145380,1,0,0:0:0:0:
320,192,145553,1,0,0:0:0:0:
448,192,145725,1,2,0:0:0:0:
64,192,145898,1,8,0:0:0:0:
320,192,145898,1,0,0:0:0:0:
192,192,146070,1,0,0:0:0:0:
448,192,146242,1,2,0:0:0:0:
320,192,146415,1,0,0:0:0:0:
64,192,146587,1,8,0:0:0:0:
448,192,146587,1,0,0:0:0:0:
192,192,146760,1,0,0:0:0:0:
320,192,146932,1,0,0:0:0:0:
448,192,147104,1,2,0:0:0:0:
64,192,147277,1,8,0:0:0:0:
320,192,147277,1,0,0:0:0:0:
192,192,147449,1,0,0:0:0:0:
448,192,147622,1,2,0:0:0:0:
320,192,147794,1,0,0:0:0:0:
64,192,147967,1,8,0:0:0:0:
192,192,147967,1,0,0:0:0:0:
448,192,148139,1,2,0:0:0:0:
320,192,148311,1,0,0:0:0:0:
192,192,148484,1,8,0:0:0:0:
64,192,148484,1,0,0:0:0:0:
448,192,148656,1,2,0:0:0:0:
64,192,148829,1,8,0:0:0:0:
192,192,148829,1,0,0:0:0:0:
448,192,149001,128,2,149173:0:0:0:0:
320,192,149173,128,0,149346:0:0:0:0:
64,192,149346,128,8,149518:0:0:0:0:
448,192,149346,1,0,0:0:0:0:
192,192,149518,128,0,149691:0:0:0:0:
320,192,149691,128,0,149863:0:0:0:0:
448,192,149863,128,2,150036:0:0:0:0:
192,192,150036,128,8,150208:0:0:0:0:
320,192,150036,1,0,0:0:0:0:
64,192,150208,128,0,150380:0:0:0:0:
320,192,150380,128,2,150553:0:0:0:0:
448,192,150553,128,0,150725:0:0:0:0:
64,192,150725,1,8,0:0:0:0:
320,192,150725,128,0,150898:0:0:0:0:
192,192,150898,128,0,151070:0:0:0:0:
448,192,151070,128,0,151242:0:0:0:0:
320,192,151242,128,2,151415:0:0:0:0:
64,192,151415,128,8,151587:0:0:0:0:
448,192,151415,1,0,0:0:0:0:
192,192,151587,128,0,151760:0:0:0:0:
448,192,151760,128,2,151932:0:0:0:0:
320,192,151932,128,0,152104:0:0:0:0:
64,192,152104,128,8,152277:0:0:0:0:
448,192,152104,1,0,0:0:0:0:
192,192,152277,128,0,152449:0:0:0:0:
320,192,152449,128,0,152622:0:0:0:0:
192,192,152622,128,2,152794:0:0:0:0:
64,192,152794,1,8,0:0:0:0:
320,192,152794,128,0,152967:0:0:0:0:
448,192,152967,128,0,153139:0:0:0:0:
64,192,153139,128,2,153311:0:0:0:0:
320,192,153311,128,0,153484:0:0:0:0:
192,192,153484,128,8,153656:0:0:0:0:
448,192,153484,1,0,0:0:0:0:
64,192,153656,128,0,153829:0:0:0:0:
448,192,153829,128,0,154001:0:0:0:0:
320,192,154001,128,2,154173:0:0:0:0:
192,192,154173,128,8,154346:0:0:0:0:
448,192,154173,1,0,0:0:0:0:
64,192,154346,128,0,154518:0:0:0:0:
192,192,154518,1,2,0:0:0:0:
320,192,154691,1,0,0:0:0:0:
192,192,154863,1,8,0:0:0:0:
448,192,154863,1,0,0:0:0:0:
64,192,155036,1,0,0:0:0:0:
192,192,155208,1,0,0:0:0:0:
320,192,155380,1,2,0:0:0:0:
64,192,155553,1,8,0:0:0:0:
192,192,155553,1,0,0:0:0:0:
448,192,155725,1,0,0:0:0:0:
320,192,155898,1,2,0:0:0:0:
192,192,156070,1,0,0:0:0:0:
64,192,156242,1,8,0:0:0:0:
320,192,156242,1,0,0:0:0:0:
448,192,156415,1,0,0:0:0:0:
192,192,156587,1,0,0:0:0:0:
64,192,156760,1,2,0:0:0:0:
192,192,156932,1,8,0:0:0:0:
448,192,156932,1,0,0:0:0:0:
320,192,157104,1,0,0:0:0:0:
64,192,157277,1,2,0:0:0:0:
192,192,157449,1,0,0:0:0:0:
320,192,157622,1,8,0:0:0:0:
448,192,157622,1,0,0:0:0:0:
192,192,157794,1,0,0:0:0:0:
64,192,157967,1,0,0:0:0:0:
192,192,158139,1,2,0:0:0:0:
64,192,158311,1,8,0:0:0:0:
320,192,158311,1,0,0:0:0:0:
448,192,158484,1,0,0:0:0:0:
64,192,158656,1,2,0:0:0:0:
192,192,158829,1,0,0:0:0:0:
64,192,159001,1,8,0:0:0:0:
320,192,159001,1,0,0:0:0:0:
448,192,159173,1,0,0:0:0:0:
192,192,159346,1,0,0:0:0:0:
320,192,159518,1,2,0:0:0:0:
192,192,159691,1,8,0:0:0:0:
448,192,159691,1,0,0:0:0:0:
64,192,159863,1,0,0:0:0:0:
320,192,160036,1,0,0:0:0:100:LR3_BassDrop.wav
448,192,160208,1,0,0:0:0:0:
320,192,160380,1,0,0:0:0:0:
64,192,160553,1,0,0:0:0:0:
320,192,160725,1,0,0:0:0:0:
448,192,160898,1,0,0:0:0:0:
320,192,161070,1,0,0:0:0:0:
64,192,161242,1,0,0:0:0:0:
320,192,161415,1,0,0:0:0:0:
448,192,161587,1,0,0:0:0:0:
320,192,161760,1,0,0:0:0:0:
64,192,161932,1,0,0:0:0:0:
448,192,162104,128,0,162794:0:0:0:0:
64,192,162794,1,0,0:0:0:70:soft-hitwhistle.wav
192,192,162794,128,0,162967:0:0:0:0:
448,192,162967,128,0,163139:0:0:0:0:
192,192,163311,128,0,163484:0:0:0:0:
448,192,163484,128,0,163656:0:0:0:70:LR_HiHat Click.wav
192,192,163829,128,0,164001:0:0:0:0:
448,192,164001,128,0,164173:0:0:0:0:
64,192,164173,128,0,164346:0:0:0:70:LR_HiHat Click.wav
320,192,164346,128,0,164518:0:0:0:0:
64,192,164691,128,0,164863:0:0:0:0:
320,192,164863,128,0,165036:0:0:0:70:LR_HiHat Click.wav
64,192,165208,128,0,165380:0:0:0:0:
320,192,165380,128,0,165553:0:0:0:0:
64,192,165553,128,0,165725:0:0:0:70:LR_HiHat Click.wav
448,192,165725,128,0,165898:0:0:0:0:
64,192,166070,128,0,166242:0:0:0:0:
448,192,166242,128,0,166415:0:0:0:70:LR_HiHat Click.wav
64,192,166587,128,0,166760:0:0:0:0:
448,192,166760,128,0,166932:0:0:0:0:
192,192,166932,128,0,167104:0:0:0:70:LR_HiHat Click.wav
320,192,167104,128,0,167277:0:0:0:0:
192,192,167449,128,0,167622:0:0:0:0:
448,192,167622,1,0,0:0:0:70:LR_HiHat Click.wav
64,192,167794,1,0,0:0:0:0:
448,192,167967,1,0,0:0:0:0:
320,192,167967,128,0,168139:0:0:0:0:
64,192,168139,1,0,0:0:0:0:
448,192,168311,128,0,168484:0:0:0:70:LR_HiHat Click.wav
192,192,168484,128,0,168656:0:0:0:0:
448,192,168829,128,0,169001:0:0:0:0:
192,192,169001,128,0,169173:0:0:0:70:LR_HiHat Click.wav
448,192,169346,128,0,169518:0:0:0:0:
192,192,169518,128,0,169691:0:0:0:0:
320,192,169691,128,0,169863:0:0:0:70:LR_HiHat Click.wav
64,192,169863,128,0,170036:0:0:0:0:
320,192,170208,128,0,170380:0:0:0:0:
64,192,170380,128,0,170553:0:0:0:70:LR_HiHat Click.wav
320,192,170725,128,0,170898:0:0:0:0:
64,192,170898,128,0,171070:0:0:0:0:
448,192,171070,128,0,171242:0:0:0:70:LR_HiHat Click.wav
64,192,171242,128,0,171415:0:0:0:0:
448,192,171587,128,0,171760:0:0:0:0:
64,192,171760,128,0,171932:0:0:0:70:LR_HiHat Click.wav
448,192,172104,128,0,172277:0:0:0:0:
64,192,172277,128,0,172449:0:0:0:0:
320,192,172449,128,0,172622:0:0:0:70:LR_HiHat Click.wav
192,192,172622,128,0,172794:0:0:0:0:
320,192,172967,128,0,173139:0:0:0:0:
64,192,173139,1,0,0:0:0:70:LR_HiHat Click.wav
192,192,173311,1,0,0:0:0:0:
448,192,173484,1,0,0:0:0:0:
320,192,173656,1,0,0:0:0:0:
192,192,173829,1,0,0:0:0:70:soft-hitwhistle.wav
64,192,174173,128,0,174518:0:0:0:0:
192,192,174518,128,0,174691:0:0:0:70:LR_Clap Normal.wav
448,192,174518,1,0,0:0:0:0:
320,192,174691,128,0,175036:0:0:0:0:
448,192,175036,128,0,175380:0:0:0:0:
64,192,175380,128,0,175725:0:0:0:0:
192,192,175725,128,0,176070:0:0:0:0:
448,192,175898,1,0,0:0:0:70:LR_Clap Normal.wav
320,192,176070,128,0,176415:0:0:0:0:
448,192,176415,128,0,176587:0:0:0:0:
64,192,177277,1,0,0:0:0:70:LR_Clap Normal.wav
320,192,177277,128,0,177449:0:0:0:0:
192,192,177449,128,0,177794:0:0:0:0:
448,192,177794,128,0,178139:0:0:0:0:
64,192,178139,128,0,178484:0:0:0:0:
320,192,178484,128,0,178829:0:0:0:0:
448,192,178656,1,0,0:0:0:70:LR_Clap Normal.wav
192,192,178829,128,0,179173:0:0:0:0:
448,192,179173,128,0,179346:0:0:0:0:
192,192,180036,1,0,0:0:0:70:LR_Clap Normal.wav
320,192,180036,128,0,180208:0:0:0:0:
64,192,180208,128,0,180553:0:0:0:0:
448,192,180553,128,0,180898:0:0:0:0:
192,192,180898,128,0,181242:0:0:0:0:
320,192,181242,128,0,181587:0:0:0:0:
448,192,181415,1,0,0:0:0:70:LR_Clap Normal.wav
192,192,181587,128,0,181932:0:0:0:0:
64,192,181932,128,0,182104:0:0:0:0:
192,192,182794,1,0,0:0:0:70:LR_Clap Normal.wav
448,192,182794,128,0,182967:0:0:0:0:
320,192,182967,128,0,183311:0:0:0:0:
64,192,183311,128,0,183656:0:0:0:0:
192,192,183656,128,0,184001:0:0:0:0:
448,192,184001,128,0,184346:0:0:0:0:
64,192,184173,1,0,0:0:0:70:LR_Clap Normal.wav
320,192,184346,128,0,184691:0:0:0:0:
64,192,184863,128,0,185036:0:0:0:70:LR_Clap Normal.wav
320,192,185208,128,0,185380:0:0:0:0:
448,192,185553,128,0,185725:0:0:0:0:
192,192,185898,128,0,186070:0:0:0:0:
64,192,186242,128,0,186415:0:0:0:0:
320,192,186587,128,0,186760:0:0:0:0:
448,192,186932,128,0,187104:0:0:0:0:
192,192,187277,128,0,187449:0:0:0:0:
320,192,187622,1,0,0:0:0:0:
448,192,187794,1,0,0:0:0:0:
64,192,187967,1,0,0:0:0:0:
192,192,188139,1,0,0:0:0:0:
320,192,188311,1,0,0:0:0:0:
448,192,188484,1,0,0:0:0:0:
320,192,188656,1,0,0:0:0:0:
192,192,188829,1,0,0:0:0:0:
448,192,189001,1,0,0:0:0:0:
320,192,189173,1,0,0:0:0:0:
192,192,189346,1,0,0:0:0:0:
64,192,189518,1,0,0:0:0:0:
448,192,189691,1,0,0:0:0:0:
320,192,189863,1,0,0:0:0:0:
64,192,190036,1,0,0:0:0:0:
448,192,190208,1,0,0:0:0:0:
192,192,190380,128,0,193311:0:0:0:0:
