osu file format v14

[General]
AudioFilename: audio.mp3
AudioLeadIn: 0
PreviewTime: 35962
Countdown: 0
SampleSet: Soft
StackLeniency: 0.2
Mode: 0
LetterboxInBreaks: 0
WidescreenStoryboard: 0

[Editor]
Bookmarks: 72012,83449,186012
DistanceSpacing: 1.3
BeatDivisor: 4
GridSize: 32
TimelineZoom: 1.6

[Metadata]
Title:PURSUIT OF HAPPINESS
TitleUnicode:PURSUIT OF HAPPINESS
Artist:dark cat
ArtistUnicode:dark cat
Creator:William K
Version:Happiness
Source:osu!
Tags:kuro neko cats
BeatmapID:1547489
BeatmapSetID:733283

[Difficulty]
HPDrainRate:6
CircleSize:4
OverallDifficulty:8
ApproachRate:8.8
SliderMultiplier:1.9
SliderTickRate:1

[Events]
//Background and Video events
0,0,"Cute-Anime-Cat-Background-HQ 2.jpg",0,0
//Break Periods
//Storyboard Layer 0 (Background)
//Storyboard Layer 1 (Fail)
//Storyboard Layer 2 (Pass)
//Storyboard Layer 3 (Foreground)
//Storyboard Sound Samples

[TimingPoints]
12050,375,4,2,0,30,1,0
12050,-133.333333333333,4,2,0,30,0,0
23675,-200,4,2,0,30,0,0
23956,-200,4,2,0,5,0,0
24050,-125,4,2,0,40,0,0
24331,-125,4,2,0,5,0,0
24425,-125,4,2,0,40,0,0
27331,-125,4,2,0,5,0,0
27425,-125,4,2,0,40,0,0
30331,-125,4,2,0,5,0,0
30425,-200,4,2,0,40,0,0
30800,-111.111111111111,4,2,0,40,0,0
35487,-111.111111111111,4,2,0,35,0,0
35675,-111.111111111111,4,2,0,30,0,0
35862,-111.111111111111,4,2,0,25,0,0
36050,-111.111111111111,4,2,0,50,0,1
36237,-111.111111111111,4,2,0,50,0,0
36425,-200,4,2,0,50,0,0
36800,-83.3333333333333,4,2,0,50,0,0
37175,-111.111111111111,4,2,0,50,0,0
37925,-200,4,2,0,50,0,0
38300,-83.3333333333333,4,2,0,50,0,0
38675,-111.111111111111,4,2,0,50,0,0
39425,-200,4,2,0,50,0,0
39518,-200,4,2,0,5,0,0
39612,-200,4,2,0,50,0,0
39706,-200,4,2,0,5,0,0
39800,-83.3333333333333,4,2,0,50,0,0
40550,-111.111111111111,4,2,0,50,0,0
40925,-200,4,2,0,50,0,0
41300,-83.3333333333333,4,2,0,50,0,0
41675,-111.111111111111,4,2,0,50,0,0
42425,-200,4,2,0,50,0,0
42800,-83.3333333333333,4,2,0,50,0,0
43175,-111.111111111111,4,2,0,50,0,0
43925,-200,4,2,0,50,0,0
44300,-83.3333333333333,4,2,0,50,0,0
44675,-111.111111111111,4,2,0,50,0,0
45425,-200,4,2,0,50,0,0
45518,-200,4,2,0,5,0,0
45612,-200,4,2,0,50,0,0
45706,-200,4,2,0,5,0,0
45800,-83.3333333333333,4,2,0,50,0,0
46175,-111.111111111111,4,2,0,50,0,0
46925,-200,4,2,0,50,0,0
47487,-200,4,2,0,45,0,0
47675,-200,4,2,0,40,0,0
47862,-200,4,2,0,35,0,0
48050,-111.111111111111,4,2,0,50,0,1
48237,-111.111111111111,4,2,0,50,0,0
48706,-111.111111111111,4,2,0,5,0,0
48800,-200,4,2,0,50,0,0
49081,-200,4,2,0,5,0,0
49175,-111.111111111111,4,2,0,50,0,0
50206,-111.111111111111,4,2,0,5,0,0
50300,-200,4,2,0,50,0,0
50581,-200,4,2,0,5,0,0
50675,-111.111111111111,4,2,0,50,0,0
51050,-200,4,2,0,50,0,0
51143,-200,4,2,0,5,0,0
51237,-166.666666666667,4,2,0,50,0,0
51331,-166.666666666667,4,2,0,5,0,0
51425,-142.857142857143,4,2,0,50,0,0
51518,-142.857142857143,4,2,0,5,0,0
51612,-125,4,2,0,50,0,0
51706,-125,4,2,0,5,0,0
51800,-111.111111111111,4,2,0,50,0,0
51893,-111.111111111111,4,2,0,5,0,0
51987,-125,4,2,0,50,0,0
52081,-125,4,2,0,5,0,0
52175,-142.857142857143,4,2,0,50,0,0
52268,-142.857142857143,4,2,0,5,0,0
52362,-166.666666666667,4,2,0,50,0,0
52456,-166.666666666667,4,2,0,5,0,0
52550,-200,4,2,0,50,0,0
52643,-200,4,2,0,5,0,0
52737,-250,4,2,0,50,0,0
52831,-250,4,2,0,5,0,0
52925,-333.333333333333,4,2,0,50,0,0
53018,-333.333333333333,4,2,0,5,0,0
53112,-500,4,2,0,50,0,0
53206,-500,4,2,0,5,0,0
53300,-666.666666666667,4,2,0,50,0,0
53393,-666.666666666667,4,2,0,5,0,0
53487,-153.846153846154,4,2,0,50,0,0
53581,-153.846153846154,4,2,0,5,0,0
53675,-86.9565217391304,4,2,0,50,0,0
53768,-86.9565217391304,4,2,0,5,0,0
53862,-57.1428571428571,4,2,0,50,0,0
53956,-57.1428571428571,4,2,0,5,0,0
54050,-111.111111111111,4,2,0,50,0,0
54706,-111.111111111111,4,2,0,5,0,0
54800,-200,4,2,0,50,0,0
55081,-200,4,2,0,5,0,0
55175,-111.111111111111,4,2,0,50,0,0
56206,-111.111111111111,4,2,0,5,0,0
56300,-200,4,2,0,50,0,0
56581,-200,4,2,0,5,0,0
56675,-111.111111111111,4,2,0,50,0,0
57050,-200,4,2,0,50,0,0
57143,-200,4,2,0,5,0,0
57237,-166.666666666667,4,2,0,50,0,0
57331,-166.666666666667,4,2,0,5,0,0
57425,-142.857142857143,4,2,0,50,0,0
57518,-142.857142857143,4,2,0,5,0,0
57612,-125,4,2,0,50,0,0
57706,-125,4,2,0,5,0,0
57800,-111.111111111111,4,2,0,50,0,0
57893,-111.111111111111,4,2,0,5,0,0
57987,-125,4,2,0,50,0,0
58081,-125,4,2,0,5,0,0
58175,-142.857142857143,4,2,0,50,0,0
58268,-142.857142857143,4,2,0,5,0,0
58362,-166.666666666667,4,2,0,50,0,0
58456,-166.666666666667,4,2,0,5,0,0
58550,-166.666666666667,4,2,0,50,0,0
58737,-166.666666666667,4,2,0,45,0,0
58925,-166.666666666667,4,2,0,40,0,0
59112,-166.666666666667,4,2,0,35,0,0
59300,-166.666666666667,4,2,0,40,0,0
59393,-166.666666666667,4,2,0,5,0,0
59487,-100,4,2,0,45,0,0
59581,-100,4,2,0,5,0,0
59675,-71.4285714285715,4,2,0,50,0,0
59768,-71.4285714285714,4,2,0,5,0,0
59862,-55.5555555555556,4,2,0,55,0,0
59956,-55.5555555555556,4,2,0,5,0,0
60050,-133.333333333333,4,2,0,30,0,0
61925,-125,4,2,0,30,0,0
63425,-117.647058823529,4,2,0,30,0,0
63800,-200,4,2,0,30,0,0
64175,-117.647058823529,4,2,0,30,0,0
64925,-111.111111111111,4,2,0,30,0,0
71487,-111.111111111111,4,2,0,25,0,0
71675,-111.111111111111,4,2,0,20,0,0
71862,-111.111111111111,4,2,0,15,0,0

[Colours]
Combo1 : 255,224,130
Combo2 : 255,197,138
Combo3 : 136,189,255
Combo4 : 249,142,158

[HitObjects]
63,153,11862,5,8,0:3:0:0:
63,153,12050,6,0,P|54:189|55:231,1,71.2500027179719,4|0,0:0|0:0,0:0:0:0:
91,302,12425,2,0,P|121:269|222:281,1,142.500005435944,0|2,0:0|0:0,0:0:0:0:
270,337,12987,2,0,L|371:327,1,71.2500027179719
284,230,13362,6,0,L|425:243,1,142.500005435944,2|0,0:0|0:0,0:0:0:0:
511,226,13925,2,0,P|497:193|471:169,1,71.2500027179719,2|0,0:0|0:0,0:0:0:0:
403,115,14300,1,2,0:0:0:0:
483,83,14487,1,0,0:0:0:0:
416,32,14675,2,0,L|345:21,1,71.2500027179719,2|0,0:0|0:0,0:0:0:0:
245,105,15050,5,2,0:0:0:0:
322,144,15237,1,0,0:0:0:0:
249,189,15425,2,0,P|193:238|203:309,1,142.500005435944,0|2,0:0|0:0,0:0:0:0:
260,358,15987,2,0,P|231:379|196:386,1,71.2500027179719
277,274,16362,6,0,P|351:264|400:315,1,142.500005435944,2|0,0:0|0:0,0:0:0:0:
439,384,16925,1,2,0:0:0:0:
439,384,17300,1,2,0:0:0:0:
483,311,17487,1,0,0:0:0:0:
443,236,17675,1,2,0:0:0:0:
474,152,17862,1,8,0:3:0:0:
474,152,18050,6,0,P|438:151|403:159,1,71.2500027179719,4|0,0:3|0:0,0:0:0:0:
359,235,18425,2,0,P|321:197|219:214,1,142.500005435944,0|2,0:0|0:0,0:0:0:0:
169,251,18987,2,0,L|156:328,1,71.2500027179719
96,211,19362,6,0,L|79:51,1,142.500005435944,2|0,0:0|0:0,0:0:0:0:
161,35,19925,2,0,L|171:127,1,71.2500027179719,2|0,0:0|0:0,0:0:0:0:
178,192,20300,1,2,0:0:0:0:
249,144,20487,1,0,0:0:0:0:
254,230,20675,2,0,L|244:322,1,71.2500027179719,2|0,0:0|0:0,0:0:0:0:
328,182,21050,5,2,0:0:0:0:
333,268,21237,1,0,0:0:0:0:
414,188,21425,2,0,P|388:123|325:96,1,142.500005435944,0|2,0:0|0:0,0:0:0:0:
249,144,21987,2,0,L|242:55,1,71.2500027179719
325,207,22362,6,0,L|306:376,1,142.500005435944,2|0,0:0|0:0,0:0:0:0:
225,384,22925,2,0,L|232:313,1,71.2500027179719,2|0,0:0|0:0,0:0:0:0:
223,231,23300,1,2,0:0:0:0:
150,318,23487,1,0,0:0:0:0:
140,236,23675,6,0,P|107:231|63:233,1,71.25
69,232,24050,6,0,B|44:295|100:286|59:376,1,114,4|0,0:0|0:0,0:0:0:0:
58,377,24425,1,2,0:0:0:0:
58,377,24612,1,0,1:0:0:0:
166,359,24800,2,0,L|264:351,1,76,2|0,0:0|0:0,0:0:0:0:
239,195,25175,1,0,1:0:0:0:
124,268,25362,6,0,L|209:274,1,76,2|0,0:0|0:0,0:0:0:0:
200,119,25737,1,0,1:0:0:0:
117,176,25925,2,0,L|103:73,1,76,2|0,0:0|0:0,0:0:0:0:
210,42,26300,2,0,L|200:118,1,76,0|0,1:0|0:0,0:0:0:0:
132,6,26675,1,0,1:0:0:0:
301,29,26862,1,0,1:0:0:0:
301,29,26956,1,0,1:0:0:0:
301,29,27050,6,0,L|444:23,1,114,0|0,1:0|0:0,0:0:0:0:
452,21,27425,1,2,0:0:0:0:
452,21,27612,1,0,1:0:0:0:
376,181,27800,2,0,L|368:105,1,76,2|0,0:0|0:0,0:0:0:0:
453,112,28175,1,0,1:0:0:0:
459,282,28362,6,0,L|467:206,1,76,2|0,0:0|0:0,0:0:0:0:
371,281,28737,1,0,1:0:0:0:
474,373,28925,2,0,L|383:385,1,76,2|0,0:0|0:0,0:0:0:0:
295,270,29300,2,0,L|370:280,1,76,0|0,1:0|0:0,0:0:0:0:
295,367,29675,1,0,1:0:0:0:
193,299,29862,1,8,0:3:0:0:
193,299,29956,1,0,1:0:0:0:
193,299,30050,6,0,B|185:216|185:216|204:238,1,114,4|0,0:3|0:0,0:0:0:0:
207,246,30425,6,0,L|157:245,1,47.5,2|0,0:0|1:0,0:0:0:0:
70,81,30800,6,0,L|79:165,1,85.4999973907472,2|0,0:0|0:0,0:0:0:0:
160,208,31175,2,0,L|170:124,1,85.4999973907472,0|0,1:0|0:0,0:0:0:0:
149,39,31550,5,2,0:0:0:0:
266,242,31737,2,0,L|257:158,1,85.4999973907472,0|0,1:0|0:0,0:0:0:0:
242,67,32112,1,2,0:0:0:0:
349,200,32300,2,0,L|357:115,1,85.4999973907472,0|0,1:0|0:0,0:0:0:0:
465,261,32675,1,0,1:0:0:0:
441,113,32862,2,0,L|452:186,1,42.7499986953736,0|0,1:0|1:0,1:0:0:0:
437,346,33050,5,0,1:0:0:0:
269,333,33237,1,0,1:0:0:0:
465,261,33425,5,0,1:0:0:0:
248,348,33612,1,0,1:0:0:0:
453,355,33800,5,0,1:0:0:0:
310,243,33987,1,0,1:0:0:0:
480,262,34175,5,0,1:0:0:0:
281,232,34362,1,0,1:0:0:0:
498,152,34550,6,0,L|448:147,1,42.7499986953736,0|0,1:0|1:0,1:0:0:0:
271,140,34737,2,0,L|321:135,1,42.7499986953736,0|0,1:0|1:0,1:0:0:0:
512,129,34925,6,0,L|462:124,1,42.7499986953736,0|0,1:0|1:0,1:0:0:0:
262,116,35112,2,0,L|312:111,1,42.7499986953736,0|0,1:0|1:0,1:0:0:0:
387,73,35300,5,8,0:3:0:0:
381,174,35487,5,2,0:0:0:0:
377,255,35675,5,2,0:0:0:0:
373,311,35862,5,2,0:0:0:0:
310,121,36050,5,4,0:0:0:0:
457,125,36237,1,0,0:0:0:0:
298,204,36425,6,0,L|231:198,1,47.5,2|8,0:0|0:3,0:0:0:0:
239,198,36800,6,0,P|259:253|225:307,1,113.999996520996,8|0,0:1|0:0,0:0:0:0:
100,257,37175,2,0,P|146:238|204:268,1,85.4999973907472,2|8,0:0|0:3,0:0:0:0:
316,165,37550,5,2,0:0:0:0:
270,43,37737,1,8,0:3:0:0:
270,43,37925,6,0,L|326:51,1,47.5,8|0,0:3|0:0,0:0:0:0:
328,52,38300,6,0,L|312:204,1,113.999996520996,8|0,0:1|0:0,0:0:0:0:
425,69,38675,2,0,L|430:182,1,85.4999973907472,2|0,0:0|0:0,0:0:0:0:
382,237,39050,5,8,0:3:0:0:
382,237,39237,1,0,0:0:0:0:
509,364,39425,6,0,P|509:332|507:324,1,23.75,2|0,0:0|0:0,0:0:0:0:
398,361,39612,2,0,P|398:393|400:401,1,23.75,8|0,0:3|0:0,0:0:0:0:
444,300,39800,6,0,P|392:327|317:284,2,113.999996520996,8|0|2,0:1|0:0|0:0,0:0:0:0:
294,243,40362,1,8,0:3:0:0:
216,348,40550,5,2,0:0:0:0:
236,174,40737,1,8,0:3:0:0:
236,174,40925,6,0,L|230:122,1,47.5,8|0,0:3|0:0,0:0:0:0:
229,115,41300,6,0,B|314:123|314:123|281:144,1,113.999996520996,8|0,0:1|0:0,0:0:0:0:
157,69,41675,2,0,P|194:37|245:33,1,85.4999973907472,2|0,0:0|0:0,0:0:0:0:
153,164,42050,5,8,0:3:0:0:
73,114,42237,1,0,0:0:0:0:
74,204,42425,6,0,L|79:266,1,47.5,2|8,0:0|0:3,0:0:0:0:
79,264,42800,6,0,B|118:246|118:246|199:268,1,113.999996520996,8|0,0:1|0:0,0:0:0:0:
248,196,43175,1,2,0:0:0:0:
235,343,43362,1,8,0:3:0:0:
186,264,43550,5,2,0:0:0:0:
320,317,43737,1,8,0:3:0:0:
320,317,43925,6,0,L|383:318,1,47.5,8|0,0:3|0:0,0:0:0:0:
381,319,44300,6,0,B|369:253|405:261|384:197,1,113.999996520996,8|0,0:1|0:0,0:0:0:0:
466,293,44675,1,2,0:0:0:0:
466,293,44862,1,0,0:0:0:0:
452,145,45050,6,0,L|463:58,1,85.4999973907472,8|0,0:3|0:0,0:0:0:0:
314,143,45425,6,0,L|309:104,1,23.75,2|0,0:0|0:0,0:0:0:0:
303,0,45612,2,0,L|300:23,1,23.75,8|0,0:3|0:3,0:0:0:0:
361,64,45800,6,0,L|234:77,2,113.999996520996,8|0|0,0:1|0:0|0:0,0:0:0:0:
171,8,46362,1,8,0:3:0:0:
94,168,46550,5,2,0:0:0:0:
123,85,46737,1,8,0:3:0:0:
155,240,46925,6,0,L|167:298,1,47.5,8|0,0:3|0:0,0:0:0:0:
40,107,47300,5,8,0:1:0:0:
28,221,47487,5,2,0:0:0:0:
15,309,47675,5,2,0:0:0:0:
11,346,47862,5,2,0:0:0:0:
94,168,48050,6,0,B|187:130|169:206|268:161,1,170.999994781494,4|2,0:0|0:0,0:0:0:0:
136,246,48612,2,0,L|144:293,1,42.7499986953736,8|0,0:3|0:0,0:0:0:0:
220,89,48800,6,0,L|229:10,1,71.25,8|0,0:1|0:0,0:0:0:0:
258,164,49175,5,2,0:0:0:0:
317,30,49362,1,8,0:3:0:0:
364,201,49550,5,2,0:0:0:0:
383,104,49737,1,8,0:3:0:0:
383,104,49925,1,8,0:3:0:0:
289,246,50112,2,0,L|296:297,1,42.7499986953736
458,241,50300,6,0,L|443:149,1,71.25,8|0,0:1|0:0,0:0:0:0:
384,290,50675,6,0,P|414:322|474:327,1,85.4999973907472,2|0,0:0|0:0,0:0:0:0:
289,246,51050,6,0,L|280:290,1,23.75,8|0,0:3|0:0,0:0:0:0:
174,312,51237,2,0,L|166:263,1,28.4999991302491
92,190,51425,6,0,L|81:245,1,33.2499989852906,2|0,0:0|0:0,0:0:0:0:
209,200,51612,2,0,L|200:135,1,38,8|0,0:3|0:0,0:0:0:0:
309,106,51800,6,0,L|293:177,1,42.7499986953736,8|0,0:1|0:0,0:0:0:0:
136,114,51987,2,0,L|128:66,1,38
49,25,52175,6,0,L|42:79,1,33.2499989852906,2|0,0:0|0:0,0:0:0:0:
225,75,52362,2,0,L|218:29,1,28.4999991302491,8|0,0:3|0:0,0:0:0:0:
400,81,52550,6,0,L|391:121,1,23.75,2|0,0:0|0:0,0:0:0:0:
209,200,52737,2,0,L|204:170,1,19,8|0,0:3|0:0,0:0:0:0:
309,174,52925,6,0,L|304:197,1,14.2499995651245,8|0,0:3|0:0,0:0:0:0:
407,207,53112,2,0,L|405:191,1,9.5
269,277,53300,6,0,L|271:286,1,7.12499978256226,8|0,0:1|0:0,0:0:0:0:
194,312,53487,2,0,L|184:277,1,30.8749985866547
103,299,53675,6,0,L|118:350,1,54.6250010418892,2|0,0:0|0:0,0:0:0:0:
43,384,53862,2,0,L|16:303,1,83.1250007927418
62,137,54050,6,0,L|51:234,1,85.4999973907472,8|0,0:3|0:0,0:0:0:0:
134,71,54425,1,2,0:0:0:0:
154,169,54612,2,0,L|146:235,1,42.7499986953736,8|0,0:3|0:0,0:0:0:0:
231,104,54800,6,0,L|228:23,1,71.25,8|0,0:1|0:0,0:0:0:0:
239,190,55175,5,2,0:0:0:0:
316,109,55362,1,8,0:3:0:0:
360,279,55550,5,2,0:0:0:0:
385,182,55737,1,8,0:3:0:0:
385,182,55925,1,8,0:3:0:0:
269,273,56112,2,0,L|275:316,1,42.7499986953736
461,318,56300,6,0,L|449:240,1,71.25,8|0,0:1|0:0,0:0:0:0:
360,279,56675,6,0,L|376:371,1,85.4999973907472,2|0,0:0|0:0,0:0:0:0:
361,187,57050,6,0,L|401:178,1,23.75,8|0,0:3|0:0,0:0:0:0:
431,93,57237,2,0,L|389:84,1,28.4999991302491
278,99,57425,6,0,L|316:105,1,33.2499989852906,2|0,0:0|0:0,0:0:0:0:
316,260,57612,2,0,L|267:270,1,38,8|0,0:3|0:0,0:0:0:0:
198,191,57800,6,0,L|246:182,1,42.7499986953736,8|0,0:1|0:0,0:0:0:0:
219,25,57987,2,0,L|169:13,1,38
144,112,58175,6,0,L|196:105,1,33.2499989852906,2|0,0:0|0:0,0:0:0:0:
170,273,58362,2,0,L|119:267,1,28.4999991302491
37,143,58550,5,8,0:2:0:0:
37,143,58737,1,2,0:0:0:0:
37,143,58925,1,2,0:0:0:0:
37,143,59112,1,2,0:0:0:0:
37,143,59300,6,0,L|46:196,1,28.4999991302491,2|0,0:0|0:0,0:0:0:0:
41,171,59487,6,0,L|51:232,1,47.5,2|0,0:0|0:0,0:0:0:0:
49,217,59675,6,0,L|62:301,1,66.4999979705811,2|0,0:0|0:0,0:0:0:0:
60,283,59862,6,0,L|75:380,1,85.4999973907472,2|0,0:0|0:0,0:0:0:0:
37,143,60050,5,4,0:0:0:0:
37,143,60425,2,0,L|119:157,2,71.2500027179719,2|0|8,0:0|0:0|0:0,0:0:0:0:
82,51,61175,2,0,L|164:65,1,71.2500027179719,2|0,0:0|0:0,0:0:0:0:
107,154,61925,6,0,L|193:171,2,76,2|0|8,0:0|0:0|0:0,0:0:0:0:
152,62,62675,2,0,L|236:79,1,76,2|0,0:0|0:0,0:0:0:0:
181,168,63425,6,0,L|278:188,1,80.750001540184,2|0,0:0|0:0,0:0:0:0:
226,77,63800,1,8,0:0:0:0:
226,77,64175,6,0,L|310:95,1,80.750001540184,2|0,0:0|0:0,0:0:0:0:
260,184,64925,6,0,L|361:206,1,85.4999973907472,2|0,0:0|0:0,0:0:0:0:
387,49,65300,5,8,0:0:0:0:
417,153,65487,5,2,0:0:0:0:
442,238,65675,5,2,0:0:0:0:
454,280,65862,5,2,0:0:0:0:
305,86,66050,6,0,B|194:82,1,85.4999973907472,4|0,0:0|0:0,0:0:0:0:
270,173,66425,2,0,B|184:176,1,85.4999973907472,2|0,0:0|0:0,0:0:0:0:
237,263,66800,2,0,B|126:259,1,85.4999973907472,8|0,0:0|0:0,0:0:0:0:
202,350,67175,2,0,B|116:353,1,85.4999973907472,2|0,1:2|0:0,0:0:0:0:
291,338,67550,5,2,0:0:0:0:
375,382,67737,2,0,L|382:291,1,85.4999973907472,0|0,1:0|0:0,0:0:0:0:
237,263,68112,1,2,0:0:0:0:
160,377,68300,2,0,L|153:291,1,85.4999973907472,0|0,1:0|0:0,0:0:0:0:
323,232,68675,1,2,0:0:0:0:
166,205,68862,1,0,1:0:0:0:
166,205,68956,1,0,1:0:0:0:
166,205,69050,5,0,1:0:0:0:
355,149,69237,1,0,1:0:0:0:
149,217,69425,5,2,0:0:0:0:
277,71,69612,1,0,1:0:0:0:
102,124,69800,5,0,1:0:0:0:
292,63,69987,1,0,1:0:0:0:
85,125,70175,5,0,1:0:0:0:
374,152,70362,1,2,0:0:0:0:
66,206,70550,6,0,L|53:260,1,42.7499986953736,0|0,1:0|1:0,1:0:0:0:
226,330,70737,2,0,L|215:288,1,42.7499986953736,0|0,1:0|1:0,1:0:0:0:
39,193,70925,6,0,L|26:247,1,42.7499986953736,0|0,1:0|1:0,1:0:0:0:
251,333,71112,2,0,L|240:291,1,42.7499986953736,0|0,1:0|1:0,1:0:0:0:
176,70,71300,5,8,0:3:0:0:
164,154,71487,5,2,0:0:0:0:
147,235,71675,5,2,0:0:0:0:
135,290,71862,5,2,0:0:0:0:
