osu file format v14

[General]
AudioFilename: audio.mp3
AudioLeadIn: 0
PreviewTime: 136900
Countdown: 0
SampleSet: Soft
StackLeniency: 0.7
Mode: 2
LetterboxInBreaks: 0
WidescreenStoryboard: 1

[Editor]
Bookmarks: 12200,31400,53000,81800,96200,105800,115400,175400,189800
DistanceSpacing: 1.4
BeatDivisor: 6
GridSize: 8
TimelineZoom: 1.5

[Metadata]
Title:ELINE
TitleUnicode:ELINE
Artist:dark cat
ArtistUnicode:dark cat
Creator:Absolute Zero
Version:WildZero's Overdose
Source:osu!
Tags:JBHyperion JBH WildOne94 catstep mappers' guild featured artist Farbenspiel EDM electronic electro dance glitch hop
BeatmapID:2228566
BeatmapSetID:1064394

[Difficulty]
HPDrainRate:6
CircleSize:4
OverallDifficulty:9.3
ApproachRate:9.3
SliderMultiplier:2.8
SliderTickRate:1

[Events]
//Background and Video events
0,0,"tree-water-glass-green-biology-flight-606745-pxhere.com.jpg",0,0
//Break Periods
2,72400,76400
2,166000,170046
//Storyboard Layer 0 (Background)
//Storyboard Layer 1 (Fail)
//Storyboard Layer 2 (Pass)
//Storyboard Layer 3 (Foreground)
//Storyboard Layer 4 (Overlay)
//Storyboard Sound Samples

[TimingPoints]
2600,600,4,2,1,30,1,0
20500,-100,4,2,2,30,0,0
21800,-100,4,2,1,30,0,0
30200,-100,4,2,1,30,0,0
30800,-100,4,2,1,20,0,0
31400,-100,4,2,1,15,0,0
32600,-100,4,2,1,10,0,0
33800,-100,4,1,1,30,0,0
34000,-100,4,1,1,10,0,0
38600,-100,4,1,1,17,0,0
39200,-100,4,1,1,34,0,0
39800,-100,4,1,1,41,0,0
40400,-100,4,1,1,48,0,0
41000,-100,4,1,1,57,0,0
41600,-100,4,1,1,66,0,0
42200,-100,4,3,2,45,0,0
42500,-100,4,3,2,45,0,0
42800,-100,4,3,2,45,0,0
43400,-66.6666666666667,4,3,1,40,0,1
44000,-100,4,3,1,40,0,1
44900,-90.9090909090909,4,3,1,40,0,1
45100,-100,4,3,1,40,0,1
45200,-100,4,3,1,40,0,1
45800,-71.4285714285714,4,3,1,40,0,1
46300,-100,4,3,1,40,0,1
46400,-100,4,3,1,40,0,1
47300,-83.3333333333333,4,3,1,40,0,1
47500,-100,4,3,1,40,0,1
47600,-100,4,3,1,40,0,1
48200,-66.6666666666667,4,3,1,40,0,1
48700,-100,4,3,1,40,0,1
48800,-100,4,3,1,40,0,1
49700,-100,4,3,1,40,0,1
50000,-100,4,3,1,40,0,1
50600,-66.6666666666667,4,3,1,40,0,1
51100,-100,4,3,1,40,0,1
51200,-100,4,3,1,40,0,1
52500,-100,4,3,1,40,0,1
53000,-76.9230769230769,4,3,1,40,0,1
53500,-100,4,3,1,40,0,1
53600,-100,4,3,1,40,0,1
54500,-90.9090909090909,4,3,1,40,0,1
54700,-100,4,3,1,40,0,1
54800,-100,4,3,1,40,0,1
55400,-71.4285714285714,4,3,1,40,0,1
55900,-100,4,3,1,40,0,1
56000,-100,4,3,1,40,0,1
56900,-83.3333333333333,4,3,1,40,0,1
57100,-100,4,3,1,40,0,1
57200,-100,4,3,1,40,0,1
57500,-100,4,3,1,40,0,1
57800,-66.6666666666667,4,3,1,40,0,1
58300,-100,4,3,1,40,0,1
58400,-100,4,3,1,40,0,1
59300,-100,4,3,1,40,0,1
59600,-100,4,3,1,40,0,1
60200,-100,4,3,1,40,0,1
60800,-100,4,3,1,40,0,1
61400,-100,4,3,2,40,0,1
62000,-100,4,3,2,40,0,0
62600,-76.9230769230769,4,3,3,40,0,1
62900,-100,4,3,3,40,0,1
63200,-100,4,3,3,40,0,1
64100,-100,4,3,3,40,0,1
64400,-100,4,3,3,40,0,1
65000,-71.4285714285714,4,3,3,40,0,1
65300,-100,4,3,3,40,0,1
65600,-100,4,3,3,40,0,1
66500,-100,4,3,3,40,0,1
66800,-100,4,3,3,40,0,1
67400,-66.6666666666667,4,3,3,40,0,1
67900,-100,4,3,3,40,0,1
68000,-100,4,3,3,40,0,1
68900,-100,4,3,3,40,0,1
69200,-100,4,3,3,40,0,1
69800,-66.6666666666667,4,3,3,40,0,1
70300,-100,4,3,3,40,0,1
70400,-100,4,3,3,40,0,1
71700,-100,4,3,3,40,0,1
72200,-100,4,2,1,10,0,0
74600,-100,4,2,1,30,0,0
77000,-100,4,2,1,45,0,0
78200,-100,4,2,1,50,0,0
79400,-100,4,2,2,60,0,0
80600,-100,4,2,2,70,0,0
81200,-100,4,2,2,80,0,0
81900,-100,4,2,1,35,0,0
85400,-100,4,2,1,35,0,0
94900,-100,4,2,2,35,0,0
96400,-100,4,2,3,35,0,0
103400,-100,4,2,1,35,0,0
104600,-100,4,2,2,35,0,0
105800,-100,4,2,1,35,0,0
114200,-100,4,2,2,35,0,0
115400,-100,4,2,1,35,0,0
123800,-100,4,2,1,35,0,0
124400,-100,4,2,1,20,0,0
125000,-100,4,2,1,15,0,0
126200,-100,4,2,1,10,0,0
127400,-100,4,2,1,30,0,0
132200,-100,4,1,1,17,0,0
132800,-100,4,1,1,34,0,0
133400,-100,4,1,1,41,0,0
134000,-100,4,1,1,48,0,0
134600,-100,4,1,1,57,0,0
135200,-100,4,1,1,66,0,0
135800,-100,4,3,2,45,0,0
136700,-100,4,3,2,45,0,0
137000,-66.6666666666667,4,3,1,40,0,1
137300,-100,4,3,1,40,0,1
138500,-66.6666666666667,4,3,1,40,0,1
139000,-100,4,3,1,40,0,1
139400,-66.6666666666667,4,3,1,40,0,1
139700,-100,4,3,1,40,0,1
140900,-66.6666666666667,4,3,1,40,0,1
141500,-100,4,3,1,40,0,1
141800,-66.6666666666667,4,3,1,40,0,1
142100,-100,4,3,1,40,0,1
144200,-66.6666666666667,4,3,1,40,0,1
144500,-100,4,3,1,40,0,1
145100,-66.6666666666667,4,3,1,40,0,1
145400,-100,4,3,1,40,0,1
145600,-100,4,3,1,40,0,1
145900,-100,4,3,1,40,0,1
146100,-100,4,3,1,40,0,1
146600,-66.6666666666667,4,3,1,40,0,1
146900,-100,4,3,1,40,0,1
148100,-66.6666666666667,4,3,1,40,0,1
148600,-100,4,3,1,40,0,1
149000,-66.6666666666667,4,3,1,40,0,1
149200,-100,4,3,1,40,0,1
150500,-66.6666666666667,4,3,1,40,0,1
151100,-100,4,3,1,40,0,1
151400,-66.6666666666667,4,3,1,40,0,1
151600,-100,4,3,1,40,0,1
153800,-66.6666666666667,4,3,1,40,0,1
154100,-100,4,3,1,40,0,1
155000,-66.6666666666667,4,3,2,40,0,1
155600,-100,4,3,2,40,0,0
155900,-100,4,3,2,40,0,0
156200,-66.6666666666667,4,3,3,40,0,1
156500,-100,4,3,3,40,0,1
158600,-66.6666666666667,4,3,3,40,0,1
158900,-100,4,3,3,40,0,1
161000,-66.6666666666667,4,3,3,40,0,1
161300,-100,4,3,3,40,0,1
163400,-66.6666666666667,4,3,3,40,0,1
163700,-100,4,3,3,40,0,1
164900,-100,4,3,3,40,0,1
165100,-100,4,3,3,40,0,1
165200,-100,4,3,3,40,0,1
165300,-100,4,3,3,40,0,1
165800,-100,4,2,1,10,0,0
168200,-100,4,2,1,30,0,0
170600,-100,4,2,1,35,0,0
170900,-100,4,2,1,35,0,0
171800,-100,4,2,1,40,0,0
172400,-100,4,2,1,45,0,0
173000,-100,4,2,2,60,0,0
173600,-100,4,2,2,70,0,0
174200,-100,4,2,2,80,0,0
175100,-100,4,3,2,40,0,0
175400,-100,4,2,1,60,0,0
175500,-100,4,2,1,30,0,0
180200,-100,4,2,1,35,0,0
188500,-100,4,2,2,35,0,0
189800,-100,4,2,1,35,0,0
199400,-100,4,2,1,45,0,0
200600,-100,4,2,1,40,0,0
201800,-100,4,2,1,35,0,0
203000,-100,4,2,1,30,0,0
204200,-100,4,2,1,25,0,0
204800,-100,4,2,1,15,0,0
205400,-100,4,2,1,5,0,0

[Colours]
Combo1 : 231,159,249
Combo2 : 245,163,163
Combo3 : 254,196,99
Combo4 : 253,253,149
Combo5 : 177,254,148
Combo6 : 145,210,255

[HitObjects]
256,192,12200,5,4,0:0:0:0:
360,192,12400,2,0,L|360:144,1,46.6666666666667,0|0,0:0|0:0,0:0:0:0:
256,152,12700,1,0,0:0:0:0:
205,152,12800,2,0,L|69:152,1,93.3333333333333,0|0,0:0|0:0,0:0:0:0:
112,104,13100,1,0,0:0:0:0:
216,96,13300,1,0,0:0:0:0:
264,96,13400,1,0,0:0:0:0:
368,96,13600,1,0,0:0:0:0:
368,144,13700,1,0,0:0:0:0:
264,144,13900,1,0,0:0:0:0:
216,144,14000,1,0,0:0:0:0:
320,144,14200,2,0,L|320:80,1,46.6666666666667,0|0,0:0|0:0,0:0:0:0:
216,104,14500,1,0,0:0:0:0:
352,88,14600,6,0,P|392:88|336:88,1,93.3333333333333,0|0,0:0|0:0,0:0:0:0:
168,88,15100,2,0,L|224:88,1,46.6666666666667,0|0,0:0|0:0,0:0:0:0:
376,88,15500,1,0,0:0:0:0:
152,192,15700,1,0,0:0:0:0:
96,192,15800,2,0,L|96:96,1,93.3333333333333,0|0,0:0|0:0,0:0:0:0:
216,112,16100,1,0,0:0:0:0:
384,112,16400,2,0,P|432:112|384:112,1,93.3333333333333,0|0,0:0|0:0,0:0:0:0:
328,112,16700,1,0,0:0:0:0:
168,112,16900,1,0,0:0:0:0:
56,112,17000,5,0,0:0:0:0:
160,112,17200,2,0,L|224:112,1,46.6666666666667,0|0,0:0|0:0,0:0:0:0:
312,112,17500,1,0,0:0:0:0:
176,112,17600,2,0,P|192:160|296:200,1,140,0|0,0:0|0:0,0:0:0:0:
376,200,18100,1,0,0:0:0:0:
376,200,18200,1,0,0:0:0:0:
264,160,18400,1,0,0:0:0:0:
368,160,18500,1,0,0:0:0:0:
216,160,18800,1,0,0:0:0:0:
424,160,19000,2,0,L|424:104,1,46.6666666666667,4|0,0:0|0:0,0:0:0:0:
24,112,19400,6,0,P|40:152|112:160,1,93.3333333333333,6|0,0:0|0:0,0:0:0:0:
240,168,19900,1,0,0:0:0:0:
368,160,20000,2,0,L|464:160,1,93.3333333333333,0|0,0:0|0:0,0:0:0:0:
336,112,20500,1,0,0:0:0:0:
112,112,20600,1,4,0:0:0:0:
48,112,20700,1,0,0:0:0:0:
48,176,20787,1,0,0:0:0:0:
112,176,20900,1,0,0:0:0:0:
256,192,21050,1,4,0:0:0:0:
480,192,21200,2,0,L|480:104,1,70,8|0,0:0|0:0,0:0:0:0:
336,112,21500,2,0,L|408:112,1,70,4|0,0:0|0:0,0:0:0:0:
160,152,21800,5,4,0:0:0:0:
56,160,22000,2,0,L|56:104,1,46.6666666666667,0|0,0:0|0:0,0:0:0:0:
176,104,22300,1,0,0:0:0:0:
344,96,22400,2,0,L|488:96,1,140,8|0,0:0|0:0,0:0:0:0:
256,96,22900,1,0,0:0:0:0:
256,96,23000,1,0,0:0:0:0:
440,96,23200,1,0,0:0:0:0:
376,96,23300,1,0,0:0:0:0:
256,96,23500,1,0,0:0:0:0:
429,96,23600,1,8,0:0:0:0:
302,96,23800,2,0,L|214:96,1,46.6666666666667,0|0,0:0|0:0,0:0:0:0:
136,96,24100,1,0,0:0:0:0:
336,96,24200,6,0,L|440:96,1,93.3333333333333,0|0,0:0|0:0,0:0:0:0:
432,160,24500,1,0,0:0:0:0:
312,152,24700,1,0,0:0:0:0:
136,160,24800,2,0,P|72:120|80:64,1,140,8|0,0:0|0:0,0:0:0:0:
352,152,25300,1,0,0:0:0:0:
416,152,25400,2,0,L|416:272,1,93.3333333333333,0|0,0:0|0:0,0:0:0:0:
352,248,25700,1,0,0:0:0:0:
232,256,25900,1,0,0:0:0:0:
424,256,26000,1,8,0:0:0:0:
304,256,26200,1,0,0:0:0:0:
304,192,26300,1,0,0:0:0:0:
480,192,26500,1,0,0:0:0:0:
256,192,26600,5,0,0:0:0:0:
136,192,26800,2,0,L|72:192,1,46.6666666666667,0|0,0:0|0:0,0:0:0:0:
208,192,27100,1,0,0:0:0:0:
384,192,27200,2,0,P|384:128|296:96,1,140,8|0,0:0|0:0,0:0:0:0:
144,112,27700,1,0,0:0:0:0:
144,48,27800,1,0,0:0:0:0:
264,48,28000,1,0,0:0:0:0:
400,48,28100,1,0,0:0:0:0:
40,56,28400,1,8,0:0:0:0:
160,56,28600,2,0,L|80:56,1,46.6666666666667,4|0,0:0|0:0,0:0:0:0:
232,56,28900,1,0,0:0:0:0:
440,48,29000,6,0,P|448:88|408:128,1,93.3333333333333,6|0,0:0|0:0,0:0:0:0:
352,128,29300,1,0,0:0:0:0:
232,152,29500,1,0,0:0:0:0:
96,160,29600,2,0,P|94:200|140:234,1,93.3333333333333,0|0,0:0|0:0,0:0:0:0:
192,232,29900,1,0,0:0:0:0:
72,248,30100,1,0,0:0:0:0:
256,256,30200,2,0,L|432:256,2,140,0|0|0,0:0|0:0|0:0,0:0:0:0:
120,256,31100,1,0,0:0:0:0:
256,256,31400,5,0,0:0:0:0:
256,256,31700,1,0,0:0:0:0:
168,256,32000,1,0,0:0:0:0:
344,256,32300,1,0,0:0:0:0:
208,256,32600,2,0,L|344:176,1,140,0|0,0:0|0:0,0:0:0:0:
192,184,33200,2,0,L|24:184,1,140,0|0,0:0|0:0,0:0:0:0:
448,192,33800,5,4,0:0:0:0:
256,192,34100,12,0,36800,0:0:0:0:
256,192,37400,5,0,0:0:0:0:
256,192,38000,1,0,0:0:0:0:
400,192,38300,1,0,0:0:0:0:
304,192,38500,1,0,0:0:0:0:
184,192,38600,6,0,L|40:192,2,140,0|0|0,0:0|0:0|0:0,0:0:0:0:
232,192,39300,1,0,0:0:0:0:
280,192,39400,1,0,0:0:0:0:
232,192,39500,1,0,0:0:0:0:
136,192,39700,1,0,0:0:0:0:
112,136,39800,1,0,0:0:0:0:
136,80,39900,1,0,0:0:0:0:
192,64,40000,1,0,0:0:0:0:
312,80,40100,2,0,L|408:80,1,93.3333333333333,0|0,0:0|0:0,0:0:0:0:
288,80,40400,1,0,0:0:0:0:
224,80,40500,1,0,0:0:0:0:
96,88,40600,2,0,L|40:88,1,46.6666666666667,0|0,0:0|0:0,0:0:0:0:
168,88,40900,1,0,0:0:0:0:
344,88,41000,6,0,P|416:88|336:88,1,140,0|0,0:0|0:0,0:0:0:0:
224,96,41500,1,0,0:0:0:0:
96,104,41600,1,0,0:0:0:0:
72,144,41700,1,0,0:0:0:0:
88,192,41800,1,0,0:0:0:0:
136,208,41900,1,0,0:0:0:0:
256,200,42100,1,0,0:0:0:0:
448,208,42200,1,4,0:0:0:0:
504,184,42300,1,0,0:0:0:0:
488,128,42400,1,4,0:0:0:0:
432,104,42500,1,4,0:0:0:0:
312,104,42700,1,4,0:0:0:0:
184,256,42800,5,8,0:0:0:0:
240,248,42900,1,0,0:0:0:0:
256,192,43000,1,8,0:0:0:0:
136,184,43100,2,0,L|32:184,1,93.3333333333333,8|8,0:0|0:0,0:0:0:0:
312,184,43400,6,0,P|488:184|280:184,1,350.000013351441,4|0,0:0|0:0,0:0:0:0:
128,192,44000,1,8,0:0:0:0:
320,184,44200,1,0,0:0:0:0:
128,200,44300,1,0,0:0:0:0:
256,200,44500,1,0,0:0:0:0:
464,200,44600,1,4,0:0:0:0:
336,200,44800,1,0,0:0:0:0:
152,200,44900,2,0,L|8:200,1,102.666669799805,0|0,0:0|0:0,0:0:0:0:
256,208,45200,1,8,0:0:0:0:
416,208,45400,2,0,L|416:160,1,46.6666666666667,0|0,0:0|0:0,0:0:0:0:
256,160,45700,1,0,0:0:0:0:
80,224,45800,6,0,B|-40:144|96:24|264:96,1,326.666656697591,4|0,0:0|0:0,0:0:0:0:
400,104,46400,1,8,0:0:0:0:
256,112,46600,1,0,0:0:0:0:
192,112,46700,1,0,0:0:0:0:
64,112,46900,1,0,0:0:0:0:
320,112,47000,1,4,0:0:0:0:
448,120,47200,1,0,0:0:0:0:
272,114,47300,2,0,L|125:114,1,111.999996582031,0|0,0:0|0:0,0:0:0:0:
392,40,47600,1,8,0:0:0:0:
240,40,47800,1,0,0:0:0:0:
304,40,47900,1,0,0:0:0:0:
40,40,48100,1,0,0:0:0:0:
256,64,48200,6,0,P|432:64|248:64,1,350.000013351441,4|0,0:0|0:0,0:0:0:0:
96,64,48800,1,8,0:0:0:0:
256,80,49000,2,0,L|256:144,1,46.6666666666667,4|0,0:0|0:0,0:0:0:0:
128,136,49300,1,4,0:0:0:0:
344,136,49400,2,0,L|464:136,1,93.3333333333333,4|0,0:0|0:0,0:0:0:0:
440,80,49700,1,0,0:0:0:0:
312,80,49900,1,0,0:0:0:0:
112,80,50000,2,0,L|16:80,1,93.3333333333333,8|0,0:0|0:0,0:0:0:0:
16,136,50300,1,0,0:0:0:0:
144,136,50500,1,0,0:0:0:0:
328,128,50600,6,0,P|504:128|320:128,1,350.000013351441,4|0,0:0|0:0,0:0:0:0:
152,136,51200,1,8,0:0:0:0:
256,136,51400,1,0,0:0:0:0:
456,136,51500,1,0,0:0:0:0:
328,136,51700,1,0,0:0:0:0:
24,144,51800,2,0,P|24:216|96:288,1,140,4|0,0:0|0:0,0:0:0:0:
192,272,52300,1,2,0:0:0:0:
368,272,52400,2,0,P|464:272|488:200,1,140,2|0,0:0|0:0,0:0:0:0:
368,224,52900,1,0,0:0:0:0:
112,296,53000,6,0,P|56:248|96:32,1,303.333319447836,4|0,0:0|0:0,0:0:0:0:
256,48,53600,1,8,0:0:0:0:
128,48,53800,1,0,0:0:0:0:
304,48,53900,2,0,L|416:48,1,93.3333333333333,0|0,0:0|0:0,0:0:0:0:
160,160,54200,1,4,0:0:0:0:
288,160,54400,1,0,0:0:0:0:
488,160,54500,2,0,L|336:160,1,102.666669799805,0|0,0:0|0:0,0:0:0:0:
168,160,54800,1,8,0:0:0:0:
48,160,55000,1,0,0:0:0:0:
216,160,55100,1,0,0:0:0:0:
96,152,55300,1,0,0:0:0:0:
352,232,55400,6,0,P|424:152|256:96,1,326.666656697591,4|0,0:0|0:0,0:0:0:0:
104,72,56000,1,8,0:0:0:0:
104,72,56200,1,0,0:0:0:0:
168,72,56300,1,0,0:0:0:0:
288,72,56500,1,0,0:0:0:0:
112,72,56600,2,0,L|-8:72,1,93.3333333333333,4|0,0:0|0:0,0:0:0:0:
208,72,56900,2,0,L|320:72,1,111.999996582031,0|0,0:0|0:0,0:0:0:0:
48,72,57200,1,8,0:0:0:0:
168,72,57400,1,0,0:0:0:0:
232,72,57500,1,0,0:0:0:0:
112,72,57700,1,0,0:0:0:0:
320,48,57800,6,0,B|496:48|496:48|296:48,1,350.000013351441,4|0,0:0|0:0,0:0:0:0:
152,48,58400,1,8,0:0:0:0:
272,48,58600,1,4,0:0:0:0:
80,56,58700,1,0,0:0:0:0:
200,56,58900,1,4,0:0:0:0:
376,56,59000,2,0,L|488:56,1,93.3333333333333,4|0,0:0|0:0,0:0:0:0:
472,120,59300,1,0,0:0:0:0:
352,120,59500,1,0,0:0:0:0:
144,120,59600,2,0,P|152:168|224:192,1,93.3333333333333,8|0,0:0|0:0,0:0:0:0:
248,192,59900,1,0,0:0:0:0:
368,200,60100,1,0,0:0:0:0:
96,72,60200,6,0,P|16:152|112:264,1,280,4|0,0:0|0:0,0:0:0:0:
168,264,60900,1,0,0:0:0:0:
168,264,61000,1,0,0:0:0:0:
168,264,61100,1,0,0:0:0:0:
40,256,61300,1,0,0:0:0:0:
216,256,61400,1,4,0:0:0:0:
272,256,61500,1,0,0:0:0:0:
328,256,61600,1,0,0:0:0:0:
216,256,61700,1,4,0:0:0:0:
85,256,61900,1,4,0:0:0:0:
385,255,62000,2,0,L|481:255,1,93.3333333333333,8|0,0:0|0:0,0:0:0:0:
281,255,62300,2,0,L|361:191,1,93.3333333333333,8|8,0:0|0:0,0:0:0:0:
153,191,62600,6,0,P|65:191|169:191,1,181.999991668702,4|0,0:0|0:0,0:0:0:0:
296,192,63100,1,0,0:0:0:0:
424,192,63200,2,0,L|312:136,1,93.3333333333333,8|0,0:0|0:0,0:0:0:0:
280,152,63500,1,0,0:0:0:0:
96,152,63700,1,0,0:0:0:0:
320,128,63800,2,0,P|312:200|256:232,1,140,4|0,0:0|0:0,0:0:0:0:
136,232,64300,1,0,0:0:0:0:
352,224,64400,2,0,L|464:224,1,93.3333333333333,8|0,0:0|0:0,0:0:0:0:
400,216,64700,1,0,0:0:0:0:
304,216,64900,1,0,0:0:0:0:
56,152,65000,6,0,L|56:352,1,195.999994018555,4|0,0:0|0:0,0:0:0:0:
152,288,65500,1,0,0:0:0:0:
288,296,65600,2,0,L|424:296,1,93.3333333333333,8|0,0:0|0:0,0:0:0:0:
432,296,65900,1,0,0:0:0:0:
336,296,66100,1,0,0:0:0:0:
216,296,66200,2,0,P|176:264|216:208,1,93.3333333333333,4|0,0:0|0:0,0:0:0:0:
360,224,66500,2,0,L|464:224,1,93.3333333333333,0|0,0:0|0:0,0:0:0:0:
256,200,66800,2,0,L|120:200,1,93.3333333333333,8|0,0:0|0:0,0:0:0:0:
344,144,67100,2,0,L|440:144,1,93.3333333333333,0|0,0:0|0:0,0:0:0:0:
232,128,67400,6,0,P|48:128|224:128,1,350.000013351441,4|0,0:0|0:0,0:0:0:0:
376,128,68000,1,8,0:0:0:0:
472,128,68200,1,4,0:0:0:0:
472,80,68300,1,0,0:0:0:0:
376,80,68500,1,4,0:0:0:0:
192,80,68600,2,0,L|296:136,1,93.3333333333333,4|0,0:0|0:0,0:0:0:0:
448,136,68900,2,0,L|336:208,1,93.3333333333333,0|0,0:0|0:0,0:0:0:0:
128,200,69200,1,8,0:0:0:0:
32,200,69400,1,0,0:0:0:0:
32,152,69500,1,0,0:0:0:0:
200,144,69700,1,0,0:0:0:0:
360,160,69800,6,0,B|488:160|488:160|432:72|288:64,1,350.000013351441,4|0,0:0|0:0,0:0:0:0:
128,176,70400,1,8,0:0:0:0:
32,176,70600,1,0,0:0:0:0:
32,128,70700,1,0,0:0:0:0:
128,128,70900,1,0,0:0:0:0:
312,128,71000,2,0,L|480:128,1,140,4|0,0:0|0:0,0:0:0:0:
360,128,71500,1,2,0:0:0:0:
200,128,71600,2,0,B|95:128|95:128|138:128,1,140,0|0,0:0|0:0,0:0:0:0:
256,128,72100,1,0,0:0:0:0:
440,128,72200,5,4,0:0:0:0:
256,192,77000,5,0,0:0:0:0:
120,192,77300,1,0,0:0:0:0:
120,192,77500,1,0,0:0:0:0:
328,192,77600,1,0,0:0:0:0:
424,192,77800,1,0,0:0:0:0:
424,192,77900,1,0,0:0:0:0:
328,192,78100,1,0,0:0:0:0:
144,192,78200,2,0,L|16:192,1,93.3333333333333,0|0,0:0|0:0,0:0:0:0:
96,192,78500,2,0,L|224:192,1,93.3333333333333,0|0,0:0|0:0,0:0:0:0:
360,192,78800,2,0,L|464:192,1,93.3333333333333,0|0,0:0|0:0,0:0:0:0:
456,144,79100,1,0,0:0:0:0:
360,136,79300,1,0,0:0:0:0:
256,128,79400,6,0,P|184:176|264:320,1,280,0|0,0:0|0:0,0:0:0:0:
304,320,80100,1,0,0:0:0:0:
344,304,80200,1,0,0:0:0:0:
376,272,80300,1,0,0:0:0:0:
368,224,80400,1,0,0:0:0:0:
328,200,80500,1,0,0:0:0:0:
216,192,80600,5,0,0:0:0:0:
152,192,80700,1,0,0:0:0:0:
112,144,80787,1,0,0:0:0:0:
136,88,80900,1,0,0:0:0:0:
256,88,81100,1,0,0:0:0:0:
424,88,81200,1,0,0:0:0:0:
488,88,81300,1,0,0:0:0:0:
424,88,81400,1,0,0:0:0:0:
304,96,81500,1,0,0:0:0:0:
424,96,81700,1,0,0:0:0:0:
224,96,81800,5,4,0:0:0:0:
256,192,82100,12,0,85100,0:0:0:0:
256,192,85400,5,0,0:0:0:0:
152,192,85700,1,0,0:0:0:0:
360,192,86000,1,0,0:0:0:0:
56,192,86300,1,0,0:0:0:0:
448,192,86600,5,4,0:0:0:0:
328,192,86800,2,0,L|384:192,1,46.6666666666667,0|0,0:0|0:0,0:0:0:0:
256,192,87100,1,0,0:0:0:0:
40,200,87200,2,0,L|40:56,1,140,8|0,0:0|0:0,0:0:0:0:
416,64,87700,1,0,0:0:0:0:
416,64,87800,2,0,L|288:64,1,93.3333333333333,0|0,0:0|0:0,0:0:0:0:
208,64,88100,1,0,0:0:0:0:
456,64,88400,2,0,L|344:64,1,93.3333333333333,8|0,0:0|0:0,0:0:0:0:
240,64,88700,2,0,L|344:64,1,93.3333333333333,0|0,0:0|0:0,0:0:0:0:
120,72,89000,5,0,0:0:0:0:
240,72,89200,2,0,L|312:72,1,46.6666666666667,0|0,0:0|0:0,0:0:0:0:
408,72,89500,1,0,0:0:0:0:
216,72,89600,2,0,L|72:72,1,140,8|0,0:0|0:0,0:0:0:0:
400,72,90100,1,0,0:0:0:0:
460,72,90200,1,0,0:0:0:0:
192,72,90400,2,0,L|192:152,1,46.6666666666667,0|0,0:0|0:0,0:0:0:0:
312,120,90700,1,0,0:0:0:0:
379,120,90800,1,0,0:0:0:0:
120,136,91000,1,4,0:0:0:0:
50,136,91100,1,0,0:0:0:0:
176,136,91300,1,0,0:0:0:0:
376,144,91400,5,4,0:0:0:0:
496,144,91600,2,0,L|496:200,1,46.6666666666667,0|0,0:0|0:0,0:0:0:0:
376,200,91900,1,0,0:0:0:0:
176,200,92000,2,0,L|8:200,1,140,8|0,0:0|0:0,0:0:0:0:
304,192,92500,1,0,0:0:0:0:
368,192,92600,2,0,L|280:160,1,93.3333333333333,0|0,0:0|0:0,0:0:0:0:
216,160,92900,1,0,0:0:0:0:
400,176,93200,2,0,L|304:144,1,93.3333333333333,8|0,0:0|0:0,0:0:0:0:
424,120,93500,2,0,L|288:120,1,93.3333333333333,0|0,0:0|0:0,0:0:0:0:
104,104,93800,5,0,0:0:0:0:
368,112,94000,2,0,L|448:112,1,46.6666666666667,0|0,0:0|0:0,0:0:0:0:
224,112,94300,1,0,0:0:0:0:
160,112,94400,1,8,0:0:0:0:
424,112,94600,2,0,L|496:112,1,46.6666666666667,0|0,0:0|0:0,0:0:0:0:
352,112,94900,1,0,0:0:0:0:
192,112,95000,1,0,0:0:0:0:
192,176,95100,1,0,0:0:0:0:
384,176,95187,1,0,0:0:0:0:
452,239,95400,1,0,0:0:0:0:
272,184,95500,2,0,L|226:184,2,46.6666666666667,0|0|0,0:0|0:0|0:0,0:0:0:0:
354,184,95800,1,0,0:0:0:0:
464,184,95900,1,0,0:0:0:0:
344,176,96100,1,4,0:0:0:0:
152,192,96200,5,4,0:0:0:0:
32,192,96400,2,0,L|88:192,1,46.6666666666667,0|0,0:0|0:0,0:0:0:0:
200,192,96700,1,0,0:0:0:0:
376,192,96800,2,0,L|488:192,1,93.3333333333333,8|0,0:0|0:0,0:0:0:0:
472,128,97100,1,0,0:0:0:0:
280,136,97300,1,0,0:0:0:0:
96,144,97400,1,0,0:0:0:0:
216,144,97600,1,0,0:0:0:0:
152,144,97700,1,0,0:0:0:0:
32,144,97900,1,0,0:0:0:0:
256,152,98000,2,0,P|296:128|280:64,1,93.3333333333333,8|0,0:0|0:0,0:0:0:0:
240,80,98300,1,0,0:0:0:0:
120,80,98500,1,0,0:0:0:0:
416,80,98600,6,0,L|416:184,1,93.3333333333333,0|0,0:0|0:0,0:0:0:0:
352,176,98900,1,0,0:0:0:0:
184,184,99100,1,0,0:0:0:0:
24,184,99200,1,8,0:0:0:0:
208,184,99500,1,0,0:0:0:0:
472,184,99700,1,0,0:0:0:0:
408,184,99800,2,0,L|288:184,1,93.3333333333333,0|0,0:0|0:0,0:0:0:0:
320,120,100100,1,0,0:0:0:0:
440,112,100300,1,0,0:0:0:0:
256,96,100400,2,0,L|160:96,1,93.3333333333333,8|4,0:0|0:0,0:0:0:0:
40,96,100700,2,0,L|144:96,1,93.3333333333333,0|0,0:0|0:0,0:0:0:0:
320,96,101000,5,4,0:0:0:0:
56,104,101200,2,0,L|128:104,1,46.6666666666667,0|0,0:0|0:0,0:0:0:0:
224,104,101500,1,0,0:0:0:0:
480,104,101600,2,0,L|480:248,1,140,8|0,0:0|0:0,0:0:0:0:
160,240,102100,1,0,0:0:0:0:
96,240,102200,1,0,0:0:0:0:
216,240,102400,1,0,0:0:0:0:
160,240,102500,1,0,0:0:0:0:
280,240,102700,1,0,0:0:0:0:
344,240,102800,1,8,0:0:0:0:
48,248,103000,1,0,0:0:0:0:
48,184,103100,1,0,0:0:0:0:
168,184,103300,1,0,0:0:0:0:
336,184,103400,6,0,L|464:184,1,93.3333333333333,4|0,0:0|0:0,0:0:0:0:
248,160,103900,1,0,0:0:0:0:
112,168,104000,2,0,L|240:168,1,93.3333333333333,0|0,0:0|0:0,0:0:0:0:
384,160,104500,1,0,0:0:0:0:
192,136,104600,1,0,0:0:0:0:
128,136,104700,1,0,0:0:0:0:
128,200,104800,1,0,0:0:0:0:
192,200,104900,1,0,0:0:0:0:
72,208,105100,1,0,0:0:0:0:
304,192,105200,2,0,L|432:192,1,93.3333333333333,8|4,0:0|0:0,0:0:0:0:
208,192,105500,2,0,L|112:192,1,93.3333333333333,0|4,0:0|0:0,0:0:0:0:
299,139,105800,5,4,0:0:0:0:
459,139,106000,2,0,L|459:299,1,140,0|0,0:0|0:0,0:0:0:0:
398,278,106400,1,0,0:0:0:0:
284,280,106600,1,0,0:0:0:0:
200,200,106700,2,0,L|304:186,1,93.3333333333333,0|0,0:0|0:0,0:0:0:0:
360,187,107000,1,0,0:0:0:0:
252,195,107200,1,0,0:0:0:0:
252,195,107300,1,0,0:0:0:0:
350,191,107500,1,0,0:0:0:0:
350,191,107600,1,0,0:0:0:0:
163,120,107800,2,0,L|61:23,1,140,0|0,0:0|0:0,0:0:0:0:
195,69,108200,6,0,L|301:18,1,93.3333333333333,0|0,0:0|0:0,0:0:0:0:
280,19,108500,1,0,0:0:0:0:
168,236,108700,2,0,L|168:295,1,46.6666666666667,0|0,0:0|0:0,0:0:0:0:
267,284,109000,1,0,0:0:0:0:
325,282,109100,1,0,0:0:0:0:
142,234,109300,1,0,0:0:0:0:
199,231,109400,2,0,L|315:205,1,93.3333333333333,0|0,0:0|0:0,0:0:0:0:
226,140,109700,1,0,0:0:0:0:
358,141,110000,1,0,0:0:0:0:
163,65,110200,2,0,L|164:139,1,46.6666666666667,4|0,0:0|0:0,0:0:0:0:
281,110,110500,1,0,0:0:0:0:
173,111,110600,1,4,0:0:0:0:
28,113,110800,5,0,0:0:0:0:
85,113,110900,1,0,0:0:0:0:
199,199,111100,1,0,0:0:0:0:
279,196,111200,2,0,L|132:230,1,140,0|0,0:0|0:0,0:0:0:0:
254,297,111700,1,0,0:0:0:0:
418,298,112000,2,0,L|418:245,1,46.6666666666667,0|0,0:0|0:0,0:0:0:0:
283,250,112400,1,0,0:0:0:0:
111,269,112600,2,0,L|215:146,1,140,4|0,0:0|0:0,0:0:0:0:
430,103,113000,6,0,L|321:130,1,93.3333333333333,6|0,0:0|0:0,0:0:0:0:
145,160,113500,1,0,0:0:0:0:
207,208,113600,2,0,L|326:190,1,93.3333333333333,0|0,0:0|0:0,0:0:0:0:
463,192,114100,1,0,0:0:0:0:
328,84,114200,1,0,0:0:0:0:
262,95,114300,1,0,0:0:0:0:
205,107,114387,1,0,0:0:0:0:
262,95,114500,1,0,0:0:0:0:
155,113,114650,1,0,0:0:0:0:
388,131,114800,1,0,0:0:0:0:
220,227,115100,2,0,L|316:222,1,93.3333333333333,0|0,0:0|0:0,0:0:0:0:
125,231,115400,5,0,0:0:0:0:
320,313,115600,2,0,L|468:250,1,140,0|0,0:0|0:0,0:0:0:0:
263,189,116000,1,8,0:0:0:0:
371,194,116200,1,0,0:0:0:0:
263,189,116300,2,0,L|159:175,1,93.3333333333333,0|0,0:0|0:0,0:0:0:0:
223,109,116600,1,0,0:0:0:0:
66,61,116800,2,0,L|66:126,1,46.6666666666667,0|0,0:0|0:0,0:0:0:0:
184,211,117100,1,0,0:0:0:0:
379,210,117200,1,8,0:0:0:0:
207,120,117400,2,0,L|50:76,1,140,0|0,0:0|0:0,0:0:0:0:
270,200,117800,6,0,L|376:149,1,93.3333333333333,0|0,0:0|0:0,0:0:0:0:
282,94,118100,1,0,0:0:0:0:
413,95,118300,1,0,0:0:0:0:
219,95,118400,1,8,0:0:0:0:
346,174,118600,1,0,0:0:0:0:
405,176,118700,1,0,0:0:0:0:
281,175,118900,2,0,L|281:227,1,46.6666666666667,0|0,0:0|0:0,0:0:0:0:
92,188,119200,2,0,L|17:187,1,46.6666666666667,0|0,0:0|0:0,0:0:0:0:
136,192,119500,1,0,0:0:0:0:
330,309,119600,2,0,L|435:309,1,93.3333333333333,8|4,0:0|0:0,0:0:0:0:
336,223,119900,2,0,L|216:232,1,93.3333333333333,0|0,0:0|0:0,0:0:0:0:
449,156,120200,1,4,0:0:0:0:
256,165,120400,5,0,0:0:0:0:
197,163,120500,1,0,0:0:0:0:
66,163,120700,1,0,0:0:0:0:
238,167,120800,2,0,L|232:315,1,140,8|0,0:0|0:0,0:0:0:0:
115,298,121300,1,0,0:0:0:0:
58,295,121400,1,0,0:0:0:0:
181,177,121600,2,0,L|250:178,1,46.6666666666667,0|0,0:0|0:0,0:0:0:0:
31,176,122000,1,8,0:0:0:0:
289,304,122200,2,0,P|318:232|269:166,1,140,4|0,0:0|0:0,0:0:0:0:
97,72,122600,6,0,L|229:78,1,93.3333333333333,6|0,0:0|0:0,0:0:0:0:
360,90,123100,1,0,0:0:0:0:
303,135,123200,2,0,L|177:114,1,93.3333333333333,0|0,0:0|0:0,0:0:0:0:
60,92,123700,1,0,0:0:0:0:
5,139,123800,2,0,L|140:176,1,140,0|0,0:0|0:0,0:0:0:0:
280,252,124400,2,0,L|124:279,1,140,0|0,0:0|0:0,0:0:0:0:
271,336,125000,5,0,0:0:0:0:
395,337,125300,1,0,0:0:0:0:
289,335,125600,1,0,0:0:0:0:
376,337,125900,1,0,0:0:0:0:
280,86,126200,2,0,L|284:239,1,140,0|0,0:0|0:0,0:0:0:0:
204,230,126800,2,0,L|195:74,1,140,0|0,0:0|0:0,0:0:0:0:
288,91,127400,1,0,0:0:0:0:
256,192,127700,12,0,134600,0:0:0:0:
197,52,135200,5,0,0:0:0:0:
124,87,135300,1,0,0:0:0:0:
124,87,135400,1,0,0:0:0:0:
197,52,135500,2,0,L|309:52,1,93.3333333333333,0|0,0:0|0:0,0:0:0:0:
453,176,135800,1,4,0:0:0:0:
380,211,135900,1,0,0:0:0:0:
380,211,136000,1,4,0:0:0:0:
453,176,136100,2,0,L|331:176,1,93.3333333333333,4|4,0:0|0:0,0:0:0:0:
188,78,136400,1,8,0:0:0:0:
120,113,136500,1,0,0:0:0:0:
120,113,136600,1,8,0:0:0:0:
189,151,136700,2,0,L|309:135,1,93.3333333333333,8|8,0:0|0:0,0:0:0:0:
30,306,137000,6,0,L|451:207,1,420.000016021729,4|8,0:0|0:0,0:0:0:0:
324,84,137800,1,0,0:0:0:0:
246,160,137900,2,0,L|116:173,1,93.3333333333333,0|0,0:0|0:0,0:0:0:0:
333,59,138200,2,0,L|463:70,1,93.3333333333333,4|0,0:0|0:0,0:0:0:0:
160,283,138500,2,0,B|26:207|26:207|77:160,1,210.000008010865,0|8,0:0|0:0,0:0:0:0:
207,93,139000,2,0,L|133:84,1,46.6666666666667,0|0,0:0|0:0,0:0:0:0:
48,71,139300,1,0,0:0:0:0:
311,65,139400,6,0,B|371:114|371:114|56:285,1,420.000016021729,4|8,0:0|0:0,0:0:0:0:
211,283,140200,2,0,L|284:276,1,46.6666666666667,0|0,0:0|0:0,0:0:0:0:
135,282,140500,2,0,L|71:270,1,46.6666666666667,0|4,0:0|0:0,0:0:0:0:
213,165,140800,1,0,0:0:0:0:
475,137,140900,2,0,B|361:93|361:93|475:42,1,210.000008010865,0|8,0:0|0:0,0:0:0:0:
293,194,141400,1,0,0:0:0:0:
373,197,141500,2,0,L|479:152,1,93.3333333333333,0|0,0:0|0:0,0:0:0:0:
187,110,141800,6,0,B|424:145|424:145|282:270,1,420.000016021729,4|8,0:0|0:0,0:0:0:0:
426,328,142600,2,0,L|374:327,1,46.6666666666667,4|0,0:0|0:0,0:0:0:0:
263,318,142900,1,4,0:0:0:0:
356,248,143000,2,0,L|482:206,1,93.3333333333333,4|0,0:0|0:0,0:0:0:0:
263,255,143300,2,0,L|147:255,1,93.3333333333333,0|0,0:0|0:0,0:0:0:0:
106,198,143600,1,8,0:0:0:0:
272,182,143800,2,0,L|347:182,1,46.6666666666667,0|0,0:0|0:0,0:0:0:0:
195,182,144100,1,0,0:0:0:0:
405,104,144200,6,0,B|369:182|369:182|17:205,1,420.000016021729,4|8,0:0|0:0,0:0:0:0:
145,280,145000,1,0,0:0:0:0:
402,278,145100,2,0,L|194:197,1,210.000008010865,0|4,0:0|0:0,0:0:0:0:
281,99,145600,1,0,0:0:0:0:
345,101,145700,1,0,0:0:0:0:
139,93,145900,1,2,0:0:0:0:
314,211,146000,2,0,L|151:183,1,140,2|0,0:0|0:0,0:0:0:0:
40,158,146500,1,0,0:0:0:0:
297,312,146600,6,0,B|479:232|479:232|258:185,1,420.000016021729,4|8,0:0|0:0,0:0:0:0:
128,179,147400,1,0,0:0:0:0:
198,177,147500,2,0,L|328:190,1,93.3333333333333,0|0,0:0|0:0,0:0:0:0:
480,107,147800,2,0,L|350:118,1,93.3333333333333,4|0,0:0|0:0,0:0:0:0:
140,285,148100,2,0,L|364:222,1,210.000008010865,0|8,0:0|0:0,0:0:0:0:
215,153,148600,2,0,L|141:158,1,46.6666666666667,0|0,0:0|0:0,0:0:0:0:
294,144,148900,1,0,0:0:0:0:
106,74,149000,6,0,B|34:194|34:194|335:196,1,420.000016021729,4|8,0:0|0:0,0:0:0:0:
436,104,149800,2,0,L|498:98,1,46.6666666666667,0|0,0:0|0:0,0:0:0:0:
347,46,150100,2,0,L|276:40,1,46.6666666666667,0|4,0:0|0:0,0:0:0:0:
444,227,150400,1,0,0:0:0:0:
208,228,150500,2,0,L|427:201,1,210.000008010865,0|8,0:0|0:0,0:0:0:0:
300,126,151000,1,0,0:0:0:0:
230,129,151100,2,0,L|112:129,1,93.3333333333333,0|0,0:0|0:0,0:0:0:0:
410,218,151400,6,0,B|337:264|212:338|212:338|11:275,1,420.000016021729,4|8,0:0|0:0,0:0:0:0:
157,238,152200,2,0,L|224:238,1,46.6666666666667,4|0,0:0|0:0,0:0:0:0:
346,81,152500,2,0,L|406:81,1,46.6666666666667,4|4,0:0|0:0,0:0:0:0:
240,204,152800,1,0,0:0:0:0:
420,206,152900,2,0,L|288:206,1,93.3333333333333,0|0,0:0|0:0,0:0:0:0:
270,200,153200,1,8,0:0:0:0:
137,202,153400,2,0,L|224:208,1,46.6666666666667,0|0,0:0|0:0,0:0:0:0:
297,210,153700,1,0,0:0:0:0:
57,184,153800,6,0,P|123:249|443:178,1,420.000016021729,4|0,0:0|0:0,0:0:0:0:
454,317,154500,1,0,0:0:0:0:
454,317,154600,1,0,0:0:0:0:
366,335,154700,1,0,0:0:0:0:
200,336,154900,1,0,0:0:0:0:
260,336,155000,1,4,0:0:0:0:
84,162,155200,1,4,0:0:0:0:
349,100,155300,2,0,L|181:76,1,140.000005340576,4|4,0:0|0:0,0:0:0:0:
394,198,155600,2,0,L|518:171,1,93.3333333333333,8|0,0:0|0:0,0:0:0:0:
303,290,155900,2,0,L|167:274,1,93.3333333333333,8|8,0:0|0:0,0:0:0:0:
487,118,156200,6,0,L|265:162,1,210.000008010865,4|0,0:0|0:0,0:0:0:0:
126,182,156700,1,0,0:0:0:0:
190,181,156800,1,8,0:0:0:0:
339,269,157000,2,0,L|263:269,1,46.6666666666667,0|0,0:0|0:0,0:0:0:0:
471,195,157300,1,0,0:0:0:0:
419,194,157400,2,0,L|257:194,1,140,4|0,0:0|0:0,0:0:0:0:
136,191,157900,1,0,0:0:0:0:
192,190,158000,2,0,L|310:204,1,93.3333333333333,8|0,0:0|0:0,0:0:0:0:
229,237,158300,1,0,0:0:0:0:
112,233,158500,1,0,0:0:0:0:
394,169,158600,6,0,L|183:130,1,210.000008010865,4|0,0:0|0:0,0:0:0:0:
301,100,159100,1,0,0:0:0:0:
362,100,159200,2,0,L|485:100,1,93.3333333333333,8|0,0:0|0:0,0:0:0:0:
409,180,159500,1,0,0:0:0:0:
274,187,159700,1,0,0:0:0:0:
337,189,159800,2,0,L|439:166,1,93.3333333333333,4|0,0:0|0:0,0:0:0:0:
237,107,160100,2,0,P|167:112|122:145,1,93.3333333333333,0|0,0:0|0:0,0:0:0:0:
348,275,160400,6,0,L|509:215,1,140,8|0,0:0|0:0,0:0:0:0:
356,168,160900,1,0,0:0:0:0:
136,237,161000,6,0,L|363:220,1,210.000008010865,4|0,0:0|0:0,0:0:0:0:
226,151,161500,1,0,0:0:0:0:
158,151,161600,2,0,L|45:152,1,93.3333333333333,8|0,0:0|0:0,0:0:0:0:
128,67,161900,1,0,0:0:0:0:
305,64,162100,1,0,0:0:0:0:
373,64,162200,2,0,L|497:72,1,93.3333333333333,4|0,0:0|0:0,0:0:0:0:
282,144,162500,1,0,0:0:0:0:
159,289,162700,1,0,0:0:0:0:
215,286,162800,2,0,L|311:247,1,93.3333333333333,8|0,0:0|0:0,0:0:0:0:
239,207,163100,1,0,0:0:0:0:
115,139,163300,1,0,0:0:0:0:
394,139,163400,6,0,B|474:198|474:198|366:288,1,210.000008010865,4|0,0:0|0:0,0:0:0:0:
224,265,163900,1,0,0:0:0:0:
295,267,164000,2,0,L|393:268,1,93.3333333333333,8|0,0:0|0:0,0:0:0:0:
349,198,164300,1,0,0:0:0:0:
222,201,164500,1,0,0:0:0:0:
39,124,164600,2,0,L|184:94,1,140,6|0,0:0|0:0,0:0:0:0:
250,82,165100,1,2,0:0:0:0:
433,260,165200,2,0,L|265:258,1,140,2|0,0:0|0:0,0:0:0:0:
181,200,165800,1,4,0:0:0:0:
130,200,170600,5,4,0:0:0:0:
340,206,171200,2,0,L|454:168,1,93.3333333333333,4|0,0:0|0:0,0:0:0:0:
229,135,171700,1,0,0:0:0:0:
167,138,171800,2,0,L|-4:144,1,140,4|0,0:0|0:0,0:0:0:0:
209,236,172400,2,0,L|335:251,1,93.3333333333333,4|0,0:0|0:0,0:0:0:0:
354,253,172700,1,0,0:0:0:0:
227,294,172900,1,0,0:0:0:0:
153,291,173000,6,0,L|311:313,1,140,0|0,0:0|0:0,0:0:0:0:
470,176,173600,2,0,L|373:203,1,93.3333333333333,0|0,0:0|0:0,0:0:0:0:
322,211,173900,1,0,0:0:0:0:
176,211,174100,1,0,0:0:0:0:
119,196,174200,5,0,0:0:0:0:
97,143,174300,1,0,0:0:0:0:
119,196,174387,1,0,0:0:0:0:
176,211,174500,1,0,0:0:0:0:
313,216,174700,1,0,0:0:0:0:
373,204,174800,1,0,0:0:0:0:
415,166,174900,1,0,0:0:0:0:
437,113,175000,1,0,0:0:0:0:
415,166,175100,1,8,0:0:0:0:
373,204,175200,1,0,0:0:0:0:
313,216,175300,1,8,0:0:0:0:
126,217,175400,5,4,0:0:0:0:
256,192,175700,12,0,178700,0:0:0:0:
352,131,179000,5,0,0:0:0:0:
239,132,179300,1,0,0:0:0:0:
376,133,179600,1,0,0:0:0:0:
193,136,179900,1,0,0:0:0:0:
443,132,180200,5,4,0:0:0:0:
298,182,180400,2,0,L|298:30,1,140,0|0,0:0|0:0,0:0:0:0:
355,38,180800,1,0,0:0:0:0:
237,41,181000,1,0,0:0:0:0:
170,102,181100,2,0,L|274:88,1,93.3333333333333,0|0,0:0|0:0,0:0:0:0:
262,89,181400,1,0,0:0:0:0:
147,194,181600,1,0,0:0:0:0:
147,194,181700,1,0,0:0:0:0:
249,195,181900,1,0,0:0:0:0:
249,195,182000,1,0,0:0:0:0:
105,197,182200,2,0,P|64:160|130:96,1,140,0|0,0:0|0:0,0:0:0:0:
232,94,182600,6,0,L|338:43,1,93.3333333333333,0|0,0:0|0:0,0:0:0:0:
249,48,182900,1,0,0:0:0:0:
124,51,183100,2,0,L|189:51,1,46.6666666666667,0|0,0:0|0:0,0:0:0:0:
296,49,183400,1,0,0:0:0:0:
296,49,183500,1,0,0:0:0:0:
95,243,183700,1,0,0:0:0:0:
166,247,183800,2,0,L|277:213,1,93.3333333333333,0|0,0:0|0:0,0:0:0:0:
191,163,184100,1,0,0:0:0:0:
42,168,184400,1,0,0:0:0:0:
237,167,184600,2,0,L|237:94,1,46.6666666666667,4|0,0:0|0:0,0:0:0:0:
340,121,184900,1,0,0:0:0:0:
206,119,185000,1,4,0:0:0:0:
394,280,185200,6,0,L|394:224,1,46.6666666666667,0|0,0:0|0:0,0:0:0:0:
296,234,185500,1,0,0:0:0:0:
186,117,185600,2,0,L|333:151,1,140,0|0,0:0|0:0,0:0:0:0:
412,150,186100,1,0,0:0:0:0:
203,248,186400,2,0,L|136:248,1,46.6666666666667,0|0,0:0|0:0,0:0:0:0:
311,249,186800,1,0,0:0:0:0:
156,248,187000,2,0,B|83:184|83:184|139:140,1,140,4|0,0:0|0:0,0:0:0:0:
360,55,187400,6,0,L|492:61,1,93.3333333333333,6|0,0:0|0:0,0:0:0:0:
268,176,187900,1,0,0:0:0:0:
200,173,188000,2,0,L|95:151,1,93.3333333333333,0|0,0:0|0:0,0:0:0:0:
247,74,188500,1,0,0:0:0:0:
305,85,188600,1,4,0:0:0:0:
371,96,188700,1,0,0:0:0:0:
426,105,188800,1,0,0:0:0:0:
371,96,188900,1,0,0:0:0:0:
258,81,189050,1,4,0:0:0:0:
482,136,189200,1,8,0:0:0:0:
229,222,189500,2,0,L|122:222,1,93.3333333333333,4|0,0:0|0:0,0:0:0:0:
321,139,189800,5,4,0:0:0:0:
161,135,190000,2,0,L|161:295,1,140,0|0,0:0|0:0,0:0:0:0:
222,273,190400,1,0,0:0:0:0:
336,276,190600,1,0,0:0:0:0:
420,216,190700,2,0,L|524:202,1,93.3333333333333,0|0,0:0|0:0,0:0:0:0:
445,150,191000,1,0,0:0:0:0:
346,147,191200,1,0,0:0:0:0:
346,147,191300,1,0,0:0:0:0:
445,150,191500,1,0,0:0:0:0:
445,150,191600,1,0,0:0:0:0:
253,154,191800,2,0,L|396:101,1,140,0|0,0:0|0:0,0:0:0:0:
283,94,192200,6,0,L|177:43,1,93.3333333333333,0|0,0:0|0:0,0:0:0:0:
198,44,192500,1,0,0:0:0:0:
316,144,192700,2,0,L|316:203,1,46.6666666666667,0|0,0:0|0:0,0:0:0:0:
421,196,193000,1,0,0:0:0:0:
479,194,193100,1,0,0:0:0:0:
352,283,193300,1,0,0:0:0:0:
288,285,193400,2,0,L|172:259,1,93.3333333333333,0|0,0:0|0:0,0:0:0:0:
321,200,193700,1,0,0:0:0:0:
487,206,194000,1,0,0:0:0:0:
302,205,194200,2,0,L|365:205,1,46.6666666666667,4|0,0:0|0:0,0:0:0:0:
243,291,194500,1,0,0:0:0:0:
117,288,194600,1,4,0:0:0:0:
260,135,194800,5,0,0:0:0:0:
317,135,194900,1,0,0:0:0:0:
440,134,195100,1,0,0:0:0:0:
324,141,195200,2,0,L|177:175,1,140,0|0,0:0|0:0,0:0:0:0:
66,209,195700,1,0,0:0:0:0:
223,307,196000,2,0,L|223:254,1,46.6666666666667,0|0,0:0|0:0,0:0:0:0:
348,196,196300,2,0,L|291:238,1,46.6666666666667,0|0,0:0|0:0,0:0:0:0:
133,269,196600,2,0,L|301:235,1,140,4|0,0:0|0:0,0:0:0:0:
454,186,197000,6,0,L|354:94,1,93.3333333333333,6|0,0:0|0:0,0:0:0:0:
234,119,197500,1,0,0:0:0:0:
176,118,197600,2,0,L|81:145,1,93.3333333333333,0|0,0:0|0:0,0:0:0:0:
257,211,198100,1,0,0:0:0:0:
312,208,198200,1,0,0:0:0:0:
452,209,198500,1,0,0:0:0:0:
331,208,198800,1,0,0:0:0:0:
413,209,199100,1,0,0:0:0:0:
256,192,199400,12,0,205400,0:0:0:0:
