osu file format v14

[General]
AudioFilename: audio.mp3
AudioLeadIn: 0
PreviewTime: 136900
Countdown: 0
SampleSet: Soft
StackLeniency: 0.7
Mode: 2
LetterboxInBreaks: 0
WidescreenStoryboard: 1

[Editor]
Bookmarks: 12200,31400,81800,96200,115400,175400,189800
DistanceSpacing: 0.8
BeatDivisor: 6
GridSize: 32
TimelineZoom: 1

[Metadata]
Title:ELINE
TitleUnicode:ELINE
Artist:dark cat
ArtistUnicode:dark cat
Creator:Absolute Zero
Version:Salad
Source:osu!
Tags:JBHyperion JBH WildOne94 catstep mappers' guild featured artist Farbenspiel EDM electronic electro dance glitch hop
BeatmapID:2228565
BeatmapSetID:1064394

[Difficulty]
HPDrainRate:4
CircleSize:3
OverallDifficulty:7
ApproachRate:7
SliderMultiplier:2.1
SliderTickRate:1

[Events]
//Background and Video events
0,0,"tree-water-glass-green-biology-flight-606745-pxhere.com.jpg",0,0
//Break Periods
2,72400,80900
2,82000,85700
2,166000,174500
2,175600,179300
//Storyboard Layer 0 (Background)
//Storyboard Layer 1 (Fail)
//Storyboard Layer 2 (Pass)
//Storyboard Layer 3 (Foreground)
//Storyboard Layer 4 (Overlay)
//Storyboard Sound Samples

[TimingPoints]
2600,600,4,2,1,30,1,0
20500,-100,4,2,2,30,0,0
21800,-100,4,2,1,30,0,0
30200,-100,4,2,1,30,0,0
30800,-100,4,2,1,20,0,0
31400,-100,4,2,1,15,0,0
32600,-100,4,2,1,10,0,0
33800,-100,4,1,1,30,0,0
34000,-100,4,1,1,10,0,0
38600,-100,4,1,1,17,0,0
39200,-100,4,1,1,34,0,0
39800,-100,4,1,1,41,0,0
40400,-100,4,1,1,48,0,0
41000,-100,4,1,1,57,0,0
41600,-100,4,1,1,66,0,0
42200,-100,4,3,2,45,0,0
42500,-100,4,3,2,45,0,0
42800,-100,4,3,2,45,0,0
43400,-100,4,3,1,40,0,1
61400,-100,4,3,2,40,0,1
62000,-100,4,3,2,40,0,0
62600,-100,4,3,3,40,0,1
72200,-100,4,2,1,10,0,0
74600,-100,4,2,1,30,0,0
77000,-100,4,2,1,45,0,0
78200,-100,4,2,1,50,0,0
79400,-100,4,2,2,60,0,0
80600,-100,4,2,2,70,0,0
81200,-100,4,2,2,80,0,0
81900,-100,4,2,1,30,0,0
85400,-100,4,2,1,35,0,0
94900,-100,4,2,2,35,0,0
96400,-100,4,2,3,35,0,0
103400,-100,4,2,1,35,0,0
104600,-100,4,2,2,35,0,0
105800,-100,4,2,1,35,0,0
114200,-100,4,2,2,35,0,0
115400,-100,4,2,1,35,0,0
123800,-100,4,2,1,30,0,0
124400,-100,4,2,1,20,0,0
125000,-100,4,2,1,15,0,0
126200,-100,4,2,1,10,0,0
127400,-100,4,2,1,30,0,0
132200,-100,4,1,1,17,0,0
132800,-100,4,1,1,34,0,0
133400,-100,4,1,1,41,0,0
134000,-100,4,1,1,48,0,0
134600,-100,4,1,1,57,0,0
135200,-100,4,1,1,66,0,0
135800,-100,4,3,2,45,0,0
136700,-100,4,3,2,45,0,0
137000,-100,4,3,1,40,0,1
155000,-100,4,3,2,40,0,1
155600,-100,4,3,2,40,0,0
155900,-100,4,3,2,40,0,0
156200,-100,4,3,3,40,0,1
165800,-100,4,2,1,10,0,0
168200,-100,4,2,1,30,0,0
170600,-100,4,2,1,35,0,0
170900,-100,4,2,1,35,0,0
171800,-100,4,2,1,40,0,0
172400,-100,4,2,1,45,0,0
173000,-100,4,2,2,60,0,0
173600,-100,4,2,2,70,0,0
174200,-100,4,2,2,80,0,0
175100,-100,4,3,2,40,0,0
175400,-100,4,2,1,60,0,0
175500,-100,4,2,1,30,0,0
180200,-100,4,2,1,30,0,0
188500,-100,4,2,2,30,0,0
189800,-100,4,2,1,30,0,0
199400,-100,4,2,1,45,0,0
200600,-100,4,2,1,40,0,0
201800,-100,4,2,1,35,0,0
203000,-100,4,2,1,30,0,0
204200,-100,4,2,1,25,0,0
204800,-100,4,2,1,15,0,0
205400,-100,4,2,1,5,0,0

[Colours]
Combo1 : 231,159,249
Combo2 : 245,163,163
Combo3 : 254,196,99
Combo4 : 253,253,149
Combo5 : 177,254,148
Combo6 : 145,210,255

[HitObjects]
191,221,12200,5,4,0:0:0:0:
289,218,12400,2,0,P|320:163|281:84,1,140,0|0,0:0|0:0,0:0:0:0:
155,91,13100,2,0,L|231:97,1,70,0|0,0:0|0:0,0:0:0:0:
334,110,13600,2,0,L|122:91,1,210,0|0,0:0|0:0,0:0:0:0:
270,223,14600,6,0,L|270:136,1,70,0|0,0:0|0:0,0:0:0:0:
157,220,15100,2,0,L|157:175,1,35,0|0,0:0|0:0,0:0:0:0:
390,192,15700,2,0,L|499:164,1,105,0|0,0:0|0:0,0:0:0:0:
491,165,16100,1,0,0:0:0:0:
338,106,16400,2,0,L|338:230,1,105,0|0,0:0|0:0,0:0:0:0:
236,213,16900,5,0,0:0:0:0:
104,214,17200,1,0,0:0:0:0:
272,211,17600,1,0,0:0:0:0:
403,239,17900,2,0,L|328:256,1,70,0|0,0:0|0:0,0:0:0:0:
191,256,18400,1,0,0:0:0:0:
191,256,18800,1,0,0:0:0:0:
85,256,19000,1,4,0:0:0:0:
390,180,19400,6,0,L|295:180,1,70,6|0,0:0|0:0,0:0:0:0:
168,190,19900,1,0,0:0:0:0:
168,190,20000,1,0,0:0:0:0:
103,218,20200,1,0,0:0:0:0:
405,215,20600,2,0,L|405:109,1,105,4|0,0:0|0:0,0:0:0:0:
266,109,21200,1,8,0:0:0:0:
405,110,21500,1,4,0:0:0:0:
143,201,21800,5,4,0:0:0:0:
42,176,22000,2,0,P|140:112|188:119,1,140,0|8,0:0|0:0,0:0:0:0:
303,105,22700,2,0,L|226:116,1,70,0|0,0:0|0:0,0:0:0:0:
101,129,23200,1,0,0:0:0:0:
248,122,23500,2,0,L|248:165,1,35,0|8,0:0|0:0,0:0:0:0:
153,157,23800,1,0,0:0:0:0:
457,161,24200,6,0,L|457:256,1,70,0|0,0:0|0:0,0:0:0:0:
304,193,24700,2,0,L|304:149,1,35,0|8,0:0|0:0,0:0:0:0:
173,132,25100,1,0,0:0:0:0:
265,132,25300,2,0,L|374:104,1,105,0|0,0:0|0:0,0:0:0:0:
366,105,25700,1,0,0:0:0:0:
218,282,26000,2,0,L|218:147,1,105,8|0,0:0|0:0,0:0:0:0:
412,182,26500,5,0,0:0:0:0:
278,180,26800,1,0,0:0:0:0:
459,183,27200,1,8,0:0:0:0:
305,145,27500,2,0,L|305:67,1,70,0|0,0:0|0:0,0:0:0:0:
167,70,28000,2,0,L|167:15,1,35,0|0,0:0|0:0,0:0:0:0:
303,35,28400,1,8,0:0:0:0:
402,35,28600,1,4,0:0:0:0:
101,28,29000,6,0,L|18:82,1,70,6|0,0:0|0:0,0:0:0:0:
180,184,29500,2,0,L|180:132,1,35,0|0,0:0|0:0,0:0:0:0:
271,147,29800,1,0,0:0:0:0:
410,187,30100,2,0,L|410:150,1,35,0|0,0:0|0:0,0:0:0:0:
319,148,30500,1,0,0:0:0:0:
246,146,30800,1,0,0:0:0:0:
209,147,31100,1,0,0:0:0:0:
193,145,31400,5,0,0:0:0:0:
380,145,32600,1,0,0:0:0:0:
51,185,33800,5,4,0:0:0:0:
256,192,34100,12,0,40400,0:0:0:0:
197,203,41000,6,0,L|429:162,1,210,0|0,0:0|0:0,0:0:0:0:
294,95,41900,1,0,0:0:0:0:
30,103,42200,2,0,L|46:221,1,105,4|4,0:0|0:0,0:0:0:0:
235,217,42700,1,4,0:0:0:0:
297,216,42800,2,0,L|406:192,1,105,8|8,0:0|0:0,0:0:0:0:
122,27,43400,6,0,L|292:151,1,210,4|8,0:0|0:0,0:0:0:0:
399,158,44200,2,0,L|399:106,1,35,0|0,0:0|0:0,0:0:0:0:
261,126,44600,1,4,0:0:0:0:
109,158,44900,2,0,L|178:124,1,70,0|0,0:0|0:0,0:0:0:0:
172,128,45200,1,8,0:0:0:0:
28,127,45500,1,0,0:0:0:0:
290,135,45800,6,0,P|354:202|283:198,1,210,4|8,0:0|0:0,0:0:0:0:
183,312,46600,1,0,0:0:0:0:
331,310,46900,1,0,0:0:0:0:
331,310,47000,1,4,0:0:0:0:
467,191,47200,2,0,L|467:134,1,35,0|0,0:0|0:0,0:0:0:0:
205,49,47600,2,0,L|77:58,1,105,8|0,0:0|0:0,0:0:0:0:
363,269,48200,6,0,P|426:266|464:120,1,210,4|8,0:0|0:0,0:0:0:0:
379,95,49000,2,0,L|331:110,1,35,4|0,0:0|0:0,0:0:0:0:
216,132,49400,1,4,0:0:0:0:
109,246,49600,1,0,0:0:0:0:
109,246,49700,2,0,L|229:184,1,105,0|8,0:0|0:0,0:0:0:0:
333,191,50300,1,0,0:0:0:0:
98,314,50600,6,0,P|39:294|123:215,1,210,4|8,0:0|0:0,0:0:0:0:
235,123,51500,1,0,0:0:0:0:
364,236,51800,2,0,L|257:229,1,105,4|0,0:0|0:0,0:0:0:0:
68,225,52300,1,2,0:0:0:0:
27,227,52400,2,0,L|-1:350,1,105,2|0,0:0|0:0,0:0:0:0:
266,325,53000,6,0,L|67:206,1,210,4|8,0:0|0:0,0:0:0:0:
194,177,53800,2,0,L|194:123,1,35,0|0,0:0|0:0,0:0:0:0:
63,116,54200,1,4,0:0:0:0:
218,115,54500,2,0,L|296:157,1,70,0|0,0:0|0:0,0:0:0:0:
279,148,54800,1,8,0:0:0:0:
408,145,55100,1,0,0:0:0:0:
150,147,55400,6,0,P|82:219|156:280,1,210,4|8,0:0|0:0,0:0:0:0:
256,280,56200,1,0,0:0:0:0:
382,282,56500,2,0,L|382:227,1,35,0|4,0:0|0:0,0:0:0:0:
278,277,56800,2,0,L|278:221,1,35,0|0,0:0|0:0,0:0:0:0:
109,37,57200,2,0,L|229:72,1,105,8|0,0:0|0:0,0:0:0:0:
470,167,57800,6,0,L|260:88,1,210,4|8,0:0|0:0,0:0:0:0:
175,92,58600,2,0,L|175:141,1,35,4|0,0:0|0:0,0:0:0:0:
308,119,59000,1,4,0:0:0:0:
170,260,59300,2,0,L|256:259,1,70,0|0,0:0|0:0,0:0:0:0:
240,259,59600,1,8,0:0:0:0:
382,259,59900,1,0,0:0:0:0:
120,256,60200,6,0,P|72:201|129:77,1,210,4|0,0:0|0:0,0:0:0:0:
244,84,61100,1,0,0:0:0:0:
506,82,61400,6,0,L|399:75,1,105,4|4,0:0|0:0,0:0:0:0:
204,116,61900,1,4,0:0:0:0:
204,116,62000,2,0,L|322:117,1,105,8|8,0:0|0:0,0:0:0:0:
44,154,62600,6,0,P|90:210|229:203,1,210,4|8,0:0|0:0,0:0:0:0:
313,157,63400,1,0,0:0:0:0:
416,128,63700,1,0,0:0:0:0:
446,126,63800,2,0,L|336:64,1,105,4|0,0:0|0:0,0:0:0:0:
212,71,64400,2,0,L|138:79,1,70,8|0,0:0|0:0,0:0:0:0:
142,78,64700,1,0,0:0:0:0:
409,309,65000,6,0,P|441:250|378:104,1,210,4|8,0:0|0:0,0:0:0:0:
300,121,65800,1,0,0:0:0:0:
166,123,66100,1,0,0:0:0:0:
166,123,66200,2,0,L|269:104,1,105,4|0,0:0|0:0,0:0:0:0:
6,240,66800,2,0,L|117:271,1,105,8|0,0:0|0:0,0:0:0:0:
367,265,67400,6,0,B|410:224|410:224|278:142,1,210,4|8,0:0|0:0,0:0:0:0:
194,145,68200,1,4,0:0:0:0:
57,141,68500,1,4,0:0:0:0:
57,141,68600,2,0,L|167:187,1,105,4|0,0:0|0:0,0:0:0:0:
294,206,69200,2,0,L|217:198,1,70,8|0,0:0|0:0,0:0:0:0:
224,198,69500,1,0,0:0:0:0:
487,71,69800,6,0,L|342:225,1,210,4|8,0:0|0:0,0:0:0:0:
208,148,70700,1,0,0:0:0:0:
470,236,71000,2,0,L|360:222,1,105,4|0,0:0|0:0,0:0:0:0:
174,171,71500,1,2,0:0:0:0:
217,170,71600,2,0,L|321:220,1,105,2|0,0:0|0:0,0:0:0:0:
152,220,72200,1,4,0:0:0:0:
239,188,81800,5,4,0:0:0:0:
141,280,86600,5,4,0:0:0:0:
251,283,86800,2,0,L|252:218,1,35,0|0,0:0|0:0,0:0:0:0:
112,186,87200,1,8,0:0:0:0:
112,186,87500,1,0,0:0:0:0:
222,185,87700,2,0,L|222:135,1,35,0|0,0:0|0:0,0:0:0:0:
361,186,88100,1,0,0:0:0:0:
361,186,88400,1,8,0:0:0:0:
252,187,88600,2,0,L|252:236,1,35,0|0,0:0|0:0,0:0:0:0:
390,267,89000,5,0,0:0:0:0:
500,267,89200,2,0,L|500:215,1,35,0|0,0:0|0:0,0:0:0:0:
362,206,89600,1,8,0:0:0:0:
362,206,89900,1,0,0:0:0:0:
267,204,90100,2,0,L|267:160,1,35,0|0,0:0|0:0,0:0:0:0:
381,202,90400,2,0,L|381:147,1,35,0|0,0:0|0:0,0:0:0:0:
241,202,90800,1,0,0:0:0:0:
101,202,91100,1,0,0:0:0:0:
363,209,91400,5,4,0:0:0:0:
255,215,91600,2,0,L|255:178,1,35,0|0,0:0|0:0,0:0:0:0:
399,186,92000,1,8,0:0:0:0:
399,186,92300,1,0,0:0:0:0:
290,93,92500,2,0,L|290:141,1,35,0|0,0:0|0:0,0:0:0:0:
435,133,92900,1,0,0:0:0:0:
435,133,93200,1,8,0:0:0:0:
327,131,93400,2,0,L|327:180,1,35,0|0,0:0|0:0,0:0:0:0:
185,225,93800,5,0,0:0:0:0:
299,225,94000,2,0,L|299:182,1,35,0|0,0:0|0:0,0:0:0:0:
154,53,94400,1,8,0:0:0:0:
58,56,94600,2,0,L|58:101,1,35,0|0,0:0|0:0,0:0:0:0:
190,92,95000,1,0,0:0:0:0:
378,224,95200,1,0,0:0:0:0:
232,227,95500,1,0,0:0:0:0:
83,228,95800,5,0,0:0:0:0:
83,228,95900,1,0,0:0:0:0:
345,295,96200,5,4,0:0:0:0:
418,212,96400,2,0,L|282:157,1,140,0|8,0:0|0:0,0:0:0:0:
143,68,97100,2,0,L|220:79,1,70,0|0,0:0|0:0,0:0:0:0:
344,56,97600,1,0,0:0:0:0:
220,59,97900,2,0,L|220:102,1,35,0|8,0:0|0:0,0:0:0:0:
317,59,98200,1,0,0:0:0:0:
485,167,98600,6,0,L|485:262,1,70,0|0,0:0|0:0,0:0:0:0:
346,195,99100,2,0,L|346:151,1,35,0|8,0:0|0:0,0:0:0:0:
473,160,99500,1,0,0:0:0:0:
375,160,99700,2,0,L|266:132,1,105,0|0,0:0|0:0,0:0:0:0:
274,133,100100,1,0,0:0:0:0:
169,124,100400,2,0,L|284:71,1,105,8|0,0:0|0:0,0:0:0:0:
181,40,100900,5,0,0:0:0:0:
22,42,101200,1,0,0:0:0:0:
207,181,101600,1,8,0:0:0:0:
71,195,101900,2,0,L|147:210,1,70,0|0,0:0|0:0,0:0:0:0:
269,205,102400,2,0,L|269:150,1,35,0|0,0:0|0:0,0:0:0:0:
414,204,102800,1,8,0:0:0:0:
319,204,103000,1,0,0:0:0:0:
18,54,103400,6,0,L|109:92,1,70,4|0,0:0|0:0,0:0:0:0:
223,199,103900,2,0,L|223:147,1,35,0|0,0:0|0:0,0:0:0:0:
132,162,104200,1,0,0:0:0:0:
293,326,104500,2,0,L|293:289,1,35,0|0,0:0|0:0,0:0:0:0:
384,287,104900,1,0,0:0:0:0:
241,196,105200,2,0,L|116:179,1,105,8|0,0:0|0:0,0:0:0:0:
406,194,105800,5,4,0:0:0:0:
492,144,106000,2,0,L|339:120,1,140,0|0,0:0|0:0,0:0:0:0:
226,109,106700,2,0,L|150:115,1,70,0|0,0:0|0:0,0:0:0:0:
304,230,107200,1,0,0:0:0:0:
434,227,107500,1,0,0:0:0:0:
304,230,107800,1,0,0:0:0:0:
143,229,108200,6,0,L|61:212,1,70,0|0,0:0|0:0,0:0:0:0:
218,104,108700,2,0,L|218:152,1,35,0|0,0:0|0:0,0:0:0:0:
458,109,109300,2,0,L|349:81,1,105,0|0,0:0|0:0,0:0:0:0:
357,82,109700,1,0,0:0:0:0:
245,79,110000,2,0,L|245:203,1,105,0|0,0:0|0:0,0:0:0:0:
168,186,110500,5,0,0:0:0:0:
319,185,110800,1,0,0:0:0:0:
471,186,111200,1,0,0:0:0:0:
341,252,111500,2,0,L|261:256,1,70,0|0,0:0|0:0,0:0:0:0:
144,261,112000,1,0,0:0:0:0:
271,255,112400,1,0,0:0:0:0:
365,254,112600,1,4,0:0:0:0:
67,106,113000,6,0,L|-24:144,1,70,6|0,0:0|0:0,0:0:0:0:
138,189,113500,1,0,0:0:0:0:
138,189,113600,2,0,L|206:219,1,70,0|0,0:0|0:0,0:0:0:0:
380,316,114200,2,0,L|265:317,1,105,0|0,0:0|0:0,0:0:0:0:
420,240,114800,1,0,0:0:0:0:
420,240,115100,1,0,0:0:0:0:
157,247,115400,5,0,0:0:0:0:
249,247,115600,2,0,P|362:225|395:190,1,140,0|8,0:0|0:0,0:0:0:0:
500,117,116300,2,0,L|423:128,1,70,0|0,0:0|0:0,0:0:0:0:
306,125,116800,1,0,0:0:0:0:
450,127,117100,2,0,L|450:170,1,35,0|8,0:0|0:0,0:0:0:0:
359,127,117400,1,0,0:0:0:0:
191,125,117800,6,0,L|282:124,1,70,0|0,0:0|0:0,0:0:0:0:
131,201,118300,2,0,L|131:245,1,35,0|8,0:0|0:0,0:0:0:0:
3,238,118700,1,0,0:0:0:0:
83,240,118900,2,0,L|192:212,1,105,0|0,0:0|0:0,0:0:0:0:
185,213,119300,1,0,0:0:0:0:
311,128,119600,2,0,L|187:84,1,105,8|0,0:0|0:0,0:0:0:0:
124,92,120100,1,0,0:0:0:0:
262,183,120400,5,0,0:0:0:0:
447,185,120800,1,8,0:0:0:0:
300,64,121100,2,0,L|377:94,1,70,0|0,0:0|0:0,0:0:0:0:
240,87,121600,2,0,L|240:32,1,35,0|0,0:0|0:0,0:0:0:0:
76,40,122000,1,8,0:0:0:0:
164,40,122200,1,4,0:0:0:0:
480,41,122600,6,0,L|389:79,1,70,6|0,0:0|0:0,0:0:0:0:
291,191,123100,2,0,L|291:139,1,35,0|0,0:0|0:0,0:0:0:0:
199,156,123400,1,0,0:0:0:0:
67,192,123700,2,0,L|67:155,1,35,0|0,0:0|0:0,0:0:0:0:
189,158,124100,1,0,0:0:0:0:
262,156,124400,1,0,0:0:0:0:
299,157,124700,1,0,0:0:0:0:
315,155,125000,5,0,0:0:0:0:
100,175,126200,1,0,0:0:0:0:
228,192,127400,5,0,0:0:0:0:
256,192,127700,12,0,134000,0:0:0:0:
266,200,134600,6,0,L|34:159,1,210,0|0,0:0|0:0,0:0:0:0:
169,92,135500,1,0,0:0:0:0:
433,100,135800,2,0,L|417:218,1,105,4|4,0:0|0:0,0:0:0:0:
228,214,136300,1,4,0:0:0:0:
166,212,136400,2,0,L|45:175,1,105,8|8,0:0|0:0,0:0:0:0:
338,96,137000,6,0,B|455:174|455:174|383:228,1,210,4|8,0:0|0:0,0:0:0:0:
293,215,137800,2,0,L|293:163,1,35,0|0,0:0|0:0,0:0:0:0:
413,215,138200,1,4,0:0:0:0:
254,212,138500,2,0,L|176:212,1,70,0|0,0:0|0:0,0:0:0:0:
184,212,138800,1,8,0:0:0:0:
348,208,139100,1,0,0:0:0:0:
85,208,139400,6,0,P|30:154|112:72,1,210,4|8,0:0|0:0,0:0:0:0:
188,74,140200,1,0,0:0:0:0:
346,76,140500,1,0,0:0:0:0:
346,76,140600,1,4,0:0:0:0:
236,76,140800,2,0,L|236:134,1,35,0|0,0:0|0:0,0:0:0:0:
489,117,141200,2,0,L|361:126,1,105,8|0,0:0|0:0,0:0:0:0:
122,266,141800,6,0,B|29:192|29:191|140:105,1,210,4|8,0:0|0:0,0:0:0:0:
228,114,142600,2,0,L|228:172,1,35,4|0,0:0|0:0,0:0:0:0:
356,115,143000,1,4,0:0:0:0:
257,121,143200,1,0,0:0:0:0:
257,121,143300,2,0,L|123:120,1,105,0|8,0:0|0:0,0:0:0:0:
241,199,143900,1,0,0:0:0:0:
503,142,144200,6,0,P|413:124|273:132,1,210,4|8,0:0|0:0,0:0:0:0:
143,144,145100,1,0,0:0:0:0:
270,248,145400,2,0,L|163:241,1,105,4|0,0:0|0:0,0:0:0:0:
358,186,145900,1,2,0:0:0:0:
397,187,146000,2,0,L|494:242,1,105,2|0,0:0|0:0,0:0:0:0:
227,314,146600,6,0,L|426:195,1,210,4|8,0:0|0:0,0:0:0:0:
501,161,147400,2,0,L|501:107,1,35,0|0,0:0|0:0,0:0:0:0:
351,131,147800,1,4,0:0:0:0:
194,128,148100,2,0,L|290:159,1,70,0|0,0:0|0:0,0:0:0:0:
260,149,148400,1,8,0:0:0:0:
106,154,148700,1,0,0:0:0:0:
371,291,149000,6,0,L|155:192,1,210,4|8,0:0|0:0,0:0:0:0:
283,186,149800,1,0,0:0:0:0:
422,189,150100,2,0,L|422:134,1,35,0|4,0:0|0:0,0:0:0:0:
320,187,150400,2,0,L|320:131,1,35,0|0,0:0|0:0,0:0:0:0:
464,193,150800,2,0,L|344:228,1,105,8|0,0:0|0:0,0:0:0:0:
96,232,151400,6,0,L|270:92,1,210,4|8,0:0|0:0,0:0:0:0:
377,85,152200,2,0,L|377:134,1,35,4|0,0:0|0:0,0:0:0:0:
241,115,152600,1,4,0:0:0:0:
91,117,152900,2,0,L|177:116,1,70,0|0,0:0|0:0,0:0:0:0:
161,116,153200,1,8,0:0:0:0:
11,199,153500,1,0,0:0:0:0:
271,205,153800,6,0,P|330:195|468:113,1,210,4|0,0:0|0:0,0:0:0:0:
348,103,154700,1,0,0:0:0:0:
84,87,155000,6,0,L|191:80,1,105,4|4,0:0|0:0,0:0:0:0:
380,88,155500,1,4,0:0:0:0:
380,88,155600,2,0,L|267:132,1,105,8|8,0:0|0:0,0:0:0:0:
23,158,156200,6,0,B|-24:220|-24:220|115:273,1,210,4|8,0:0|0:0,0:0:0:0:
212,269,157000,1,0,0:0:0:0:
369,183,157300,1,0,0:0:0:0:
369,183,157400,2,0,L|235:174,1,105,4|0,0:0|0:0,0:0:0:0:
98,75,158000,2,0,L|172:83,1,70,8|0,0:0|0:0,0:0:0:0:
168,82,158300,1,0,0:0:0:0:
409,309,158600,6,0,B|496:216|496:216|428:154,1,210,4|8,0:0|0:0,0:0:0:0:
318,161,159400,1,0,0:0:0:0:
181,76,159700,1,0,0:0:0:0:
181,76,159800,2,0,L|78:57,1,105,4|0,0:0|0:0,0:0:0:0:
341,236,160400,2,0,L|452:267,1,105,8|0,0:0|0:0,0:0:0:0:
179,271,161000,6,0,P|121:252|187:150,1,210,4|8,0:0|0:0,0:0:0:0:
260,148,161800,1,0,0:0:0:0:
96,152,162100,1,0,0:0:0:0:
96,152,162200,2,0,L|-22:177,1,105,4|0,0:0|0:0,0:0:0:0:
141,265,162800,2,0,L|218:257,1,70,8|0,0:0|0:0,0:0:0:0:
211,257,163100,1,0,0:0:0:0:
477,75,163400,6,0,L|251:125,1,210,4|8,0:0|0:0,0:0:0:0:
126,147,164300,1,0,0:0:0:0:
385,233,164600,2,0,L|495:219,1,105,6|0,0:0|0:0,0:0:0:0:
297,155,165100,1,2,0:0:0:0:
252,158,165200,2,0,L|148:208,1,105,2|0,0:0|0:0,0:0:0:0:
318,210,165800,1,4,0:0:0:0:
275,198,175400,5,4,0:0:0:0:
393,222,180200,5,4,0:0:0:0:
294,222,180400,2,0,L|245:65,1,140,0|0,0:0|0:0,0:0:0:0:
383,82,181100,2,0,L|459:88,1,70,0|0,0:0|0:0,0:0:0:0:
318,61,181600,1,0,0:0:0:0:
184,74,181900,1,0,0:0:0:0:
318,61,182200,1,0,0:0:0:0:
31,182,182600,6,0,L|31:112,1,70,0|0,0:0|0:0,0:0:0:0:
172,121,183100,2,0,L|172:76,1,35,0|0,0:0|0:0,0:0:0:0:
400,203,183700,2,0,L|291:175,1,105,0|0,0:0|0:0,0:0:0:0:
298,176,184100,1,0,0:0:0:0:
156,80,184400,2,0,L|263:117,1,105,0|0,0:0|0:0,0:0:0:0:
156,179,184900,5,0,0:0:0:0:
20,181,185200,1,0,0:0:0:0:
180,257,185600,1,0,0:0:0:0:
344,241,185900,2,0,L|344:319,1,70,0|0,0:0|0:0,0:0:0:0:
191,256,186400,1,0,0:0:0:0:
191,256,186800,1,0,0:0:0:0:
85,256,187000,1,4,0:0:0:0:
385,138,187400,6,0,L|294:176,1,70,6|0,0:0|0:0,0:0:0:0:
182,138,187900,1,0,0:0:0:0:
182,138,188000,2,0,L|250:168,1,70,0|0,0:0|0:0,0:0:0:0:
400,212,188600,2,0,L|400:106,1,105,4|0,0:0|0:0,0:0:0:0:
287,209,189200,1,8,0:0:0:0:
173,209,189500,1,4,0:0:0:0:
431,209,189800,5,4,0:0:0:0:
348,208,190000,2,0,L|218:154,1,140,0|0,0:0|0:0,0:0:0:0:
342,123,190700,2,0,L|418:129,1,70,0|0,0:0|0:0,0:0:0:0:
275,79,191200,1,0,0:0:0:0:
146,63,191500,1,0,0:0:0:0:
12,44,191800,1,0,0:0:0:0:
298,215,192200,6,0,L|371:257,1,70,0|0,0:0|0:0,0:0:0:0:
242,219,192700,2,0,L|242:264,1,35,0|0,0:0|0:0,0:0:0:0:
12,210,193300,2,0,L|121:182,1,105,0|0,0:0|0:0,0:0:0:0:
113,183,193700,1,0,0:0:0:0:
246,102,194000,2,0,L|116:63,1,105,0|0,0:0|0:0,0:0:0:0:
235,192,194500,1,0,0:0:0:0:
386,199,194800,5,0,0:0:0:0:
231,197,195200,1,0,0:0:0:0:
350,202,195500,2,0,L|275:219,1,70,0|0,0:0|0:0,0:0:0:0:
154,258,196000,1,0,0:0:0:0:
302,258,196400,1,0,0:0:0:0:
392,262,196600,1,4,0:0:0:0:
105,106,197000,6,0,L|196:144,1,70,6|0,0:0|0:0,0:0:0:0:
302,197,197500,1,0,0:0:0:0:
302,197,197600,2,0,L|234:227,1,70,0|0,0:0|0:0,0:0:0:0:
70,232,198200,2,0,L|70:126,1,105,0|0,0:0|0:0,0:0:0:0:
188,128,198800,1,0,0:0:0:0:
92,126,199100,1,0,0:0:0:0:
256,192,199400,12,0,205400,0:0:0:0:
