osu file format v14

[General]
AudioFilename: audio.mp3
AudioLeadIn: 0
PreviewTime: 136900
Countdown: 0
SampleSet: Soft
StackLeniency: 0.7
Mode: 2
LetterboxInBreaks: 0
WidescreenStoryboard: 1

[Editor]
Bookmarks: 12200,31400,81800,96200,115400,175400,189800
DistanceSpacing: 0.8
BeatDivisor: 6
GridSize: 32
TimelineZoom: 1

[Metadata]
Title:ELINE
TitleUnicode:ELINE
Artist:dark cat
ArtistUnicode:dark cat
Creator:Absolute Zero
Version:Rain
Source:osu!
Tags:JBHyperion JBH WildOne94 catstep mappers' guild featured artist Farbenspiel EDM electronic electro dance glitch hop
BeatmapID:2228564
BeatmapSetID:1064394

[Difficulty]
HPDrainRate:5
CircleSize:4
OverallDifficulty:9
ApproachRate:9
SliderMultiplier:2.7
SliderTickRate:2

[Events]
//Background and Video events
0,0,"tree-water-glass-green-biology-flight-606745-pxhere.com.jpg",0,0
//Break Periods
2,72400,76400
2,82000,84800
2,166000,170000
2,175600,178400
//Storyboard Layer 0 (Background)
//Storyboard Layer 1 (Fail)
//Storyboard Layer 2 (Pass)
//Storyboard Layer 3 (Foreground)
//Storyboard Layer 4 (Overlay)
//Storyboard Sound Samples

[TimingPoints]
2600,600,4,2,1,30,1,0
20500,-100,4,2,2,30,0,0
21800,-100,4,2,1,30,0,0
30200,-100,4,2,1,30,0,0
30800,-100,4,2,1,20,0,0
31400,-100,4,2,1,15,0,0
32600,-100,4,2,1,10,0,0
33800,-100,4,1,1,30,0,0
34000,-100,4,1,1,10,0,0
38600,-100,4,1,1,17,0,0
39200,-100,4,1,1,34,0,0
39800,-100,4,1,1,41,0,0
40400,-100,4,1,1,48,0,0
41000,-100,4,1,1,57,0,0
41600,-100,4,1,1,66,0,0
42200,-100,4,3,2,45,0,0
42500,-100,4,3,2,45,0,0
42800,-100,4,3,2,45,0,0
43400,-80,4,3,1,40,0,1
61400,-80,4,3,2,40,0,1
62000,-80,4,3,2,40,0,0
62600,-80,4,3,3,40,0,1
72200,-100,4,2,1,10,0,0
74600,-100,4,2,1,30,0,0
77000,-100,4,2,1,45,0,0
78200,-100,4,2,1,50,0,0
79400,-100,4,2,2,60,0,0
80600,-100,4,2,2,70,0,0
81200,-100,4,2,2,80,0,0
81900,-100,4,2,1,30,0,0
85400,-100,4,2,1,35,0,0
94900,-100,4,2,2,35,0,0
96400,-100,4,2,3,35,0,0
103400,-100,4,2,1,35,0,0
104600,-100,4,2,2,35,0,0
105800,-100,4,2,1,35,0,0
114200,-100,4,2,2,35,0,0
115400,-100,4,2,1,35,0,0
123800,-100,4,2,1,30,0,0
124400,-100,4,2,1,20,0,0
125000,-100,4,2,1,15,0,0
126200,-100,4,2,1,10,0,0
127400,-100,4,2,1,30,0,0
132200,-100,4,1,1,17,0,0
132800,-100,4,1,1,34,0,0
133400,-100,4,1,1,41,0,0
134000,-100,4,1,1,48,0,0
134600,-100,4,1,1,57,0,0
135200,-100,4,1,1,66,0,0
135800,-100,4,3,2,45,0,0
136700,-100,4,3,2,45,0,0
137000,-80,4,3,1,40,0,1
155000,-80,4,3,2,40,0,1
155600,-80,4,3,2,40,0,0
156200,-80,4,3,3,40,0,1
165800,-100,4,2,1,10,0,0
168200,-100,4,2,1,30,0,0
170600,-100,4,2,1,35,0,0
170900,-100,4,2,1,35,0,0
171800,-100,4,2,1,40,0,0
172400,-100,4,2,1,45,0,0
173000,-100,4,2,2,60,0,0
173600,-100,4,2,2,70,0,0
174200,-100,4,2,2,80,0,0
175100,-100,4,3,2,40,0,0
175400,-100,4,2,1,60,0,0
175500,-100,4,2,1,30,0,0
180200,-100,4,2,1,35,0,0
188500,-100,4,2,2,35,0,0
189800,-100,4,2,1,35,0,0
199400,-100,4,2,1,45,0,0
200600,-100,4,2,1,40,0,0
201800,-100,4,2,1,35,0,0
203000,-100,4,2,1,30,0,0
204200,-100,4,2,1,25,0,0
204800,-100,4,2,1,15,0,0
205400,-100,4,2,1,5,0,0

[Colours]
Combo1 : 231,159,249
Combo2 : 245,163,163
Combo3 : 254,196,99
Combo4 : 253,253,149
Combo5 : 177,254,148
Combo6 : 145,210,255

[HitObjects]
174,238,11000,5,0,0:0:0:0:
174,238,11300,1,0,0:0:0:0:
295,237,11600,1,0,0:0:0:0:
131,237,11900,1,0,0:0:0:0:
387,237,12200,5,4,0:0:0:0:
223,205,12400,2,0,L|385:205,1,135,0|0,0:0|0:0,0:0:0:0:
299,127,12800,1,0,0:0:0:0:
131,128,13100,2,0,L|22:98,1,90,0|0,0:0|0:0,0:0:0:0:
85,195,13400,1,0,0:0:0:0:
224,216,13600,2,0,L|224:169,1,45,0|0,0:0|0:0,0:0:0:0:
34,225,14000,1,0,0:0:0:0:
169,222,14200,1,0,0:0:0:0:
395,168,14600,6,0,L|294:169,1,90,0|0,0:0|0:0,0:0:0:0:
97,176,15100,2,0,L|35:176,1,45,0|0,0:0|0:0,0:0:0:0:
198,138,15500,1,0,0:0:0:0:
102,315,15700,2,0,L|265:304,1,135,0|0,0:0|0:0,0:0:0:0:
299,305,16100,1,0,0:0:0:0:
435,255,16400,1,0,0:0:0:0:
271,256,16700,2,0,L|150:210,1,90,0|0,0:0|0:0,0:0:0:0:
136,202,17000,5,0,0:0:0:0:
303,207,17200,2,0,P|354:180|286:140,1,135,0|0,0:0|0:0,0:0:0:0:
247,128,17600,1,0,0:0:0:0:
408,226,17900,2,0,L|518:228,1,90,0|0,0:0|0:0,0:0:0:0:
446,167,18200,1,0,0:0:0:0:
314,162,18400,2,0,L|244:162,1,45,0|0,0:0|0:0,0:0:0:0:
107,165,18800,1,0,0:0:0:0:
251,276,19000,2,0,L|400:237,1,135,4|0,0:0|0:0,0:0:0:0:
196,109,19400,6,0,L|76:109,1,90,6|0,0:0|0:0,0:0:0:0:
357,280,19900,1,0,0:0:0:0:
409,277,20000,2,0,L|523:263,1,90,0|0,0:0|0:0,0:0:0:0:
354,186,20500,1,0,0:0:0:0:
184,184,20600,1,4,0:0:0:0:
119,157,20700,1,0,0:0:0:0:
123,91,20787,1,0,0:0:0:0:
187,63,20900,1,0,0:0:0:0:
308,66,21050,1,4,0:0:0:0:
58,214,21200,2,0,L|58:51,1,135,8|4,0:0|0:0,0:0:0:0:
436,80,21800,5,4,0:0:0:0:
322,85,22000,2,0,L|155:29,1,135,0|0,0:0|0:0,0:0:0:0:
255,45,22400,1,8,0:0:0:0:
92,193,22700,2,0,L|203:182,1,90,0|0,0:0|0:0,0:0:0:0:
238,180,23000,1,0,0:0:0:0:
359,184,23200,1,0,0:0:0:0:
199,100,23500,1,0,0:0:0:0:
261,99,23600,1,8,0:0:0:0:
390,104,23800,1,0,0:0:0:0:
102,196,24200,6,0,L|197:205,1,90,0|0,0:0|0:0,0:0:0:0:
357,97,24700,2,0,L|357:153,1,45,0|8,0:0|0:0,0:0:0:0:
466,93,25100,1,0,0:0:0:0:
281,232,25300,2,0,P|215:217|148:143,1,135,0|0,0:0|0:0,0:0:0:0:
218,134,25700,1,0,0:0:0:0:
376,134,26000,1,8,0:0:0:0:
182,138,26300,2,0,L|182:33,1,90,0|0,0:0|0:0,0:0:0:0:
243,50,26600,5,0,0:0:0:0:
61,330,26800,2,0,L|210:288,1,135,0|0,0:0|0:0,0:0:0:0:
254,278,27200,1,8,0:0:0:0:
408,161,27500,2,0,L|298:163,1,90,0|0,0:0|0:0,0:0:0:0:
258,165,27800,1,0,0:0:0:0:
133,160,28000,2,0,L|190:161,1,45,0|0,0:0|0:0,0:0:0:0:
369,255,28400,1,8,0:0:0:0:
186,245,28600,2,0,P|127:282|171:332,1,135,4|0,0:0|0:0,0:0:0:0:
328,334,29000,6,0,L|429:309,1,90,6|0,0:0|0:0,0:0:0:0:
228,242,29500,1,0,0:0:0:0:
161,241,29600,2,0,L|69:240,1,90,0|0,0:0|0:0,0:0:0:0:
271,164,30100,1,0,0:0:0:0:
338,168,30200,1,0,0:0:0:0:
488,166,30500,1,0,0:0:0:0:
382,170,30800,1,0,0:0:0:0:
304,170,31100,1,0,0:0:0:0:
268,169,31400,5,0,0:0:0:0:
268,169,31700,1,0,0:0:0:0:
378,169,32000,1,0,0:0:0:0:
268,169,32300,1,0,0:0:0:0:
164,168,32600,1,0,0:0:0:0:
164,168,32900,1,0,0:0:0:0:
268,169,33200,1,0,0:0:0:0:
164,168,33500,1,0,0:0:0:0:
268,169,33800,1,4,0:0:0:0:
256,192,34100,12,0,40700,0:0:0:0:
297,208,41000,6,0,L|389:140,1,90,0|0,0:0|0:0,0:0:0:0:
292,81,41300,2,0,L|186:89,1,90,0|0,0:0|0:0,0:0:0:0:
298,174,41600,1,0,0:0:0:0:
365,173,41700,1,0,0:0:0:0:
298,174,41800,1,0,0:0:0:0:
237,108,41900,2,0,L|355:110,1,90,0|0,0:0|0:0,0:0:0:0:
145,110,42200,5,4,0:0:0:0:
80,137,42300,1,0,0:0:0:0:
80,137,42400,1,4,0:0:0:0:
145,110,42500,2,0,L|270:109,1,90,4|4,0:0|0:0,0:0:0:0:
424,108,42800,1,8,0:0:0:0:
494,111,42900,1,0,0:0:0:0:
494,111,43000,1,8,0:0:0:0:
411,109,43100,2,0,L|305:109,1,90,8|8,0:0|0:0,0:0:0:0:
131,253,43400,6,0,L|416:254,1,281.25,4|0,0:0|0:0,0:0:0:0:
343,168,44000,1,8,0:0:0:0:
207,167,44200,1,0,0:0:0:0:
207,167,44300,1,0,0:0:0:0:
59,128,44500,1,0,0:0:0:0:
115,128,44600,1,4,0:0:0:0:
246,188,44800,1,0,0:0:0:0:
445,191,44900,2,0,L|279:124,1,168.75,0|8,0:0|0:0,0:0:0:0:
142,80,45400,1,0,0:0:0:0:
74,25,45500,2,0,L|74:141,1,112.5,0|0,0:0|0:0,0:0:0:0:
273,203,45800,6,0,B|469:205|469:205|352:174,1,281.25,4|0,0:0|0:0,0:0:0:0:
319,182,46400,1,8,0:0:0:0:
464,83,46600,1,0,0:0:0:0:
464,83,46700,1,0,0:0:0:0:
318,80,46900,1,0,0:0:0:0:
377,80,47000,1,4,0:0:0:0:
500,104,47200,1,0,0:0:0:0:
291,105,47300,2,0,L|441:149,1,112.5,0|0,0:0|0:0,0:0:0:0:
239,291,47600,2,0,L|112:238,1,112.5,8|0,0:0|0:0,0:0:0:0:
202,200,47900,2,0,L|312:172,1,112.5,0|0,0:0|0:0,0:0:0:0:
150,61,48200,6,0,L|417:165,1,281.25,4|0,0:0|0:0,0:0:0:0:
482,110,48800,1,8,0:0:0:0:
300,239,49000,1,4,0:0:0:0:
300,239,49100,1,0,0:0:0:0:
145,240,49300,1,4,0:0:0:0:
82,239,49400,2,0,L|234:239,1,112.5,4|0,0:0|0:0,0:0:0:0:
406,322,49700,2,0,L|237:322,1,168.75,0|8,0:0|0:0,0:0:0:0:
87,321,50200,1,0,0:0:0:0:
20,319,50300,2,0,L|20:192,1,112.5,0|0,0:0|0:0,0:0:0:0:
232,209,50600,6,0,B|456:210|456:210|382:207,1,281.25,4|0,0:0|0:0,0:0:0:0:
326,320,51200,1,8,0:0:0:0:
115,93,51400,2,0,L|244:211,1,168.75,0|0,0:0|0:0,0:0:0:0:
470,280,51800,2,0,L|333:255,1,112.5,4|2,0:0|0:0,0:0:0:0:
289,226,52100,2,0,L|412:218,1,112.5,0|2,0:0|0:0,0:0:0:0:
182,184,52400,2,0,L|11:168,1,168.75,2|0,0:0|0:0,0:0:0:0:
139,98,52900,1,0,0:0:0:0:
349,251,53000,6,0,L|27:265,1,281.25,4|0,0:0|0:0,0:0:0:0:
132,182,53600,1,8,0:0:0:0:
284,184,53800,1,0,0:0:0:0:
284,184,53900,1,0,0:0:0:0:
437,183,54100,1,0,0:0:0:0:
379,183,54200,1,4,0:0:0:0:
226,184,54400,1,0,0:0:0:0:
421,187,54500,2,0,L|246:125,1,168.75,0|8,0:0|0:0,0:0:0:0:
95,117,55000,1,0,0:0:0:0:
149,117,55100,2,0,L|250:52,1,112.5,0|0,0:0|0:0,0:0:0:0:
409,89,55400,6,0,L|107:133,1,281.25,4|0,0:0|0:0,0:0:0:0:
192,190,56000,1,8,0:0:0:0:
36,253,56200,1,0,0:0:0:0:
36,253,56300,1,0,0:0:0:0:
189,255,56500,1,0,0:0:0:0:
247,255,56600,1,4,0:0:0:0:
94,253,56800,1,0,0:0:0:0:
297,60,56900,2,0,L|474:61,1,168.75,0|8,0:0|0:0,0:0:0:0:
329,242,57400,1,0,0:0:0:0:
264,238,57500,2,0,L|413:238,1,112.5,0|0,0:0|0:0,0:0:0:0:
169,42,57800,6,0,B|19:97|19:97|146:133,1,281.25,4|0,0:0|0:0,0:0:0:0:
200,130,58400,1,8,0:0:0:0:
346,127,58600,1,4,0:0:0:0:
346,127,58700,1,0,0:0:0:0:
197,253,58900,1,4,0:0:0:0:
268,254,59000,2,0,L|268:129,1,112.5,4|0,0:0|0:0,0:0:0:0:
97,194,59300,2,0,B|4:191|4:191|102:194,1,168.75,0|8,0:0|0:0,0:0:0:0:
213,197,59800,1,0,0:0:0:0:
269,194,59900,2,0,L|408:213,1,112.5,0|0,0:0|0:0,0:0:0:0:
150,303,60200,6,0,P|50:243|170:205,1,281.25,4|0,0:0|0:0,0:0:0:0:
248,187,60800,1,0,0:0:0:0:
319,222,60900,1,0,0:0:0:0:
319,222,61000,1,0,0:0:0:0:
244,263,61100,2,0,L|118:228,1,112.5,0|0,0:0|0:0,0:0:0:0:
355,260,61400,2,0,L|462:215,1,112.5,4|0,0:0|0:0,0:0:0:0:
264,126,61700,2,0,L|148:167,1,112.5,4|4,0:0|0:0,0:0:0:0:
358,85,62000,2,0,L|203:51,1,112.5,8|0,0:0|0:0,0:0:0:0:
37,84,62300,2,0,L|174:52,1,112.5,8|8,0:0|0:0,0:0:0:0:
383,317,62600,6,0,L|110:227,1,281.25,4|0,0:0|0:0,0:0:0:0:
244,165,63200,2,0,L|361:148,1,112.5,8|0,0:0|0:0,0:0:0:0:
431,138,63500,1,0,0:0:0:0:
266,142,63700,1,0,0:0:0:0:
218,142,63800,1,4,0:0:0:0:
129,143,64000,1,0,0:0:0:0:
307,147,64100,2,0,L|440:152,1,112.5,0|0,0:0|0:0,0:0:0:0:
464,155,64400,1,8,0:0:0:0:
337,58,64600,1,0,0:0:0:0:
288,57,64700,2,0,L|160:57,1,112.5,0|0,0:0|0:0,0:0:0:0:
17,263,65000,6,0,L|310:199,1,281.25,4|0,0:0|0:0,0:0:0:0:
352,192,65600,1,8,0:0:0:0:
202,150,65800,2,0,L|202:70,1,56.25,0|0,0:0|0:0,0:0:0:0:
351,113,66100,1,0,0:0:0:0:
288,114,66200,2,0,L|139:114,1,112.5,4|0,0:0|0:0,0:0:0:0:
391,318,66500,2,0,B|444:315|444:315|383:317,1,112.5,0|0,0:0|0:0,0:0:0:0:
321,320,66800,1,8,0:0:0:0:
110,186,67100,2,0,L|255:188,1,112.5,0|0,0:0|0:0,0:0:0:0:
423,278,67400,6,0,L|112:242,1,281.25,4|0,0:0|0:0,0:0:0:0:
18,123,68000,2,0,L|140:129,1,112.5,8|4,0:0|0:0,0:0:0:0:
200,138,68300,1,0,0:0:0:0:
346,133,68500,2,0,L|346:205,1,56.25,4|4,0:0|0:0,0:0:0:0:
196,132,68800,1,0,0:0:0:0:
247,185,68900,2,0,L|388:185,1,112.5,0|0,0:0|0:0,0:0:0:0:
418,185,69200,1,8,0:0:0:0:
267,294,69400,1,0,0:0:0:0:
192,294,69500,2,0,L|46:274,1,112.5,0|0,0:0|0:0,0:0:0:0:
298,80,69800,6,0,B|464:184|464:184|527:276,1,281.25,4|0,0:0|0:0,0:0:0:0:
449,255,70400,1,8,0:0:0:0:
302,249,70600,2,0,L|302:179,1,56.25,0|0,0:0|0:0,0:0:0:0:
449,255,70900,1,0,0:0:0:0:
400,253,71000,2,0,L|261:240,1,112.5,4|2,0:0|0:0,0:0:0:0:
123,258,71300,2,0,L|247:216,1,112.5,0|2,0:0|0:0,0:0:0:0:
59,87,71600,2,0,L|221:156,1,168.75,2|0,0:0|0:0,0:0:0:0:
410,154,72100,1,0,0:0:0:0:
347,151,72200,1,4,0:0:0:0:
228,255,77000,6,0,L|377:225,1,135,0|0,0:0|0:0,0:0:0:0:
210,66,77600,2,0,L|99:70,1,90,0|0,0:0|0:0,0:0:0:0:
60,73,77900,1,0,0:0:0:0:
244,250,78100,1,0,0:0:0:0:
298,251,78200,2,0,L|437:186,1,135,0|0,0:0|0:0,0:0:0:0:
124,116,78700,1,0,0:0:0:0:
56,184,78800,2,0,L|196:186,1,135,0|0,0:0|0:0,0:0:0:0:
314,187,79300,1,0,0:0:0:0:
133,266,79400,5,0,0:0:0:0:
283,272,79700,1,0,0:0:0:0:
423,269,80000,1,0,0:0:0:0:
487,234,80100,1,0,0:0:0:0:
487,234,80200,1,0,0:0:0:0:
423,269,80300,1,0,0:0:0:0:
219,129,80500,1,0,0:0:0:0:
291,159,80600,1,0,0:0:0:0:
316,219,80700,1,0,0:0:0:0:
291,159,80787,1,0,0:0:0:0:
219,129,80900,1,0,0:0:0:0:
107,310,81100,1,0,0:0:0:0:
49,286,81200,1,0,0:0:0:0:
32,232,81300,1,0,0:0:0:0:
49,286,81400,1,0,0:0:0:0:
107,310,81500,1,0,0:0:0:0:
208,313,81600,1,0,0:0:0:0:
263,279,81700,1,0,0:0:0:0:
59,309,81800,1,4,0:0:0:0:
305,240,85400,5,0,0:0:0:0:
305,240,85700,1,0,0:0:0:0:
184,239,86000,1,0,0:0:0:0:
348,239,86300,1,0,0:0:0:0:
184,239,86600,5,4,0:0:0:0:
2,239,86800,2,0,L|2:189,1,45,0|0,0:0|0:0,0:0:0:0:
147,198,87200,1,8,0:0:0:0:
2,194,87500,1,0,0:0:0:0:
184,87,87700,2,0,L|183:158,1,45,0|0,0:0|0:0,0:0:0:0:
309,278,88000,1,0,0:0:0:0:
368,279,88100,1,0,0:0:0:0:
512,283,88400,1,8,0:0:0:0:
368,179,88600,2,0,L|197:140,1,135,0|0,0:0|0:0,0:0:0:0:
170,148,89000,5,0,0:0:0:0:
353,236,89200,2,0,L|353:186,1,45,0|0,0:0|0:0,0:0:0:0:
498,189,89600,1,8,0:0:0:0:
353,191,89900,1,0,0:0:0:0:
184,87,90100,2,0,L|183:158,1,45,0|0,0:0|0:0,0:0:0:0:
325,84,90400,2,0,L|251:66,1,45,0|0,0:0|0:0,0:0:0:0:
135,241,90700,2,0,L|185:213,1,45,0|0,0:0|0:0,0:0:0:0:
291,220,91000,1,4,0:0:0:0:
174,219,91100,1,0,0:0:0:0:
265,160,91300,1,0,0:0:0:0:
382,169,91400,5,4,0:0:0:0:
208,233,91600,2,0,L|208:183,1,45,0|0,0:0|0:0,0:0:0:0:
65,188,92000,1,8,0:0:0:0:
208,188,92300,1,0,0:0:0:0:
388,85,92500,2,0,L|388:156,1,45,0|0,0:0|0:0,0:0:0:0:
263,83,92800,1,0,0:0:0:0:
216,83,92900,1,0,0:0:0:0:
57,79,93200,1,8,0:0:0:0:
186,182,93400,2,0,L|357:143,1,135,0|0,0:0|0:0,0:0:0:0:
389,155,93800,5,0,0:0:0:0:
202,69,94000,2,0,L|50:115,1,135,0|0,0:0|0:0,0:0:0:0:
122,143,94400,1,8,0:0:0:0:
310,228,94600,2,0,L|462:164,1,135,0|0,0:0|0:0,0:0:0:0:
464,151,95000,1,0,0:0:0:0:
464,151,95100,1,0,0:0:0:0:
434,175,95187,1,0,0:0:0:0:
382,183,95300,1,0,0:0:0:0:
180,242,95500,1,0,0:0:0:0:
128,207,95600,1,0,0:0:0:0:
293,239,95800,1,0,0:0:0:0:
346,227,95900,2,0,L|436:214,1,90,0|4,0:0|0:0,0:0:0:0:
242,129,96200,5,4,0:0:0:0:
51,130,96400,2,0,B|7:194|7:194|104:198,1,135,0|0,0:0|0:0,0:0:0:0:
176,197,96800,1,8,0:0:0:0:
316,194,97100,2,0,L|217:185,1,90,0|0,0:0|0:0,0:0:0:0:
179,185,97400,1,0,0:0:0:0:
44,166,97600,1,0,0:0:0:0:
102,163,97700,1,0,0:0:0:0:
245,241,97900,1,0,0:0:0:0:
355,243,98000,1,8,0:0:0:0:
487,244,98200,1,0,0:0:0:0:
179,244,98600,6,0,L|83:216,1,90,0|0,0:0|0:0,0:0:0:0:
257,102,99100,1,0,0:0:0:0:
369,103,99200,1,8,0:0:0:0:
200,101,99500,1,0,0:0:0:0:
320,104,99700,2,0,L|463:169,1,135,0|0,0:0|0:0,0:0:0:0:
376,174,100100,2,0,L|256:174,1,90,0|0,0:0|0:0,0:0:0:0:
176,174,100400,1,8,0:0:0:0:
325,303,100700,2,0,L|327:202,1,90,0|0,0:0|0:0,0:0:0:0:
450,62,101000,5,4,0:0:0:0:
339,61,101200,2,0,L|197:60,1,135,0|0,0:0|0:0,0:0:0:0:
95,56,101600,1,8,0:0:0:0:
267,281,101900,2,0,L|377:283,1,90,0|0,0:0|0:0,0:0:0:0:
416,280,102200,1,0,0:0:0:0:
299,119,102400,2,0,L|301:179,1,45,0|0,0:0|0:0,0:0:0:0:
187,160,102700,1,0,0:0:0:0:
80,153,102800,1,8,0:0:0:0:
264,282,103000,2,0,L|396:220,1,135,0|0,0:0|0:0,0:0:0:0:
217,66,103400,6,0,L|117:66,1,90,4|0,0:0|0:0,0:0:0:0:
288,118,103900,1,0,0:0:0:0:
341,167,104000,2,0,L|222:167,1,90,0|0,0:0|0:0,0:0:0:0:
82,248,104500,1,0,0:0:0:0:
206,243,104600,1,0,0:0:0:0:
274,244,104700,1,0,0:0:0:0:
274,244,104800,1,0,0:0:0:0:
206,243,104900,1,0,0:0:0:0:
319,123,105100,1,0,0:0:0:0:
436,190,105200,2,0,L|548:185,1,90,8|4,0:0|0:0,0:0:0:0:
463,118,105500,2,0,L|354:120,1,90,0|4,0:0|0:0,0:0:0:0:
198,121,105800,5,4,0:0:0:0:
383,119,106000,2,0,P|427:152|365:201,1,135,0|0,0:0|0:0,0:0:0:0:
321,207,106400,1,0,0:0:0:0:
178,204,106700,2,0,L|287:174,1,90,0|0,0:0|0:0,0:0:0:0:
324,181,107000,1,0,0:0:0:0:
213,81,107200,2,0,L|214:136,1,45,0|0,0:0|0:0,0:0:0:0:
325,79,107500,2,0,L|326:141,1,45,0|0,0:0|0:0,0:0:0:0:
438,90,107800,1,0,0:0:0:0:
274,86,108100,1,0,0:0:0:0:
216,83,108200,6,0,L|317:83,1,90,0|0,0:0|0:0,0:0:0:0:
140,181,108700,2,0,L|76:182,1,45,0|0,0:0|0:0,0:0:0:0:
263,186,109100,1,0,0:0:0:0:
375,186,109300,2,0,P|390:141|360:55,1,135,0|0,0:0|0:0,0:0:0:0:
309,62,109700,1,0,0:0:0:0:
150,59,110000,2,0,L|259:59,1,90,0|4,0:0|0:0,0:0:0:0:
309,152,110300,2,0,L|309:40,1,90,0|0,0:0|0:0,0:0:0:0:
227,54,110600,5,4,0:0:0:0:
112,119,110800,2,0,L|252:119,1,135,0|0,0:0|0:0,0:0:0:0:
308,119,111200,1,0,0:0:0:0:
125,237,111500,2,0,L|15:239,1,90,0|0,0:0|0:0,0:0:0:0:
89,161,111800,1,0,0:0:0:0:
207,163,112000,2,0,L|209:223,1,45,0|0,0:0|0:0,0:0:0:0:
50,164,112400,1,0,0:0:0:0:
184,40,112600,2,0,L|323:72,1,135,4|0,0:0|0:0,0:0:0:0:
139,127,113000,6,0,L|35:158,1,90,6|0,0:0|0:0,0:0:0:0:
231,297,113500,1,0,0:0:0:0:
291,300,113600,2,0,L|401:275,1,90,0|0,0:0|0:0,0:0:0:0:
204,189,114100,1,0,0:0:0:0:
374,187,114200,1,0,0:0:0:0:
439,160,114300,1,0,0:0:0:0:
435,94,114387,1,0,0:0:0:0:
371,66,114500,1,0,0:0:0:0:
250,69,114650,1,0,0:0:0:0:
500,217,114800,2,0,L|500:54,1,135,0|0,0:0|0:0,0:0:0:0:
71,209,115400,5,0,0:0:0:0:
223,205,115600,2,0,L|371:205,1,135,0|0,0:0|0:0,0:0:0:0:
233,103,116000,1,8,0:0:0:0:
83,230,116300,2,0,L|192:200,1,90,0|0,0:0|0:0,0:0:0:0:
169,206,116600,1,0,0:0:0:0:
288,210,116800,1,0,0:0:0:0:
437,212,117100,1,0,0:0:0:0:
312,208,117200,1,8,0:0:0:0:
169,208,117400,1,0,0:0:0:0:
420,170,117800,6,0,L|306:170,1,90,0|0,0:0|0:0,0:0:0:0:
164,96,118300,1,0,0:0:0:0:
282,93,118400,1,8,0:0:0:0:
442,96,118700,1,0,0:0:0:0:
325,236,118900,2,0,P|259:221|164:270,1,135,0|0,0:0|0:0,0:0:0:0:
139,270,119300,1,0,0:0:0:0:
339,136,119600,2,0,L|229:96,1,90,8|4,0:0|0:0,0:0:0:0:
192,220,119900,2,0,L|300:250,1,90,0|0,0:0|0:0,0:0:0:0:
400,245,120200,5,4,0:0:0:0:
303,187,120400,2,0,L|470:167,1,135,0|0,0:0|0:0,0:0:0:0:
310,117,120800,1,8,0:0:0:0:
143,117,121100,2,0,L|33:119,1,90,0|0,0:0|0:0,0:0:0:0:
105,61,121400,1,0,0:0:0:0:
223,58,121600,1,0,0:0:0:0:
285,58,121700,1,0,0:0:0:0:
27,59,122000,1,8,0:0:0:0:
215,280,122200,2,0,L|374:234,1,135,4|0,0:0|0:0,0:0:0:0:
166,115,122600,6,0,L|62:146,1,90,6|0,0:0|0:0,0:0:0:0:
233,262,123100,1,0,0:0:0:0:
291,262,123200,2,0,L|392:223,1,90,0|0,0:0|0:0,0:0:0:0:
209,120,123700,1,0,0:0:0:0:
143,160,123800,1,0,0:0:0:0:
47,166,124100,1,0,0:0:0:0:
153,170,124400,1,0,0:0:0:0:
231,170,124700,1,0,0:0:0:0:
267,169,125000,5,0,0:0:0:0:
267,169,125300,1,0,0:0:0:0:
157,169,125600,1,0,0:0:0:0:
267,169,125900,1,0,0:0:0:0:
371,168,126200,1,0,0:0:0:0:
371,168,126500,1,0,0:0:0:0:
267,169,126800,1,0,0:0:0:0:
371,168,127100,1,0,0:0:0:0:
267,169,127400,1,4,0:0:0:0:
256,192,127700,12,0,134300,0:0:0:0:
215,208,134600,6,0,L|123:140,1,90,0|0,0:0|0:0,0:0:0:0:
220,81,134900,2,0,L|326:89,1,90,0|0,0:0|0:0,0:0:0:0:
214,174,135200,1,0,0:0:0:0:
147,173,135300,1,0,0:0:0:0:
214,174,135400,1,0,0:0:0:0:
275,108,135500,2,0,L|157:110,1,90,0|0,0:0|0:0,0:0:0:0:
367,110,135800,5,4,0:0:0:0:
432,137,135900,1,0,0:0:0:0:
432,137,136000,1,4,0:0:0:0:
367,110,136100,2,0,L|242:109,1,90,4|4,0:0|0:0,0:0:0:0:
88,108,136400,1,8,0:0:0:0:
18,111,136500,1,0,0:0:0:0:
18,111,136600,1,8,0:0:0:0:
101,109,136700,2,0,L|207:109,1,90,8|8,0:0|0:0,0:0:0:0:
381,253,137000,6,0,L|96:254,1,281.25,4|0,0:0|0:0,0:0:0:0:
169,168,137600,1,8,0:0:0:0:
305,167,137800,1,0,0:0:0:0:
305,167,137900,1,0,0:0:0:0:
169,179,138100,1,0,0:0:0:0:
121,179,138200,1,4,0:0:0:0:
0,178,138400,1,0,0:0:0:0:
215,186,138500,2,0,L|381:119,1,168.75,0|8,0:0|0:0,0:0:0:0:
180,98,139000,1,0,0:0:0:0:
107,118,139100,2,0,L|229:174,1,112.5,0|0,0:0|0:0,0:0:0:0:
428,280,139400,6,0,L|116:216,1,281.25,4|0,0:0|0:0,0:0:0:0:
80,208,140000,1,8,0:0:0:0:
218,156,140200,1,0,0:0:0:0:
218,156,140300,1,0,0:0:0:0:
364,153,140500,1,0,0:0:0:0:
418,154,140600,1,4,0:0:0:0:
266,156,140800,1,0,0:0:0:0:
200,155,140900,2,0,L|50:199,1,112.5,0|0,0:0|0:0,0:0:0:0:
311,296,141200,2,0,L|183:255,1,112.5,8|0,0:0|0:0,0:0:0:0:
278,227,141500,2,0,L|394:205,1,112.5,0|0,0:0|0:0,0:0:0:0:
64,65,141800,6,0,L|331:169,1,281.25,4|0,0:0|0:0,0:0:0:0:
258,184,142400,1,8,0:0:0:0:
118,183,142600,1,4,0:0:0:0:
118,183,142700,1,0,0:0:0:0:
258,184,142900,1,4,0:0:0:0:
202,187,143000,1,4,0:0:0:0:
48,189,143200,1,0,0:0:0:0:
252,274,143300,2,0,L|421:274,1,168.75,0|8,0:0|0:0,0:0:0:0:
269,141,143800,1,0,0:0:0:0:
322,138,143900,2,0,L|448:69,1,112.5,0|0,0:0|0:0,0:0:0:0:
200,212,144200,6,0,B|13:214|13:214|114:213,1,281.25,4|0,0:0|0:0,0:0:0:0:
174,320,144800,1,8,0:0:0:0:
373,93,145000,2,0,L|244:211,1,168.75,0|0,0:0|0:0,0:0:0:0:
18,280,145400,2,0,L|155:255,1,112.5,4|0,0:0|0:0,0:0:0:0:
199,226,145700,2,0,L|76:218,1,112.5,0|2,0:0|0:0,0:0:0:0:
306,184,146000,2,0,L|477:168,1,168.75,2|0,0:0|0:0,0:0:0:0:
349,98,146500,1,0,0:0:0:0:
134,55,146600,6,0,B|16:130|16:130|153:235,1,281.25,4|0,0:0|0:0,0:0:0:0:
194,218,147200,1,8,0:0:0:0:
344,219,147400,2,0,L|344:158,1,56.25,0|0,0:0|0:0,0:0:0:0:
200,156,147700,2,0,L|273:156,1,56.25,0|4,0:0|0:0,0:0:0:0:
99,223,148000,1,0,0:0:0:0:
316,239,148100,2,0,L|491:177,1,168.75,0|8,0:0|0:0,0:0:0:0:
364,331,148600,1,0,0:0:0:0:
297,333,148700,2,0,L|180:294,1,112.5,0|0,0:0|0:0,0:0:0:0:
445,157,149000,6,0,L|205:5,1,281.25,4|0,0:0|0:0,0:0:0:0:
290,186,149600,1,8,0:0:0:0:
148,186,149800,1,0,0:0:0:0:
148,186,149900,1,0,0:0:0:0:
326,275,150100,1,0,0:0:0:0:
265,275,150200,1,4,0:0:0:0:
99,187,150400,1,0,0:0:0:0:
39,68,150500,2,0,L|216:69,1,168.75,0|8,0:0|0:0,0:0:0:0:
344,196,151000,1,0,0:0:0:0:
279,194,151100,2,0,L|130:194,1,112.5,0|0,0:0|0:0,0:0:0:0:
373,55,151400,6,0,B|453:93|453:93|221:136,1,281.25,4|0,0:0|0:0,0:0:0:0:
203,130,152000,1,8,0:0:0:0:
362,212,152200,1,4,0:0:0:0:
362,212,152300,1,0,0:0:0:0:
214,214,152500,1,4,0:0:0:0:
268,212,152600,2,0,L|396:210,1,112.5,4|0,0:0|0:0,0:0:0:0:
152,98,152900,2,0,L|367:87,1,168.75,0|8,0:0|0:0,0:0:0:0:
463,162,153400,1,0,0:0:0:0:
407,159,153500,2,0,L|268:178,1,112.5,0|0,0:0|0:0,0:0:0:0:
82,295,153800,6,0,B|81:209|81:209|124:96|248:93,1,281.25,4|0,0:0|0:0,0:0:0:0:
302,185,154400,1,0,0:0:0:0:
373,220,154500,1,0,0:0:0:0:
373,220,154600,1,0,0:0:0:0:
298,262,154700,2,0,L|154:261,1,112.5,0|0,0:0|0:0,0:0:0:0:
390,129,155000,2,0,L|496:78,1,112.5,4|4,0:0|0:0,0:0:0:0:
280,129,155300,2,0,L|168:165,1,112.5,4|4,0:0|0:0,0:0:0:0:
373,194,155600,2,0,L|513:128,1,112.5,8|0,0:0|0:0,0:0:0:0:
258,84,155900,2,0,L|395:52,1,112.5,8|8,0:0|0:0,0:0:0:0:
108,322,156200,6,0,L|396:271,1,281.25,4|0,0:0|0:0,0:0:0:0:
267,177,156800,2,0,L|153:150,1,112.5,8|0,0:0|0:0,0:0:0:0:
103,143,157100,1,0,0:0:0:0:
231,142,157300,1,0,0:0:0:0:
176,142,157400,1,4,0:0:0:0:
48,143,157600,1,0,0:0:0:0:
244,148,157700,2,0,L|377:153,1,112.5,0|0,0:0|0:0,0:0:0:0:
284,74,158000,1,8,0:0:0:0:
120,58,158200,1,0,0:0:0:0:
169,57,158300,2,0,L|297:57,1,112.5,0|0,0:0|0:0,0:0:0:0:
70,313,158600,6,0,B|22:201|22:201|208:150,1,281.25,4|0,0:0|0:0,0:0:0:0:
234,170,159200,1,8,0:0:0:0:
85,165,159400,2,0,L|85:85,1,56.25,0|0,0:0|0:0,0:0:0:0:
230,175,159700,1,0,0:0:0:0:
168,174,159800,2,0,L|19:174,1,112.5,4|0,0:0|0:0,0:0:0:0:
245,107,160100,2,0,L|396:98,1,112.5,0|0,0:0|0:0,0:0:0:0:
423,98,160400,1,8,0:0:0:0:
242,190,160700,2,0,L|97:192,1,112.5,0|0,0:0|0:0,0:0:0:0:
350,300,161000,6,0,L|39:264,1,281.25,4|0,0:0|0:0,0:0:0:0:
186,173,161600,2,0,L|309:177,1,112.5,8|0,0:0|0:0,0:0:0:0:
361,178,161900,1,0,0:0:0:0:
207,253,162100,1,0,0:0:0:0:
142,251,162200,1,4,0:0:0:0:
303,107,162400,1,0,0:0:0:0:
303,107,162500,2,0,L|439:140,1,112.5,0|0,0:0|0:0,0:0:0:0:
345,183,162800,1,8,0:0:0:0:
194,196,163000,1,0,0:0:0:0:
110,188,163100,2,0,L|256:168,1,112.5,0|0,0:0|0:0,0:0:0:0:
423,180,163400,6,0,B|230:44|230:44|159:73,1,281.25,4|0,0:0|0:0,0:0:0:0:
71,119,164000,1,8,0:0:0:0:
188,117,164200,2,0,L|188:47,1,56.25,0|0,0:0|0:0,0:0:0:0:
78,219,164500,1,0,0:0:0:0:
143,221,164600,2,0,L|4:208,1,112.5,6|0,0:0|0:0,0:0:0:0:
224,226,164900,2,0,L|349:191,1,112.5,0|2,0:0|0:0,0:0:0:0:
123,46,165200,2,0,P|72:77|162:125,1,168.75,2|0,0:0|0:0,0:0:0:0:
254,145,165700,1,0,0:0:0:0:
254,145,165800,1,4,0:0:0:0:
147,262,170600,6,0,L|-17:260,1,135,4|0,0:0|0:0,0:0:0:0:
178,174,171200,2,0,L|299:173,1,90,4|0,0:0|0:0,0:0:0:0:
325,172,171500,1,0,0:0:0:0:
440,262,171700,1,0,0:0:0:0:
268,277,171800,2,0,L|134:203,1,135,4|0,0:0|0:0,0:0:0:0:
345,144,172300,1,0,0:0:0:0:
422,141,172400,2,0,L|265:141,1,135,4|0,0:0|0:0,0:0:0:0:
169,139,172900,1,0,0:0:0:0:
357,138,173000,5,0,0:0:0:0:
229,272,173300,1,0,0:0:0:0:
89,269,173600,1,0,0:0:0:0:
25,234,173700,1,0,0:0:0:0:
25,234,173800,1,0,0:0:0:0:
89,269,173900,1,0,0:0:0:0:
293,129,174100,1,0,0:0:0:0:
221,159,174200,1,0,0:0:0:0:
196,219,174300,1,0,0:0:0:0:
221,159,174387,1,0,0:0:0:0:
293,129,174500,1,0,0:0:0:0:
405,310,174700,1,0,0:0:0:0:
463,286,174800,1,0,0:0:0:0:
480,232,174900,1,0,0:0:0:0:
463,286,175000,1,0,0:0:0:0:
405,310,175100,1,8,0:0:0:0:
304,313,175200,1,0,0:0:0:0:
249,279,175300,1,8,0:0:0:0:
453,309,175400,1,4,0:0:0:0:
174,238,179000,5,0,0:0:0:0:
174,238,179300,1,0,0:0:0:0:
295,237,179600,1,0,0:0:0:0:
131,237,179900,5,0,0:0:0:0:
317,237,180200,5,4,0:0:0:0:
426,68,180400,2,0,L|285:67,1,135,0|0,0:0|0:0,0:0:0:0:
230,66,180800,1,0,0:0:0:0:
59,193,181100,2,0,L|168:163,1,90,0|0,0:0|0:0,0:0:0:0:
145,169,181400,1,0,0:0:0:0:
306,195,181600,1,0,0:0:0:0:
306,195,181700,1,0,0:0:0:0:
141,192,182000,1,0,0:0:0:0:
34,192,182200,1,0,0:0:0:0:
306,195,182600,6,0,L|402:167,1,90,0|0,0:0|0:0,0:0:0:0:
221,56,183100,1,0,0:0:0:0:
156,56,183200,1,0,0:0:0:0:
316,53,183500,1,0,0:0:0:0:
178,206,183700,2,0,L|351:207,1,135,0|0,0:0|0:0,0:0:0:0:
369,206,184100,1,0,0:0:0:0:
140,143,184400,2,0,L|271:144,1,90,0|4,0:0|0:0,0:0:0:0:
308,145,184700,2,0,L|308:40,1,90,0|0,0:0|0:0,0:0:0:0:
233,54,185000,5,4,0:0:0:0:
48,343,185200,2,0,L|210:343,1,135,0|0,0:0|0:0,0:0:0:0:
253,343,185600,1,0,0:0:0:0:
402,184,185900,2,0,L|292:186,1,90,0|0,0:0|0:0,0:0:0:0:
312,185,186200,1,0,0:0:0:0:
167,190,186400,2,0,L|169:250,1,45,0|0,0:0|0:0,0:0:0:0:
312,185,186800,1,0,0:0:0:0:
420,56,187000,2,0,B|499:134|496:135|466:189,1,135,4|0,0:0|0:0,0:0:0:0:
307,178,187400,6,0,L|203:209,1,90,6|0,0:0|0:0,0:0:0:0:
387,254,187900,1,0,0:0:0:0:
439,257,188000,2,0,L|529:193,1,90,0|0,0:0|0:0,0:0:0:0:
319,88,188500,1,0,0:0:0:0:
252,87,188600,1,4,0:0:0:0:
200,131,188700,1,0,0:0:0:0:
200,131,188800,1,0,0:0:0:0:
252,87,188900,1,0,0:0:0:0:
348,86,189050,1,4,0:0:0:0:
86,208,189200,2,0,L|194:163,1,90,8|0,0:0|0:0,0:0:0:0:
229,146,189500,2,0,L|111:141,1,90,4|0,0:0|0:0,0:0:0:0:
313,86,189800,5,4,0:0:0:0:
206,144,190000,2,0,L|361:144,1,135,0|0,0:0|0:0,0:0:0:0:
397,143,190400,1,0,0:0:0:0:
254,274,190700,2,0,L|158:237,1,90,0|0,0:0|0:0,0:0:0:0:
170,241,191000,1,0,0:0:0:0:
307,235,191200,1,0,0:0:0:0:
368,233,191300,1,0,0:0:0:0:
233,236,191600,1,0,0:0:0:0:
368,233,191800,1,0,0:0:0:0:
176,169,192200,6,0,L|80:141,1,90,0|0,0:0|0:0,0:0:0:0:
245,96,192700,1,0,0:0:0:0:
308,96,192800,1,0,0:0:0:0:
455,97,193100,1,0,0:0:0:0:
272,334,193300,2,0,L|444:296,1,135,0|0,0:0|0:0,0:0:0:0:
465,288,193700,1,0,0:0:0:0:
291,113,194000,2,0,L|404:113,1,90,0|4,0:0|0:0,0:0:0:0:
435,176,194300,2,0,L|313:176,1,90,0|0,0:0|0:0,0:0:0:0:
213,58,194600,5,4,0:0:0:0:
321,52,194800,2,0,L|324:207,1,135,0|0,0:0|0:0,0:0:0:0:
267,187,195200,1,0,0:0:0:0:
95,165,195500,2,0,L|205:167,1,90,0|0,0:0|0:0,0:0:0:0:
184,166,195800,1,0,0:0:0:0:
297,163,196000,2,0,L|299:223,1,45,0|0,0:0|0:0,0:0:0:0:
153,205,196400,1,0,0:0:0:0:
335,301,196600,2,0,L|466:238,1,135,4|0,0:0|0:0,0:0:0:0:
282,57,197000,6,0,L|152:85,1,90,6|0,0:0|0:0,0:0:0:0:
15,210,197500,1,0,0:0:0:0:
67,213,197600,2,0,L|182:213,1,90,0|0,0:0|0:0,0:0:0:0:
316,215,198100,1,0,0:0:0:0:
435,214,198200,5,0,0:0:0:0:
296,215,198500,1,0,0:0:0:0:
407,217,198800,1,0,0:0:0:0:
332,216,199100,1,0,0:0:0:0:
256,192,199400,12,0,205400,0:0:0:0:
