osu file format v14

[General]
AudioFilename: audio.mp3
AudioLeadIn: 0
PreviewTime: 136900
Countdown: 0
SampleSet: Soft
StackLeniency: 0.7
Mode: 2
LetterboxInBreaks: 0
WidescreenStoryboard: 1

[Editor]
Bookmarks: 12200,31400,81800,96200,115400,175400,189800
DistanceSpacing: 1.4
BeatDivisor: 6
GridSize: 4
TimelineZoom: 1.8

[Metadata]
Title:ELINE
TitleUnicode:ELINE
Artist:dark cat
ArtistUnicode:dark cat
Creator:Absolute Zero
Version:Hyperion's Platter
Source:osu!
Tags:JBHyperion JBH WildOne94 catstep mappers' guild featured artist Farbenspiel EDM electronic electro dance glitch hop
BeatmapID:2228563
BeatmapSetID:1064394

[Difficulty]
HPDrainRate:5
CircleSize:3.5
OverallDifficulty:8
ApproachRate:8
SliderMultiplier:2
SliderTickRate:1

[Events]
//Background and Video events
0,0,"tree-water-glass-green-biology-flight-606745-pxhere.com.jpg",0,0
//Break Periods
2,34000,37850
2,82000,85850
2,127600,131450
2,175600,179450
//Storyboard Layer 0 (Background)
//Storyboard Layer 1 (Fail)
//Storyboard Layer 2 (Pass)
//Storyboard Layer 3 (Foreground)
//Storyboard Layer 4 (Overlay)
//Storyboard Sound Samples

[TimingPoints]
2600,600,4,2,1,30,1,0
20500,-100,4,2,2,30,0,0
21800,-100,4,2,1,30,0,0
30200,-100,4,2,1,30,0,0
30800,-100,4,2,1,20,0,0
31400,-100,4,2,1,15,0,0
32600,-100,4,2,1,10,0,0
33800,-100,4,1,1,30,0,0
34000,-100,4,1,1,10,0,0
38600,-100,4,1,1,17,0,0
39200,-100,4,1,1,34,0,0
39800,-100,4,1,1,41,0,0
40400,-100,4,1,1,48,0,0
41000,-100,4,1,1,57,0,0
41600,-100,4,1,1,66,0,0
42200,-100,4,3,2,45,0,0
42500,-100,4,3,2,45,0,0
42800,-100,4,3,2,45,0,0
43400,-80,4,3,1,40,0,1
52400,-66.6666666666667,4,3,1,40,0,1
52500,-80,4,3,1,40,0,1
61400,-80,4,3,2,40,0,1
62000,-100,4,3,2,40,0,0
62600,-80,4,3,3,40,0,1
71600,-66.6666666666667,4,3,3,40,0,1
71700,-100,4,3,3,40,0,1
72200,-100,4,2,1,10,0,0
74600,-100,4,2,1,30,0,0
77000,-100,4,2,1,45,0,0
78200,-100,4,2,1,50,0,0
79400,-100,4,2,2,60,0,0
80600,-100,4,2,2,70,0,0
81200,-66.6666666666667,4,2,2,80,0,0
81500,-100,4,2,1,60,0,0
81900,-100,4,2,1,30,0,0
85400,-100,4,2,1,40,0,0
94900,-100,4,2,2,40,0,0
95600,-66.6666666666667,4,2,2,60,0,0
95900,-100,4,2,2,60,0,0
96400,-100,4,2,3,40,0,0
103400,-100,4,2,1,40,0,0
104600,-100,4,2,2,40,0,0
105800,-100,4,2,1,40,0,0
114200,-100,4,2,2,40,0,0
115400,-100,4,2,1,40,0,0
123800,-100,4,2,1,30,0,0
124400,-100,4,2,1,20,0,0
125000,-100,4,2,1,15,0,0
126200,-100,4,2,1,10,0,0
127400,-100,4,2,1,30,0,0
132200,-100,4,1,1,17,0,0
132800,-100,4,1,1,34,0,0
133400,-100,4,1,1,41,0,0
134000,-100,4,1,1,48,0,0
134600,-100,4,1,1,57,0,0
135200,-100,4,1,1,66,0,0
135800,-100,4,3,2,45,0,0
136700,-100,4,3,2,45,0,0
137000,-80,4,3,1,40,0,1
146000,-66.6666666666667,4,3,1,40,0,1
146100,-100,4,3,1,40,0,1
146300,-80,4,3,1,40,0,1
155000,-80,4,3,2,40,0,1
155600,-80,4,3,2,40,0,0
155900,-100,4,3,2,40,0,0
156200,-80,4,3,3,40,0,1
165200,-66.6666666666667,4,3,3,40,0,1
165300,-100,4,3,3,40,0,1
165800,-100,4,2,1,10,0,0
168200,-100,4,2,1,30,0,0
170600,-100,4,2,1,35,0,0
170900,-100,4,2,1,35,0,0
171800,-100,4,2,1,40,0,0
172400,-100,4,2,1,45,0,0
173000,-100,4,2,2,60,0,0
173600,-100,4,2,2,70,0,0
174200,-100,4,2,2,80,0,0
174800,-66.6666666666667,4,2,2,80,0,0
175100,-100,4,3,2,40,0,0
175400,-100,4,2,1,60,0,0
175500,-100,4,2,1,30,0,0
180200,-100,4,2,1,35,0,0
188500,-100,4,2,2,35,0,0
189800,-100,4,2,1,35,0,0
199400,-100,4,2,1,45,0,0
200600,-100,4,2,1,40,0,0
201800,-100,4,2,1,35,0,0
203000,-100,4,2,1,30,0,0
204200,-100,4,2,1,25,0,0
204800,-100,4,2,1,15,0,0
205400,-100,4,2,1,5,0,0

[Colours]
Combo1 : 231,159,249
Combo2 : 245,163,163
Combo3 : 254,196,99
Combo4 : 253,253,149
Combo5 : 177,254,148
Combo6 : 145,210,255

[HitObjects]
188,192,12200,6,0,L|130:157,1,66.6666666666667,4|0,0:0|0:0,0:0:0:0:
92,132,12500,1,0,0:0:0:0:
200,192,12800,1,0,0:0:0:0:
308,192,13100,2,0,L|312:120,1,66.6666666666667,0|0,0:0|0:0,0:0:0:0:
212,112,13600,2,0,L|208:56,1,33.3333333333333,0|0,0:0|0:0,0:0:0:0:
344,36,14200,1,0,0:0:0:0:
208,36,14600,6,0,L|204:112,1,66.6666666666667,0|0,0:0|0:0,0:0:0:0:
312,112,15100,2,0,L|316:164,1,33.3333333333333,0|0,0:0|0:0,0:0:0:0:
480,148,15700,2,0,L|360:148,1,100,0|0,0:0|0:0,0:0:0:0:
340,148,16100,1,0,0:0:0:0:
200,148,16400,2,0,L|132:148,1,66.6666666666667,0|0,0:0|0:0,0:0:0:0:
133,148,16700,1,0,0:0:0:0:
320,148,16900,6,0,L|324:276,1,100,0|0,0:0|0:0,0:0:0:0:
164,248,17600,2,0,L|168:148,1,100,0|0,0:0|0:0,0:0:0:0:
236,148,18100,1,0,0:0:0:0:
356,148,18400,2,0,L|360:96,1,33.3333333333333,0|0,0:0|0:0,0:0:0:0:
160,116,19000,1,4,0:0:0:0:
480,116,19400,6,0,L|484:204,1,66.6666666666667,6|0,0:0|0:0,0:0:0:0:
308,180,20000,2,0,L|240:180,1,66.6666666666667,0|0,0:0|0:0,0:0:0:0:
112,180,20500,1,0,0:0:0:0:
200,180,20600,2,0,P|244:128|200:72,1,150,4|4,0:0|0:0,0:0:0:0:
48,68,21200,2,0,L|44:176,1,100,8|4,0:0|0:0,0:0:0:0:
304,168,21800,6,0,L|372:168,1,66.6666666666667,4|0,0:0|0:0,0:0:0:0:
370,168,22100,1,0,0:0:0:0:
220,168,22400,1,8,0:0:0:0:
340,168,22700,2,0,L|344:255,1,66.6666666666667,0|0,0:0|0:0,0:0:0:0:
196,220,23200,2,0,L|192:272,1,33.3333333333333,0|0,0:0|0:0,0:0:0:0:
344,252,23600,2,0,L|432:252,1,66.6666666666667,8|0,0:0|0:0,0:0:0:0:
236,252,24200,6,0,L|232:324,1,66.6666666666667,0|0,0:0|0:0,0:0:0:0:
92,316,24700,2,0,L|128:316,1,33.3333333333333,0|8,0:0|0:0,0:0:0:0:
348,320,25300,2,0,L|228:320,1,100,0|0,0:0|0:0,0:0:0:0:
208,320,25700,1,0,0:0:0:0:
340,318,26000,2,0,L|408:318,1,66.6666666666667,8|0,0:0|0:0,0:0:0:0:
407,318,26300,1,0,0:0:0:0:
220,318,26500,6,0,L|216:190,1,100,0|0,0:0|0:0,0:0:0:0:
376,216,27200,2,0,L|372:116,1,100,8|0,0:0|0:0,0:0:0:0:
292,116,27700,1,0,0:0:0:0:
160,116,28000,2,0,L|156:64,1,33.3333333333333,0|0,0:0|0:0,0:0:0:0:
292,116,28400,1,8,0:0:0:0:
204,116,28600,2,0,L|160:116,1,33.3333333333333,4|0,0:0|0:0,0:0:0:0:
432,120,29000,6,0,L|436:208,1,66.6666666666667,6|0,0:0|0:0,0:0:0:0:
260,184,29600,2,0,L|328:184,1,66.6666666666667,0|0,0:0|0:0,0:0:0:0:
188,184,30100,1,0,0:0:0:0:
260,184,30200,2,0,L|364:184,1,100,0|0,0:0|0:0,0:0:0:0:
220,184,30800,2,0,L|216:84,1,100,0|0,0:0|0:0,0:0:0:0:
256,192,31400,12,4,33800,0:0:0:0:
256,192,38600,12,8,43100,0:0:0:0:
356,192,43400,6,0,P|424:140|352:76,1,208.333333333333,4|0,0:0|0:0,0:0:0:0:
292,76,44000,2,0,L|208:76,1,83.3333333333333,8|0,0:0|0:0,0:0:0:0:
152,76,44300,1,0,0:0:0:0:
404,76,44600,6,0,L|408:172,1,83.3333333333333,4|0,0:0|0:0,0:0:0:0:
348,160,44900,1,0,0:0:0:0:
100,160,45200,2,0,L|16:160,1,83.3333333333333,8|0,0:0|0:0,0:0:0:0:
16,160,45500,1,0,0:0:0:0:
404,160,45800,6,0,B|404:224|404:224|336:224,1,125,4|0,0:0|0:0,0:0:0:0:
168,132,46400,2,0,L|84:132,1,83.3333333333333,8|0,0:0|0:0,0:0:0:0:
152,140,46700,2,0,L|236:140,1,83.3333333333333,0|0,0:0|0:0,0:0:0:0:
300,140,47000,6,0,L|304:40,1,83.3333333333333,4|0,0:0|0:0,0:0:0:0:
236,56,47300,1,0,0:0:0:0:
488,56,47600,2,0,L|492:192,1,125,8|0,0:0|0:0,0:0:0:0:
128,184,48200,6,0,B|236:248,1,125,4|0,0:0|0:0,0:0:0:0:
388,248,48800,2,0,L|480:248,1,83.3333333333333,8|4,0:0|0:0,0:0:0:0:
416,248,49100,2,0,L|332:248,1,83.3333333333333,0|4,0:0|0:0,0:0:0:0:
276,248,49400,6,0,L|388:192,1,125,4|0,0:0|0:0,0:0:0:0:
236,192,50000,2,0,L|328:192,1,83.3333333333333,8|0,0:0|0:0,0:0:0:0:
380,192,50300,1,0,0:0:0:0:
16,192,50600,6,0,B|20:80,1,104.166666666667,4|0,0:0|0:0,0:0:0:0:
304,96,51200,2,0,L|220:96,1,83.3333333333333,8|0,0:0|0:0,0:0:0:0:
168,96,51500,2,0,L|256:96,1,83.3333333333333,0|0,0:0|0:0,0:0:0:0:
304,96,51800,5,4,0:0:0:0:
88,96,52000,2,0,B|201:97,1,83.3333333333333,2|0,0:0|0:0,0:0:0:0:
352,96,52400,2,0,L|504:96,1,150.000005722046,2|0,0:0|0:0,0:0:0:0:
408,96,52900,1,0,0:0:0:0:
276,96,53000,6,0,P|208:148|280:212,1,208.333333333333,4|0,0:0|0:0,0:0:0:0:
340,212,53600,2,0,L|424:212,1,83.3333333333333,8|0,0:0|0:0,0:0:0:0:
480,212,53900,1,0,0:0:0:0:
228,212,54200,6,0,L|320:212,1,83.3333333333333,4|0,0:0|0:0,0:0:0:0:
368,212,54500,1,0,0:0:0:0:
220,212,54800,2,0,L|136:212,1,83.3333333333333,8|0,0:0|0:0,0:0:0:0:
92,212,55100,1,0,0:0:0:0:
468,128,55400,6,0,B|468:64|468:64|400:64,1,125,4|0,0:0|0:0,0:0:0:0:
256,64,56000,2,0,L|160:64,1,83.3333333333333,8|0,0:0|0:0,0:0:0:0:
244,64,56300,2,0,L|248:156,1,83.3333333333333,0|0,0:0|0:0,0:0:0:0:
176,148,56600,6,0,L|88:148,1,83.3333333333333,4|0,0:0|0:0,0:0:0:0:
36,148,56900,1,0,0:0:0:0:
280,148,57200,2,0,L|196:148,1,83.3333333333333,8|0,0:0|0:0,0:0:0:0:
132,148,57500,1,0,0:0:0:0:
496,192,57800,6,0,L|376:148,1,125,4|0,0:0|0:0,0:0:0:0:
212,64,58400,2,0,L|205:148,1,83.3333333333333,8|4,0:0|0:0,0:0:0:0:
132,148,58700,2,0,L|216:148,1,83.3333333333333,0|4,0:0|0:0,0:0:0:0:
280,148,59000,6,0,L|284:288,1,125,4|0,0:0|0:0,0:0:0:0:
28,272,59600,2,0,L|24:176,1,83.3333333333333,8|0,0:0|0:0,0:0:0:0:
84,188,59900,1,0,0:0:0:0:
472,272,60200,6,0,B|476:168,1,104.166666666667,4|0,0:0|0:0,0:0:0:0:
352,168,60700,1,0,0:0:0:0:
304,167,60800,1,0,0:0:0:0:
268,146,60900,1,0,0:0:0:0:
244,110,61000,1,0,0:0:0:0:
235,62,61100,1,0,0:0:0:0:
328,60,61300,1,0,0:0:0:0:
192,60,61400,6,0,L|104:60,1,83.3333333333333,4|0,0:0|0:0,0:0:0:0:
260,60,61900,1,4,0:0:0:0:
380,60,62000,2,0,B|428:60|428:60|428:112,1,100,8|8,0:0|0:0,0:0:0:0:
16,192,62600,6,0,B|16:296|16:296|120:308,1,208.333333333333,4|0,0:0|0:0,0:0:0:0:
183,308,63200,2,0,L|83:308,1,83.3333333333333,8|0,0:0|0:0,0:0:0:0:
248,308,63700,1,0,0:0:0:0:
356,308,63800,6,0,L|440:308,1,83.3333333333333,4|0,0:0|0:0,0:0:0:0:
439,308,64100,1,0,0:0:0:0:
188,192,64400,2,0,L|104:192,1,83.3333333333333,8|0,0:0|0:0,0:0:0:0:
44,192,64700,1,0,0:0:0:0:
424,192,65000,6,0,P|443:127|416:80,1,125,4|0,0:0|0:0,0:0:0:0:
251,109,65600,2,0,L|247:201,1,83.3333333333333,8|0,0:0|0:0,0:0:0:0:
315,193,65900,2,0,L|399:193,1,83.3333333333333,0|0,0:0|0:0,0:0:0:0:
399,193,66200,6,0,L|311:193,1,83.3333333333333,4|0,0:0|0:0,0:0:0:0:
248,192,66500,1,0,0:0:0:0:
496,276,66800,2,0,L|500:192,1,83.3333333333333,8|0,0:0|0:0,0:0:0:0:
428,192,67100,1,0,0:0:0:0:
32,192,67400,6,0,B|32:108|32:108|80:108,1,125,4|0,0:0|0:0,0:0:0:0:
324,108,68000,2,0,L|416:108,1,83.3333333333333,8|4,0:0|0:0,0:0:0:0:
340,108,68300,2,0,L|256:108,1,83.3333333333333,0|4,0:0|0:0,0:0:0:0:
364,108,68600,6,0,L|488:108,1,125,4|0,0:0|0:0,0:0:0:0:
220,108,69200,2,0,L|128:108,1,83.3333333333333,8|0,0:0|0:0,0:0:0:0:
76,108,69500,1,0,0:0:0:0:
448,108,69800,6,0,B|444:212,1,104.166666666667,4|0,0:0|0:0,0:0:0:0:
160,204,70400,2,0,L|248:204,1,83.3333333333333,8|0,0:0|0:0,0:0:0:0:
308,204,70700,2,0,L|312:116,1,83.3333333333333,0|0,0:0|0:0,0:0:0:0:
244,120,71000,5,4,0:0:0:0:
460,120,71200,2,0,B|360:120,1,83.3333333333333,2|0,0:0|0:0,0:0:0:0:
196,120,71600,2,0,L|44:120,1,150.000005722046,2|0,0:0|0:0,0:0:0:0:
46,120,72100,1,0,0:0:0:0:
112,120,72200,5,4,0:0:0:0:
232,120,72800,2,0,L|236:48,1,66.6666666666667,0|0,0:0|0:0,0:0:0:0:
336,56,73300,1,0,0:0:0:0:
336,56,73400,6,0,L|340:168,1,100,0|0,0:0|0:0,0:0:0:0:
200,156,74000,2,0,L|128:156,1,66.6666666666667,0|0,0:0|0:0,0:0:0:0:
133,156,74300,1,0,0:0:0:0:
332,156,74500,1,0,0:0:0:0:
380,156,74600,6,0,L|476:192,1,100,0|0,0:0|0:0,0:0:0:0:
332,192,75200,2,0,L|328:268,1,66.6666666666667,0|0,0:0|0:0,0:0:0:0:
328,258,75500,1,0,0:0:0:0:
220,260,75700,6,0,L|112:260,1,100,0|0,0:0|0:0,0:0:0:0:
120,260,76100,1,0,0:0:0:0:
280,260,76400,2,0,L|284:168,1,66.6666666666667,0|0,0:0|0:0,0:0:0:0:
282,193,76700,1,0,0:0:0:0:
32,192,77000,6,0,L|28:84,1,100,0|0,0:0|0:0,0:0:0:0:
120,92,77500,1,0,0:0:0:0:
168,92,77600,2,0,L|244:92,1,66.6666666666667,0|0,0:0|0:0,0:0:0:0:
280,92,77900,1,0,0:0:0:0:
80,20,78200,6,0,L|168:20,1,66.6666666666667,0|0,0:0|0:0,0:0:0:0:
192,20,78500,1,0,0:0:0:0:
332,24,78800,2,0,L|336:100,1,66.6666666666667,0|0,0:0|0:0,0:0:0:0:
335,90,79100,1,0,0:0:0:0:
108,68,79400,6,0,L|104:180,1,100,0|0,0:0|0:0,0:0:0:0:
224,168,80000,2,0,L|132:168,1,66.6666666666667,0|0,0:0|0:0,0:0:0:0:
36,168,80500,1,0,0:0:0:0:
108,168,80600,5,0,0:0:0:0:
143,208,80700,1,0,0:0:0:0:
144,260,80787,1,0,0:0:0:0:
108,296,80900,1,0,0:0:0:0:
28,296,81100,1,0,0:0:0:0:
88,296,81200,2,0,L|96:144,1,150.000005722046,0|0,0:0|0:0,0:0:0:0:
188,148,81700,1,0,0:0:0:0:
300,148,81800,5,4,0:0:0:0:
76,192,86600,6,0,L|72:88,1,100,4|0,0:0|0:0,0:0:0:0:
212,92,87200,1,8,0:0:0:0:
92,92,87500,2,0,L|164:92,1,66.6666666666667,0|0,0:0|0:0,0:0:0:0:
212,92,87800,6,0,P|236:128|212:176,1,100,0|0,0:0|0:0,0:0:0:0:
72,176,88400,2,0,L|68:256,1,66.6666666666667,8|0,0:0|0:0,0:0:0:0:
68,242,88700,1,0,0:0:0:0:
208,244,89000,6,0,L|104:244,2,100,0|0|8,0:0|0:0|0:0,0:0:0:0:
328,244,89900,2,0,L|332:316,1,66.6666666666667,0|0,0:0|0:0,0:0:0:0:
284,312,90200,5,0,0:0:0:0:
192,312,90400,1,0,0:0:0:0:
312,312,90700,1,0,0:0:0:0:
260,312,90800,2,0,L|172:312,1,66.6666666666667,0|4,0:0|0:0,0:0:0:0:
140,312,91100,1,0,0:0:0:0:
392,312,91400,6,0,L|396:204,1,100,4|0,0:0|0:0,0:0:0:0:
236,192,92000,1,8,0:0:0:0:
376,192,92300,2,0,L|304:192,1,66.6666666666667,0|0,0:0|0:0,0:0:0:0:
264,192,92600,6,0,L|260:112,1,66.6666666666667,0|0,0:0|0:0,0:0:0:0:
260,125,92900,1,0,0:0:0:0:
120,124,93200,2,0,L|196:124,1,66.6666666666667,8|0,0:0|0:0,0:0:0:0:
232,124,93500,2,0,L|164:124,1,66.6666666666667,0|0,0:0|0:0,0:0:0:0:
92,40,93800,6,0,L|88:116,1,66.6666666666667,0|0,0:0|0:0,0:0:0:0:
144,108,94100,1,0,0:0:0:0:
268,124,94400,2,0,L|272:200,1,66.6666666666667,8|0,0:0|0:0,0:0:0:0:
220,192,94700,2,0,L|144:192,1,66.6666666666667,0|0,0:0|0:0,0:0:0:0:
99,190,95000,5,0,0:0:0:0:
285,190,95200,2,0,B|333:190|333:190|281:190,1,100,0|0,0:0|0:0,0:0:0:0:
212,188,95600,2,0,L|316:188,1,100.000003814697,0|0,0:0|0:0,0:0:0:0:
368,188,95900,1,0,0:0:0:0:
68,192,96200,5,4,0:0:0:0:
188,192,96500,2,0,L|192:104,1,66.6666666666667,0|0,0:0|0:0,0:0:0:0:
124,124,96800,2,0,L|120:20,1,100,8|0,0:0|0:0,0:0:0:0:
212,20,97300,6,0,L|312:20,1,100,0|0,0:0|0:0,0:0:0:0:
420,20,98000,1,8,0:0:0:0:
328,20,98200,2,0,L|224:20,1,100,0|0,0:0|0:0,0:0:0:0:
176,20,98600,6,0,L|172:104,1,66.6666666666667,0|0,0:0|0:0,0:0:0:0:
304,128,99100,2,0,L|308:180,1,33.3333333333333,0|8,0:0|0:0,0:0:0:0:
424,160,99500,1,0,0:0:0:0:
248,160,99700,6,0,L|136:160,1,100,0|0,0:0|0:0,0:0:0:0:
100,160,100100,1,0,0:0:0:0:
220,76,100400,2,0,L|152:76,1,66.6666666666667,8|4,0:0|0:0,0:0:0:0:
153,76,100700,1,0,0:0:0:0:
332,76,100900,1,0,0:0:0:0:
332,76,101000,6,0,L|336:152,1,66.6666666666667,4|0,0:0|0:0,0:0:0:0:
176,192,101600,2,0,L|284:192,1,100,8|0,0:0|0:0,0:0:0:0:
368,192,102100,6,0,L|268:192,1,100,0|0,0:0|0:0,0:0:0:0:
400,192,102700,1,0,0:0:0:0:
400,192,102800,2,0,L|404:120,1,66.6666666666667,8|0,0:0|0:0,0:0:0:0:
96,124,103400,6,0,L|16:124,1,66.6666666666667,4|0,0:0|0:0,0:0:0:0:
156,192,103900,1,0,0:0:0:0:
196,192,104000,2,0,L|264:192,1,66.6666666666667,0|0,0:0|0:0,0:0:0:0:
136,280,104500,1,0,0:0:0:0:
132,320,104600,6,0,L|216:320,1,66.6666666666667,0|0,0:0|0:0,0:0:0:0:
328,320,105100,2,0,L|280:320,1,33.3333333333333,0|8,0:0|0:0,0:0:0:0:
208,320,105400,1,4,0:0:0:0:
252,320,105500,2,0,L|328:320,1,66.6666666666667,0|4,0:0|0:0,0:0:0:0:
436,320,105800,5,4,0:0:0:0:
344,320,106000,2,0,L|340:176,1,133.333333333333,0|0,0:0|0:0,0:0:0:0:
220,188,106700,2,0,L|216:116,1,66.6666666666667,0|0,0:0|0:0,0:0:0:0:
96,120,107200,2,0,L|100:72,1,33.3333333333333,0|0,0:0|0:0,0:0:0:0:
264,88,107800,1,0,0:0:0:0:
98,86,108200,6,0,L|94:162,1,66.6666666666667,0|0,0:0|0:0,0:0:0:0:
202,162,108700,2,0,L|206:214,1,33.3333333333333,0|0,0:0|0:0,0:0:0:0:
370,198,109300,2,0,L|250:198,1,100,0|0,0:0|0:0,0:0:0:0:
230,198,109700,1,0,0:0:0:0:
370,198,110000,2,0,L|438:198,1,66.6666666666667,0|4,0:0|0:0,0:0:0:0:
437,198,110300,1,0,0:0:0:0:
356,200,110500,1,0,0:0:0:0:
240,196,110600,6,0,L|236:292,1,66.6666666666667,4|0,0:0|0:0,0:0:0:0:
96,264,111200,2,0,L|100:164,1,100,0|0,0:0|0:0,0:0:0:0:
168,164,111700,1,0,0:0:0:0:
288,164,112000,2,0,L|292:112,1,33.3333333333333,0|0,0:0|0:0,0:0:0:0:
92,132,112600,1,4,0:0:0:0:
412,132,113000,6,0,L|416:220,1,66.6666666666667,6|0,0:0|0:0,0:0:0:0:
240,196,113600,2,0,L|172:196,1,66.6666666666667,0|0,0:0|0:0,0:0:0:0:
303,197,114100,1,0,0:0:0:0:
391,197,114200,2,0,P|435:145|391:89,1,150,0|0,0:0|0:0,0:0:0:0:
239,85,114800,2,0,L|235:193,1,100,0|0,0:0|0:0,0:0:0:0:
496,188,115400,6,0,L|428:188,1,66.6666666666667,0|0,0:0|0:0,0:0:0:0:
386,188,115700,1,0,0:0:0:0:
236,188,116000,2,0,L|316:188,1,66.6666666666667,8|0,0:0|0:0,0:0:0:0:
350,189,116300,2,0,L|327:271,1,66.6666666666667,0|0,0:0|0:0,0:0:0:0:
206,241,116800,2,0,L|202:293,1,33.3333333333333,0|0,0:0|0:0,0:0:0:0:
336,276,117200,2,0,L|256:276,1,66.6666666666667,8|0,0:0|0:0,0:0:0:0:
444,192,117800,6,0,L|448:120,1,66.6666666666667,0|0,0:0|0:0,0:0:0:0:
316,124,118300,1,0,0:0:0:0:
268,124,118400,2,0,L|196:124,1,66.6666666666667,8|0,0:0|0:0,0:0:0:0:
332,124,118900,2,0,L|452:124,1,100,0|0,0:0|0:0,0:0:0:0:
432,124,119300,1,0,0:0:0:0:
312,204,119600,2,0,L|380:204,1,66.6666666666667,8|4,0:0|0:0,0:0:0:0:
424,204,119900,1,0,0:0:0:0:
236,204,120100,1,0,0:0:0:0:
236,204,120200,6,0,L|234:135,1,66.6666666666667,4|0,0:0|0:0,0:0:0:0:
394,161,120800,2,0,L|390:61,1,100,8|0,0:0|0:0,0:0:0:0:
310,61,121300,1,0,0:0:0:0:
436,96,121600,2,0,L|440:44,1,33.3333333333333,0|0,0:0|0:0,0:0:0:0:
304,96,122000,1,8,0:0:0:0:
402,96,122200,2,0,L|446:96,1,33.3333333333333,4|0,0:0|0:0,0:0:0:0:
172,192,122600,6,0,L|168:280,1,66.6666666666667,6|0,0:0|0:0,0:0:0:0:
300,260,123100,1,0,0:0:0:0:
260,260,123200,2,0,L|192:260,1,66.6666666666667,0|0,0:0|0:0,0:0:0:0:
316,340,123700,1,0,0:0:0:0:
256,340,123800,2,0,L|152:340,1,100,0|0,0:0|0:0,0:0:0:0:
296,248,124400,2,0,L|300:148,1,100,0|0,0:0|0:0,0:0:0:0:
256,192,125000,12,0,127400,0:0:0:0:
256,192,132200,12,0,134300,0:0:0:0:
380,192,134600,6,0,L|384:100,1,66.6666666666667,0|0,0:0|0:0,0:0:0:0:
328,124,134900,1,0,0:0:0:0:
188,124,135200,1,0,0:0:0:0:
148,124,135300,2,0,L|104:124,2,33.3333333333333,0|0|0,0:0|0:0|0:0,0:0:0:0:
368,124,135800,6,0,L|444:124,1,66.6666666666667,4|4,0:0|0:0,0:0:0:0:
476,124,136100,1,4,0:0:0:0:
356,124,136300,1,4,0:0:0:0:
404,124,136400,2,0,L|508:124,1,100,8|8,0:0|0:0,0:0:0:0:
140,192,137000,6,0,P|72:140|144:76,1,208.333333333333,4|0,0:0|0:0,0:0:0:0:
212,76,137600,2,0,L|120:76,1,83.3333333333333,8|0,0:0|0:0,0:0:0:0:
64,76,137900,2,0,L|60:176,1,83.3333333333333,0|0,0:0|0:0,0:0:0:0:
128,160,138200,6,0,L|224:160,1,83.3333333333333,4|0,0:0|0:0,0:0:0:0:
144,160,138500,1,0,0:0:0:0:
396,160,138800,2,0,L|480:160,1,83.3333333333333,8|0,0:0|0:0,0:0:0:0:
448,160,139100,1,0,0:0:0:0:
80,160,139400,6,0,P|44:212|80:248,1,125,4|0,0:0|0:0,0:0:0:0:
196,248,139900,1,0,0:0:0:0:
128,248,140000,2,0,L|124:156,1,83.3333333333333,8|0,0:0|0:0,0:0:0:0:
192,164,140300,2,0,L|276:164,1,83.3333333333333,0|0,0:0|0:0,0:0:0:0:
207,164,140600,6,0,L|119:164,1,83.3333333333333,4|0,0:0|0:0,0:0:0:0:
64,164,140900,1,0,0:0:0:0:
388,164,141200,2,0,L|468:192,1,83.3333333333333,8|0,0:0|0:0,0:0:0:0:
400,192,141500,1,0,0:0:0:0:
20,288,141800,6,0,L|156:288,1,125,4|0,0:0|0:0,0:0:0:0:
296,192,142400,2,0,L|204:192,1,83.3333333333333,8|4,0:0|0:0,0:0:0:0:
156,192,142700,2,0,L|240:192,1,83.3333333333333,0|4,0:0|0:0,0:0:0:0:
368,192,143000,6,0,L|372:101,1,83.3333333333333,4|0,0:0|0:0,0:0:0:0:
371,108,143300,1,0,0:0:0:0:
220,108,143600,2,0,L|312:108,1,83.3333333333333,8|0,0:0|0:0,0:0:0:0:
371,108,143900,2,0,L|288:108,1,83.3333333333333,0|0,0:0|0:0,0:0:0:0:
160,108,144200,6,0,P|120:148|160:192,1,125,4|0,0:0|0:0,0:0:0:0:
471,108,144800,2,0,L|383:108,1,83.3333333333333,8|0,0:0|0:0,0:0:0:0:
456,108,145100,2,0,L|368:108,1,83.3333333333333,0|0,0:0|0:0,0:0:0:0:
244,108,145400,6,0,P|204:152|244:192,1,125,4|0,0:0|0:0,0:0:0:0:
336,192,145900,1,2,0:0:0:0:
484,204,146000,2,0,P|498:280|480:356,1,150.000005722046,2|0,0:0|0:0,0:0:0:0:
104,308,146600,6,0,P|36:256|108:192,1,208.333333333333,4|0,0:0|0:0,0:0:0:0:
176,192,147200,2,0,L|260:192,1,83.3333333333333,8|0,0:0|0:0,0:0:0:0:
328,192,147500,2,0,L|232:192,1,83.3333333333333,0|0,0:0|0:0,0:0:0:0:
312,192,147800,6,0,L|404:192,1,83.3333333333333,4|0,0:0|0:0,0:0:0:0:
460,192,148100,1,0,0:0:0:0:
312,108,148400,2,0,L|304:12,1,83.3333333333333,8|0,0:0|0:0,0:0:0:0:
388,108,148700,1,0,0:0:0:0:
16,192,149000,6,0,P|12:128|48:80,1,125,4|0,0:0|0:0,0:0:0:0:
212,108,149600,2,0,L|216:200,1,83.3333333333333,8|0,0:0|0:0,0:0:0:0:
140,192,149900,2,0,L|136:108,1,83.3333333333333,0|0,0:0|0:0,0:0:0:0:
212,108,150200,6,0,L|300:108,1,83.3333333333333,4|0,0:0|0:0,0:0:0:0:
228,108,150500,2,0,L|328:108,1,83.3333333333333,0|0,0:0|0:0,0:0:0:0:
184,24,150800,2,0,L|100:24,1,83.3333333333333,8|0,0:0|0:0,0:0:0:0:
36,24,151100,1,0,0:0:0:0:
401,192,151400,6,0,L|281:236,1,125,4|0,0:0|0:0,0:0:0:0:
124,236,152000,2,0,L|216:236,1,83.3333333333333,8|4,0:0|0:0,0:0:0:0:
139,236,152300,2,0,L|43:236,1,83.3333333333333,0|4,0:0|0:0,0:0:0:0:
187,156,152600,6,0,L|271:156,1,83.3333333333333,4|0,0:0|0:0,0:0:0:0:
270,156,152900,1,0,0:0:0:0:
16,112,153200,2,0,L|108:112,1,83.3333333333333,8|0,0:0|0:0,0:0:0:0:
168,112,153500,2,0,L|60:112,1,83.3333333333333,0|0,0:0|0:0,0:0:0:0:
212,112,153800,6,0,B|216:216,1,104.166666666667,4|0,0:0|0:0,0:0:0:0:
80,216,154300,1,0,0:0:0:0:
128,217,154400,1,0,0:0:0:0:
175,239,154500,1,0,0:0:0:0:
201,276,154600,1,0,0:0:0:0:
213,322,154700,1,0,0:0:0:0:
120,324,154900,1,0,0:0:0:0:
248,324,155000,6,0,L|336:324,1,83.3333333333333,4|4,0:0|0:0,0:0:0:0:
392,324,155300,2,0,L|384:228,1,83.3333333333333,4|4,0:0|0:0,0:0:0:0:
256,192,155600,2,0,B|132:192,1,125,8|8,0:0|0:0,0:0:0:0:
496,192,156200,6,0,B|404:192,1,83.3333333333333,4|0,0:0|0:0,0:0:0:0:
264,192,156700,1,0,0:0:0:0:
392,192,156800,2,0,L|395:104,1,83.3333333333333,8|0,0:0|0:0,0:0:0:0:
328,108,157100,2,0,L|244:108,1,83.3333333333333,0|0,0:0|0:0,0:0:0:0:
320,108,157400,6,0,L|236:108,1,83.3333333333333,4|0,0:0|0:0,0:0:0:0:
168,108,157700,1,0,0:0:0:0:
424,28,158000,2,0,L|340:28,1,83.3333333333333,8|0,0:0|0:0,0:0:0:0:
280,28,158300,2,0,L|368:28,1,83.3333333333333,0|0,0:0|0:0,0:0:0:0:
236,28,158600,6,0,P|200:76|240:112,1,125,4|0,0:0|0:0,0:0:0:0:
496,112,159200,2,0,L|500:204,1,83.3333333333333,8|0,0:0|0:0,0:0:0:0:
432,196,159500,2,0,L|348:196,1,83.3333333333333,0|0,0:0|0:0,0:0:0:0:
348,196,159800,6,0,L|436:196,1,83.3333333333333,4|0,0:0|0:0,0:0:0:0:
499,195,160100,1,0,0:0:0:0:
124,196,160400,2,0,L|40:196,1,83.3333333333333,8|0,0:0|0:0,0:0:0:0:
41,196,160700,1,0,0:0:0:0:
416,196,161000,6,0,B|412:112|412:112|364:112,1,125,4|0,0:0|0:0,0:0:0:0:
264,112,161500,1,0,0:0:0:0:
136,112,161600,2,0,L|44:112,1,83.3333333333333,8|0,0:0|0:0,0:0:0:0:
120,112,161900,2,0,L|204:112,1,83.3333333333333,0|0,0:0|0:0,0:0:0:0:
72,36,162200,6,0,L|156:36,1,83.3333333333333,4|0,0:0|0:0,0:0:0:0:
220,36,162500,1,0,0:0:0:0:
476,192,162800,2,0,L|480:108,1,83.3333333333333,8|0,0:0|0:0,0:0:0:0:
420,108,163100,1,0,0:0:0:0:
44,108,163400,6,0,B|48:232,1,125,4|0,0:0|0:0,0:0:0:0:
156,232,163900,1,0,0:0:0:0:
24,316,164000,2,0,L|27:232,1,83.3333333333333,8|0,0:0|0:0,0:0:0:0:
96,232,164300,1,0,0:0:0:0:
460,232,164600,6,0,B|388:192,1,83.3333333333333,6|0,0:0|0:0,0:0:0:0:
328,192,164900,1,0,0:0:0:0:
24,232,165200,2,0,B|24:156|24:156|100:156,1,150.000005722046,2|0,0:0|0:0,0:0:0:0:
216,156,165700,1,0,0:0:0:0:
336,156,165800,5,4,0:0:0:0:
336,156,166400,2,0,L|332:84,1,66.6666666666667,4|0,0:0|0:0,0:0:0:0:
208,92,166900,1,0,0:0:0:0:
208,92,167000,6,0,L|204:204,1,100,4|0,0:0|0:0,0:0:0:0:
336,191,167600,2,0,L|408:191,1,66.6666666666667,4|0,0:0|0:0,0:0:0:0:
403,191,167900,1,0,0:0:0:0:
204,191,168100,1,0,0:0:0:0:
152,192,168200,6,0,L|56:228,1,100,4|0,0:0|0:0,0:0:0:0:
152,192,168700,1,0,0:0:0:0:
152,192,168800,2,0,L|156:268,1,66.6666666666667,4|0,0:0|0:0,0:0:0:0:
156,258,169100,1,0,0:0:0:0:
248,256,169300,1,0,0:0:0:0:
288,257,169400,6,0,L|364:257,1,66.6666666666667,4|0,0:0|0:0,0:0:0:0:
354,257,169700,1,0,0:0:0:0:
148,258,170000,2,0,L|132:184,1,66.6666666666667,4|0,0:0|0:0,0:0:0:0:
133,192,170300,1,0,0:0:0:0:
496,192,170600,6,0,L|500:84,1,100,4|0,0:0|0:0,0:0:0:0:
408,92,171100,1,0,0:0:0:0:
356,92,171200,2,0,L|428:92,1,66.6666666666667,4|0,0:0|0:0,0:0:0:0:
476,92,171500,2,0,L|404:92,1,66.6666666666667,0|0,0:0|0:0,0:0:0:0:
288,92,171800,6,0,L|200:92,1,66.6666666666667,4|0,0:0|0:0,0:0:0:0:
176,92,172100,1,0,0:0:0:0:
436,92,172400,2,0,L|440:168,1,66.6666666666667,4|0,0:0|0:0,0:0:0:0:
439,158,172700,1,0,0:0:0:0:
340,192,172900,1,0,0:0:0:0:
221,92,173000,6,0,L|217:204,1,100,0|0,0:0|0:0,0:0:0:0:
360,192,173600,1,0,0:0:0:0:
326,192,173700,1,0,0:0:0:0:
293,192,173800,1,0,0:0:0:0:
260,192,173900,1,0,0:0:0:0:
152,192,174100,1,0,0:0:0:0:
272,192,174200,5,0,0:0:0:0:
307,232,174300,1,0,0:0:0:0:
308,284,174387,1,0,0:0:0:0:
272,320,174500,1,0,0:0:0:0:
192,320,174700,1,0,0:0:0:0:
252,320,174800,2,0,L|404:320,1,150.000005722046,0|8,0:0|0:0,0:0:0:0:
308,320,175300,1,8,0:0:0:0:
176,320,175400,5,4,0:0:0:0:
76,324,180200,5,4,0:0:0:0:
168,324,180400,2,0,L|172:180,1,133.333333333333,0|0,0:0|0:0,0:0:0:0:
292,192,181100,2,0,L|296:120,1,66.6666666666667,0|0,0:0|0:0,0:0:0:0:
158,114,181600,2,0,L|162:66,1,33.3333333333333,0|0,0:0|0:0,0:0:0:0:
326,82,182200,1,0,0:0:0:0:
160,80,182600,6,0,L|156:156,1,66.6666666666667,0|0,0:0|0:0,0:0:0:0:
264,156,183100,2,0,L|268:208,1,33.3333333333333,0|0,0:0|0:0,0:0:0:0:
432,192,183700,2,0,L|312:192,1,100,0|0,0:0|0:0,0:0:0:0:
292,192,184100,1,0,0:0:0:0:
432,192,184400,2,0,L|500:192,1,66.6666666666667,0|4,0:0|0:0,0:0:0:0:
499,192,184700,1,0,0:0:0:0:
416,192,184900,1,0,0:0:0:0:
296,192,185000,6,0,L|292:288,1,66.6666666666667,4|0,0:0|0:0,0:0:0:0:
420,291,185600,2,0,L|416:191,1,100,0|0,0:0|0:0,0:0:0:0:
348,191,186100,1,0,0:0:0:0:
228,191,186400,2,0,L|224:139,1,33.3333333333333,0|0,0:0|0:0,0:0:0:0:
408,192,187000,1,4,0:0:0:0:
88,192,187400,6,0,L|84:280,1,66.6666666666667,6|0,0:0|0:0,0:0:0:0:
204,256,187900,1,0,0:0:0:0:
248,256,188000,2,0,L|316:256,1,66.6666666666667,0|0,0:0|0:0,0:0:0:0:
185,257,188500,1,0,0:0:0:0:
315,256,188600,1,4,0:0:0:0:
354,226,188700,1,0,0:0:0:0:
354,178,188800,1,0,0:0:0:0:
316,148,188900,1,0,0:0:0:0:
236,148,189050,1,4,0:0:0:0:
20,144,189200,2,0,L|15:28,1,100,8|4,0:0|0:0,0:0:0:0:
276,48,189800,5,4,0:0:0:0:
368,48,190000,2,0,L|364:192,1,133.333333333333,0|0,0:0|0:0,0:0:0:0:
244,180,190700,1,0,0:0:0:0:
332,180,190900,2,0,L|456:180,1,100,0|0,0:0|0:0,0:0:0:0:
232,180,191800,1,0,0:0:0:0:
392,180,192200,6,0,L|396:256,1,66.6666666666667,0|0,0:0|0:0,0:0:0:0:
288,256,192700,2,0,L|284:308,1,33.3333333333333,0|0,0:0|0:0,0:0:0:0:
120,292,193300,2,0,L|240:292,1,100,0|0,0:0|0:0,0:0:0:0:
268,292,193700,1,0,0:0:0:0:
28,192,194000,2,0,L|96:192,1,66.6666666666667,0|4,0:0|0:0,0:0:0:0:
140,192,194300,1,0,0:0:0:0:
232,192,194500,1,0,0:0:0:0:
120,192,194600,6,0,L|116:288,1,66.6666666666667,4|0,0:0|0:0,0:0:0:0:
264,292,195200,2,0,L|260:192,1,100,0|0,0:0|0:0,0:0:0:0:
360,192,195700,2,0,L|356:92,1,100,0|0,0:0|0:0,0:0:0:0:
136,96,196600,1,4,0:0:0:0:
484,92,197000,6,0,L|488:180,1,66.6666666666667,6|0,0:0|0:0,0:0:0:0:
356,160,197500,1,0,0:0:0:0:
404,160,197600,2,0,L|472:160,1,66.6666666666667,0|0,0:0|0:0,0:0:0:0:
352,240,198100,1,0,0:0:0:0:
292,240,198200,2,0,L|188:240,1,100,0|0,0:0|0:0,0:0:0:0:
320,240,198800,2,0,L|324:140,1,100,0|0,0:0|0:0,0:0:0:0:
256,192,199400,12,0,205400,0:0:0:0:
