osu file format v14

[General]
AudioFilename: audio.mp3
AudioLeadIn: 0
PreviewTime: 136900
Countdown: 0
SampleSet: Normal
StackLeniency: 0.7
Mode: 2
LetterboxInBreaks: 0
WidescreenStoryboard: 0

[Editor]
Bookmarks: 12200,31400,81800,96200,115400,175400,189800
DistanceSpacing: 0.8
BeatDivisor: 6
GridSize: 32
TimelineZoom: 1

[Metadata]
Title:ELINE
TitleUnicode:ELINE
Artist:dark cat
ArtistUnicode:dark cat
Creator:Absolute Zero
Version:Cup
Source:osu!
Tags:JBHyperion JBH WildOne94 catstep mappers' guild featured artist Farbenspiel EDM electronic electro dance glitch hop
BeatmapID:2228561
BeatmapSetID:1064394

[Difficulty]
HPDrainRate:4
CircleSize:2.5
OverallDifficulty:6
ApproachRate:6
SliderMultiplier:2
SliderTickRate:1

[Events]
//Background and Video events
0,0,"tree-water-glass-green-biology-flight-606745-pxhere.com.jpg",0,0
//Break Periods
2,72400,80750
2,82000,85550
2,166000,174350
2,175600,179150
//Storyboard Layer 0 (Background)
//Storyboard Layer 1 (Fail)
//Storyboard Layer 2 (Pass)
//Storyboard Layer 3 (Foreground)
//Storyboard Layer 4 (Overlay)
//Storyboard Sound Samples

[TimingPoints]
2600,600,4,2,1,40,1,0
20500,-100,4,2,2,40,0,0
21800,-100,4,2,1,40,0,0
30200,-100,4,2,1,30,0,0
30800,-100,4,2,1,20,0,0
31400,-100,4,2,1,15,0,0
32600,-100,4,2,1,10,0,0
33800,-100,4,1,1,30,0,0
34000,-100,4,1,1,10,0,0
38600,-100,4,1,1,17,0,0
39200,-100,4,1,1,34,0,0
39800,-100,4,1,1,41,0,0
40400,-100,4,1,1,48,0,0
41000,-100,4,1,1,57,0,0
41600,-100,4,1,1,66,0,0
42200,-100,4,3,2,45,0,0
43400,-100,4,3,1,40,0,1
61400,-100,4,3,2,40,0,1
62000,-100,4,3,2,40,0,0
62600,-100,4,3,3,40,0,1
72200,-100,4,2,1,10,0,0
74600,-100,4,2,1,30,0,0
77000,-100,4,2,1,45,0,0
78200,-100,4,2,1,50,0,0
79400,-100,4,2,2,60,0,0
80600,-100,4,2,2,70,0,0
81200,-100,4,2,2,80,0,0
81900,-100,4,2,1,30,0,0
85400,-100,4,2,1,35,0,0
94900,-100,4,2,2,35,0,0
96400,-100,4,2,3,35,0,0
103400,-100,4,2,1,35,0,0
104600,-100,4,2,2,35,0,0
105800,-100,4,2,1,35,0,0
114200,-100,4,2,2,35,0,0
115400,-100,4,2,1,35,0,0
123800,-100,4,2,1,30,0,0
124400,-100,4,2,1,20,0,0
125000,-100,4,2,1,15,0,0
126200,-100,4,2,1,10,0,0
127400,-100,4,2,1,30,0,0
132200,-100,4,1,1,17,0,0
132800,-100,4,1,1,34,0,0
133400,-100,4,1,1,41,0,0
134000,-100,4,1,1,48,0,0
134600,-100,4,1,1,57,0,0
135200,-100,4,1,1,66,0,0
135800,-100,4,3,2,45,0,0
137000,-100,4,3,1,40,0,1
155000,-100,4,3,2,40,0,1
155600,-100,4,3,2,40,0,0
156200,-100,4,3,3,40,0,1
165800,-100,4,2,1,10,0,0
168200,-100,4,2,1,30,0,0
170600,-100,4,2,1,35,0,0
170900,-100,4,2,1,35,0,0
171800,-100,4,2,1,40,0,0
172400,-100,4,2,1,45,0,0
173000,-100,4,2,2,60,0,0
173600,-100,4,2,2,70,0,0
174200,-100,4,2,2,80,0,0
175100,-100,4,3,2,40,0,0
175400,-100,4,2,1,60,0,0
175500,-100,4,2,1,30,0,0
180200,-100,4,2,1,35,0,0
188500,-100,4,2,2,35,0,0
189800,-100,4,2,1,35,0,0
199400,-100,4,2,1,45,0,0
200600,-100,4,2,1,40,0,0
201800,-100,4,2,1,35,0,0
203000,-100,4,2,1,30,0,0
204200,-100,4,2,1,25,0,0
204800,-100,4,2,1,15,0,0
205400,-100,4,2,1,5,0,0

[Colours]
Combo1 : 231,159,249
Combo2 : 245,163,163
Combo3 : 254,196,99
Combo4 : 253,253,149
Combo5 : 177,254,148
Combo6 : 145,210,255

[HitObjects]
259,191,12200,5,4,0:0:0:0:
333,191,12400,1,0,0:0:0:0:
185,191,12800,1,0,0:0:0:0:
74,266,13100,2,0,L|158:266,1,66.6666666666667,0|0,0:0|0:0,0:0:0:0:
252,267,13600,1,0,0:0:0:0:
31,79,14200,5,0,0:0:0:0:
179,80,14600,2,0,L|270:80,1,66.6666666666667,0|0,0:0|0:0,0:0:0:0:
401,79,15200,1,0,0:0:0:0:
216,187,15700,1,0,0:0:0:0:
336,115,16000,2,0,P|256:102|183:120,1,133.333333333333,0|0,0:0|0:0,0:0:0:0:
370,190,16900,6,0,L|474:190,1,100,0|0,0:0|0:0,0:0:0:0:
324,97,17600,1,0,0:0:0:0:
213,167,17900,2,0,L|213:90,1,66.6666666666667,0|0,0:0|0:0,0:0:0:0:
324,97,18400,1,0,0:0:0:0:
102,96,19000,1,4,0:0:0:0:
284,257,19400,6,0,P|365:229|484:274,1,200,6|0,0:0|0:0,0:0:0:0:
224,138,20600,1,4,0:0:0:0:
335,136,20900,1,0,0:0:0:0:
207,141,21200,2,0,L|206:243,1,100,8|4,0:0|0:0,0:0:0:0:
350,137,21800,5,4,0:0:0:0:
407,171,22000,2,0,B|440:195|440:195|373:259,1,133.333333333333,0|8,0:0|0:0,0:0:0:0:
261,255,22700,1,0,0:0:0:0:
338,252,22900,2,0,L|429:166,1,100,0|0,0:0|0:0,0:0:0:0:
251,183,23600,1,8,0:0:0:0:
173,182,23800,1,0,0:0:0:0:
327,184,24200,6,0,L|229:184,1,66.6666666666667,0|0,0:0|0:0,0:0:0:0:
96,184,24800,1,8,0:0:0:0:
289,188,25300,1,0,0:0:0:0:
407,188,25600,2,0,P|468:154|468:97,1,133.333333333333,0|8,0:0|0:0,0:0:0:0:
351,75,26300,1,0,0:0:0:0:
267,75,26500,6,0,L|158:75,1,100,0|0,0:0|0:0,0:0:0:0:
4,206,27200,2,0,L|118:262,1,100,8|0,0:0|0:0,0:0:0:0:
173,252,27700,1,0,0:0:0:0:
294,327,28000,2,0,L|147:272,1,133.333333333333,0|8,0:0|0:0,0:0:0:0:
248,226,28600,1,4,0:0:0:0:
429,176,29000,6,0,L|224:76,2,200,6|0|0,0:0|0:0|0:0,0:0:0:0:
317,62,30500,1,0,0:0:0:0:
201,61,30800,1,0,0:0:0:0:
317,62,31100,2,0,L|318:164,1,100,0|0,0:0|0:0,0:0:0:0:
256,192,33800,5,4,0:0:0:0:
256,192,34100,12,0,40400,0:0:0:0:
18,191,41000,5,0,0:0:0:0:
239,44,41600,2,0,L|148:138,1,100,0|0,0:0|0:0,0:0:0:0:
285,202,42200,2,0,L|401:152,1,100,4|4,0:0|0:0,0:0:0:0:
253,98,42800,2,0,L|138:81,1,100,8|8,0:0|0:0,0:0:0:0:
317,300,43400,6,0,P|367:258|325:126,1,200,4|8,0:0|0:0,0:0:0:0:
97,138,44600,1,4,0:0:0:0:
237,267,44900,2,0,L|341:267,1,100,0|8,0:0|0:0,0:0:0:0:
213,196,45500,1,0,0:0:0:0:
65,108,45800,6,0,L|278:74,1,200,4|8,0:0|0:0,0:0:0:0:
508,74,47000,1,4,0:0:0:0:
368,80,47300,2,0,L|262:119,2,100,0|8|0,0:0|0:0|0:0,0:0:0:0:
221,260,48200,6,0,B|83:182|83:182|122:136,1,200,4|8,0:0|0:0,0:0:0:0:
359,81,49400,2,0,L|479:81,1,100,4|0,0:0|0:0,0:0:0:0:
359,281,50000,1,8,0:0:0:0:
235,281,50300,1,0,0:0:0:0:
383,280,50600,6,0,B|477:205|477:205|477:104,1,200,4|8,0:0|0:0,0:0:0:0:
291,178,51800,1,4,0:0:0:0:
154,181,52100,1,0,0:0:0:0:
291,178,52400,2,0,L|395:178,1,100,2|0,0:0|0:0,0:0:0:0:
236,175,53000,6,0,P|176:221|261:281,1,200,4|8,0:0|0:0,0:0:0:0:
487,289,54200,1,4,0:0:0:0:
340,157,54500,2,0,L|212:157,1,100,0|8,0:0|0:0,0:0:0:0:
109,157,55100,1,0,0:0:0:0:
255,306,55400,6,0,P|340:274|432:194,1,200,4|8,0:0|0:0,0:0:0:0:
179,136,56600,1,4,0:0:0:0:
56,142,56900,2,0,L|57:29,2,100,0|8|0,0:0|0:0|0:0,0:0:0:0:
203,312,57800,6,0,P|293:290|357:179,1,200,4|8,0:0|0:0,0:0:0:0:
119,176,59000,2,0,L|0:177,1,100,4|0,0:0|0:0,0:0:0:0:
122,54,59600,1,8,0:0:0:0:
230,52,59900,1,0,0:0:0:0:
81,227,60200,6,0,L|299:191,1,200,4|0,0:0|0:0,0:0:0:0:
512,139,61400,2,0,L|386:106,1,100,4|4,0:0|0:0,0:0:0:0:
289,100,62000,2,0,L|386:51,1,100,8|8,0:0|0:0,0:0:0:0:
227,75,62600,6,0,L|32:142,1,200,4|8,0:0|0:0,0:0:0:0:
276,208,63800,1,4,0:0:0:0:
367,166,64100,2,0,L|463:118,1,100,0|8,0:0|0:0,0:0:0:0:
328,60,64700,1,0,0:0:0:0:
179,300,65000,6,0,P|130:218|191:120,1,200,4|8,0:0|0:0,0:0:0:0:
417,130,66200,1,4,0:0:0:0:
292,132,66500,2,0,L|180:88,1,100,0|8,0:0|0:0,0:0:0:0:
312,43,67100,1,0,0:0:0:0:
167,51,67400,6,0,P|210:76|373:100,1,200,4|8,0:0|0:0,0:0:0:0:
95,314,68600,1,4,0:0:0:0:
220,303,68900,2,0,P|292:296|336:274,1,100,0|8,0:0|0:0,0:0:0:0:
419,242,69500,1,0,0:0:0:0:
276,118,69800,6,0,L|67:153,1,200,4|8,0:0|0:0,0:0:0:0:
184,283,70700,1,0,0:0:0:0:
330,274,71000,2,0,P|360:305|510:298,1,200,4|2,0:0|0:0,0:0:0:0:
381,175,71900,1,0,0:0:0:0:
346,176,72200,5,4,0:0:0:0:
73,191,81800,5,4,0:0:0:0:
267,277,86600,5,0,0:0:0:0:
341,277,86800,1,0,0:0:0:0:
190,277,87200,1,8,0:0:0:0:
0,279,87700,1,0,0:0:0:0:
149,278,88100,1,0,0:0:0:0:
149,278,88600,1,0,0:0:0:0:
367,192,89200,5,0,0:0:0:0:
512,191,89600,1,8,0:0:0:0:
341,191,90100,1,0,0:0:0:0:
217,194,90400,1,0,0:0:0:0:
65,189,90800,1,0,0:0:0:0:
249,185,91300,5,0,0:0:0:0:
249,185,91600,1,0,0:0:0:0:
404,190,92000,1,8,0:0:0:0:
221,188,92500,1,0,0:0:0:0:
76,187,92900,1,0,0:0:0:0:
76,187,93400,1,0,0:0:0:0:
297,103,94000,5,0,0:0:0:0:
94,99,94600,1,0,0:0:0:0:
320,98,95200,1,0,0:0:0:0:
320,98,95500,1,0,0:0:0:0:
180,97,95900,1,0,0:0:0:0:
324,311,96200,5,4,0:0:0:0:
242,313,96400,1,0,0:0:0:0:
99,314,96800,1,8,0:0:0:0:
218,183,97100,2,0,L|302:183,1,66.6666666666667,0|0,0:0|0:0,0:0:0:0:
172,183,97600,1,0,0:0:0:0:
331,92,98000,2,0,L|422:92,1,66.6666666666667,8|0,0:0|0:0,0:0:0:0:
239,92,98600,6,0,L|158:92,1,66.6666666666667,0|0,0:0|0:0,0:0:0:0:
44,94,99200,1,8,0:0:0:0:
226,187,99700,1,0,0:0:0:0:
105,109,100000,2,0,P|185:96|258:114,1,133.333333333333,0|8,0:0|0:0,0:0:0:0:
336,107,100700,1,0,0:0:0:0:
436,103,101000,5,4,0:0:0:0:
356,169,101200,1,0,0:0:0:0:
197,167,101600,1,8,0:0:0:0:
79,74,101900,2,0,L|167:74,1,66.6666666666667,0|0,0:0|0:0,0:0:0:0:
265,70,102400,1,0,0:0:0:0:
401,69,102800,1,8,0:0:0:0:
310,159,103000,1,0,0:0:0:0:
165,241,103400,6,0,L|8:74,1,200,4|0,0:0|0:0,0:0:0:0:
231,61,104600,1,0,0:0:0:0:
341,61,104900,1,0,0:0:0:0:
453,63,105200,2,0,L|351:112,1,100,8|0,0:0|0:0,0:0:0:0:
259,191,105800,5,4,0:0:0:0:
333,191,106000,1,0,0:0:0:0:
481,193,106400,1,0,0:0:0:0:
370,272,106700,2,0,L|370:196,1,66.6666666666667,0|0,0:0|0:0,0:0:0:0:
481,206,107200,1,0,0:0:0:0:
259,104,107800,5,0,0:0:0:0:
111,105,108200,2,0,L|197:105,1,66.6666666666667,0|0,0:0|0:0,0:0:0:0:
332,103,108800,1,0,0:0:0:0:
512,188,109300,1,0,0:0:0:0:
402,126,109600,2,0,P|322:113|249:131,1,133.333333333333,0|0,0:0|0:0,0:0:0:0:
201,137,110200,1,4,0:0:0:0:
74,142,110600,6,0,L|74:70,1,66.6666666666667,4|0,0:0|0:0,0:0:0:0:
223,79,111200,1,0,0:0:0:0:
112,225,111500,2,0,L|188:225,1,66.6666666666667,0|0,0:0|0:0,0:0:0:0:
290,224,112000,1,0,0:0:0:0:
512,118,112600,1,4,0:0:0:0:
347,120,113000,6,0,P|262:128|147:137,2,200,6|0|0,0:0|0:0|0:0,0:0:0:0:
465,118,114500,5,0,0:0:0:0:
347,120,114800,2,0,L|244:159,1,100,0|0,0:0|0:0,0:0:0:0:
136,187,115400,5,0,0:0:0:0:
215,184,115600,1,0,0:0:0:0:
373,182,116000,1,8,0:0:0:0:
252,107,116300,2,0,L|252:184,1,66.6666666666667,0|0,0:0|0:0,0:0:0:0:
362,106,116800,1,0,0:0:0:0:
204,116,117200,6,0,L|112:131,1,66.6666666666667,8|0,0:0|0:0,0:0:0:0:
0,163,117800,2,0,L|85:141,1,66.6666666666667,0|0,0:0|0:0,0:0:0:0:
212,115,118400,1,8,0:0:0:0:
400,122,118900,1,0,0:0:0:0:
263,114,119200,2,0,P|223:152|266:219,1,133.333333333333,0|8,0:0|0:0,0:0:0:0:
370,215,119900,1,0,0:0:0:0:
252,214,120200,5,4,0:0:0:0:
166,214,120400,1,0,0:0:0:0:
321,217,120800,1,8,0:0:0:0:
436,221,121100,2,0,L|353:221,1,66.6666666666667,0|0,0:0|0:0,0:0:0:0:
254,222,121600,1,0,0:0:0:0:
108,217,122000,1,8,0:0:0:0:
184,217,122200,1,4,0:0:0:0:
336,217,122600,6,0,L|146:136,2,200,6|0|0,0:0|0:0|0:0,0:0:0:0:
452,56,124100,1,0,0:0:0:0:
336,57,124400,2,0,L|337:159,1,100,0|0,0:0|0:0,0:0:0:0:
337,156,125000,1,0,0:0:0:0:
404,186,127400,5,0,0:0:0:0:
256,192,127700,12,0,134000,0:0:0:0:
400,42,134600,5,0,0:0:0:0:
169,43,135200,2,0,L|78:137,1,100,0|0,0:0|0:0,0:0:0:0:
215,207,135800,2,0,L|331:157,1,100,4|4,0:0|0:0,0:0:0:0:
183,73,136400,2,0,L|68:56,1,100,8|8,0:0|0:0,0:0:0:0:
246,84,137000,6,0,P|296:126|254:258,1,200,4|8,0:0|0:0,0:0:0:0:
28,258,138200,1,4,0:0:0:0:
168,257,138500,2,0,L|287:257,1,100,0|8,0:0|0:0,0:0:0:0:
394,261,139100,1,0,0:0:0:0:
252,155,139400,6,0,L|39:121,1,200,4|8,0:0|0:0,0:0:0:0:
256,73,140600,1,4,0:0:0:0:
399,76,140900,2,0,L|505:115,2,100,0|8|0,0:0|0:0|0:0,0:0:0:0:
255,334,141800,6,0,P|197:305|262:216,1,200,4|8,0:0|0:0,0:0:0:0:
23,93,143000,2,0,L|116:132,1,100,4|0,0:0|0:0,0:0:0:0:
208,169,143600,1,8,0:0:0:0:
330,173,143900,1,0,0:0:0:0:
469,181,144200,6,0,B|505:223|505:223|370:291,1,200,4|8,0:0|0:0,0:0:0:0:
154,296,145400,1,4,0:0:0:0:
284,295,145700,1,0,0:0:0:0:
416,291,146000,2,0,L|416:179,1,100,2|0,0:0|0:0,0:0:0:0:
261,61,146600,6,0,P|182:61|80:141,1,200,4|8,0:0|0:0,0:0:0:0:
315,239,147800,1,4,0:0:0:0:
174,238,148100,2,0,L|46:238,1,100,0|8,0:0|0:0,0:0:0:0:
181,144,148700,1,0,0:0:0:0:
324,55,149000,6,0,P|372:119|316:217,1,200,4|8,0:0|0:0,0:0:0:0:
112,209,150200,1,4,0:0:0:0:
226,205,150500,2,0,L|342:205,2,100,0|8|0,0:0|0:0|0:0,0:0:0:0:
84,93,151400,6,0,P|134:72|296:92,1,200,4|8,0:0|0:0,0:0:0:0:
476,290,152600,1,4,0:0:0:0:
368,196,152900,2,0,L|481:196,1,100,0|8,0:0|0:0,0:0:0:0:
347,79,153500,1,0,0:0:0:0:
207,68,153800,6,0,L|-11:32,1,200,4|0,0:0|0:0,0:0:0:0:
217,226,155000,2,0,L|341:193,1,100,4|4,0:0|0:0,0:0:0:0:
446,155,155600,2,0,L|326:111,1,100,8|8,0:0|0:0,0:0:0:0:
225,78,156200,6,0,P|142:81|69:186,1,200,4|8,0:0|0:0,0:0:0:0:
306,265,157400,2,0,P|355:266|404:253,1,100,4|0,0:0|0:0,0:0:0:0:
489,198,158000,1,8,0:0:0:0:
367,142,158300,1,0,0:0:0:0:
227,136,158600,6,0,L|26:59,1,200,4|8,0:0|0:0,0:0:0:0:
271,186,159800,1,4,0:0:0:0:
400,191,160100,2,0,L|512:147,1,100,0|8,0:0|0:0,0:0:0:0:
380,96,160700,1,0,0:0:0:0:
232,91,161000,6,0,P|165:156|248:211,1,200,4|8,0:0|0:0,0:0:0:0:
441,206,162200,2,0,L|367:140,1,100,4|0,0:0|0:0,0:0:0:0:
290,74,162800,1,8,0:0:0:0:
167,130,163100,1,0,0:0:0:0:
28,133,163400,6,0,B|1:222|1:222|126:256,1,200,4|8,0:0|0:0,0:0:0:0:
219,258,164300,1,0,0:0:0:0:
366,257,164600,2,0,B|437:184|437:184|352:121,1,200,6|2,0:0|0:0,0:0:0:0:
249,125,165500,1,0,0:0:0:0:
125,127,165800,5,4,0:0:0:0:
369,191,175400,5,4,0:0:0:0:
59,187,180200,5,4,0:0:0:0:
133,188,180400,1,0,0:0:0:0:
281,187,180800,1,0,0:0:0:0:
388,181,181100,2,0,L|472:181,1,66.6666666666667,0|0,0:0|0:0,0:0:0:0:
344,263,181600,1,0,0:0:0:0:
124,99,182200,5,0,0:0:0:0:
270,98,182600,2,0,L|183:98,1,66.6666666666667,0|0,0:0|0:0,0:0:0:0:
62,103,183200,1,0,0:0:0:0:
252,177,183700,1,0,0:0:0:0:
132,105,184000,2,0,P|212:92|285:110,1,133.333333333333,0|0,0:0|0:0,0:0:0:0:
52,194,185000,6,0,L|52:273,1,66.6666666666667,4|0,0:0|0:0,0:0:0:0:
213,266,185600,1,0,0:0:0:0:
324,266,185900,2,0,L|226:266,1,66.6666666666667,0|0,0:0|0:0,0:0:0:0:
146,265,186400,1,0,0:0:0:0:
371,116,187000,1,4,0:0:0:0:
221,276,187400,6,0,L|426:220,1,200,6|0,0:0|0:0,0:0:0:0:
224,138,188600,1,4,0:0:0:0:
112,140,188900,1,0,0:0:0:0:
224,138,189200,2,0,L|336:138,1,100,8|4,0:0|0:0,0:0:0:0:
197,244,189800,5,4,0:0:0:0:
123,245,190000,1,0,0:0:0:0:
271,246,190400,1,0,0:0:0:0:
388,181,190700,2,0,L|472:181,1,66.6666666666667,0|0,0:0|0:0,0:0:0:0:
344,263,191200,1,0,0:0:0:0:
121,99,191800,5,0,0:0:0:0:
270,98,192200,2,0,L|359:98,1,66.6666666666667,0|0,0:0|0:0,0:0:0:0:
495,95,192800,1,0,0:0:0:0:
252,177,193300,1,0,0:0:0:0:
376,80,193600,2,0,L|212:91,1,133.333333333333,0|0,0:0|0:0,0:0:0:0:
132,98,194300,1,0,0:0:0:0:
242,88,194600,6,0,L|242:167,1,66.6666666666667,4|0,0:0|0:0,0:0:0:0:
87,179,195200,1,0,0:0:0:0:
198,179,195500,2,0,L|296:179,1,66.6666666666667,0|0,0:0|0:0,0:0:0:0:
376,180,196000,1,0,0:0:0:0:
157,325,196600,1,4,0:0:0:0:
305,236,197000,6,0,L|100:180,1,200,6|0,0:0|0:0,0:0:0:0:
329,145,198200,5,0,0:0:0:0:
413,147,198500,1,0,0:0:0:0:
329,145,198800,1,0,0:0:0:0:
245,143,199100,1,0,0:0:0:0:
256,192,199400,12,0,205400,0:0:0:0:
