osu file format v14

[General]
AudioFilename: audio.mp3
AudioLeadIn: 0
PreviewTime: 59347
Countdown: 1
SampleSet: Normal
StackLeniency: 0.7
Mode: 1
LetterboxInBreaks: 0
WidescreenStoryboard: 1

[Editor]
Bookmarks: 50440,53735,56886
DistanceSpacing: 0.8
BeatDivisor: 4
GridSize: 32
TimelineZoom: 1.3

[Metadata]
Title:CRAZY MILK 2
TitleUnicode:CRAZY MILK 2
Artist:dark cat
ArtistUnicode:dark cat
Creator:Jonarwhal
Version:Oni
Source:osu!
Tags:mappers' guild mpg mg jonawaga username105 Audien feat. Michael S leaving you future bass english instrumental electronic fa featured artist catstep neko nya
BeatmapID:2550210
BeatmapSetID:1226253

[Difficulty]
HPDrainRate:6.5
CircleSize:4
OverallDifficulty:6
ApproachRate:8
SliderMultiplier:1.4
SliderTickRate:1

[Events]
//Background and Video events
0,0,"tCDkn7Z.jpeg",0,0
//Break Periods
//Storyboard Layer 0 (Background)
//Storyboard Layer 1 (Fail)
//Storyboard Layer 2 (Pass)
//Storyboard Layer 3 (Foreground)
//Storyboard Layer 4 (Overlay)
//Storyboard Sound Samples

[TimingPoints]
10214,387.722132471729,4,1,0,60,1,0
10214,-125,4,1,0,60,0,0
13281,-100,4,1,0,60,0,0
18709,-125,4,1,0,60,0,0
19485,-100,4,1,0,60,0,0
29566,-100,4,1,0,55,0,0
29759,-100,4,1,0,50,0,0
29953,-100,4,1,0,45,0,0
30147,-100,4,1,0,40,0,0
31116,-125,4,1,0,55,0,0
31504,-125,4,1,0,50,0,0
31892,-100,4,1,0,60,0,0
44624,-105.263157894737,4,1,0,50,0,0
45012,-111.111111111111,4,1,0,40,0,0
45399,-117.647058823529,4,1,0,30,0,0
45787,-125,4,1,0,20,0,0
46175,-133.333333333333,4,1,0,10,0,0
46562,-142.857142857143,4,1,0,10,0,0
47338,-100,4,1,0,50,0,0
59226,-100,4,1,0,60,0,0
71440,-105.263157894737,4,1,0,60,0,0
71633,-111.111111111111,4,1,0,60,0,0
71827,-117.647058823529,4,1,0,60,0,0
71886,-118.518518518519,4,1,0,60,0,0
72007,-121.212121212121,4,1,0,60,0,0
72215,-125,4,1,0,55,0,0
82490,-125,4,1,0,50,0,0
82877,-125,4,1,0,45,0,0
83071,-125,4,1,0,40,0,0
83847,-125,4,1,0,55,0,0
84041,-125,4,1,0,50,0,0
84622,-100,4,1,0,60,0,0
96254,-125,4,1,0,60,0,0
97029,-100,4,1,0,60,0,0
107110,-100,4,1,0,55,0,0
107304,-100,4,1,0,50,0,0
107498,-100,4,1,0,45,0,0
107692,-100,4,1,0,40,0,0
109436,-100,4,1,0,60,0,0
121068,-125,4,1,0,60,0,0
121843,-100,4,1,0,60,0,0
137352,-100,4,1,0,50,0,0
141423,-100,4,1,0,45,0,0
141811,-100,4,1,0,40,0,0
143556,-100,4,1,0,45,0,0
147821,-100,4,1,0,40,0,0
148015,-100,4,1,0,35,0,0
149372,-125,4,1,0,60,0,0
149759,-100,4,1,0,60,0,0
159646,-100,4,1,0,55,0,0
159840,-100,4,1,0,50,0,0
160034,-100,4,1,0,45,0,0
160422,-100,4,1,0,40,0,0
161328,-125,4,1,0,50,0,0
162104,-125,4,1,0,60,0,0
162491,-129.032258064516,4,1,0,50,0,0
162879,-133.333333333333,4,1,0,40,0,0
163267,-137.931034482759,4,1,0,30,0,0
163655,-142.857142857143,4,1,0,20,0,0
164042,-148.148148148148,4,1,0,10,0,0
164430,-153.846153846154,4,1,0,10,0,0
165268,-125,4,1,0,50,0,0
169339,-125,4,1,0,45,0,0
169727,-125,4,1,0,40,0,0
175543,-125,4,1,0,35,0,0
175931,-125,4,1,0,30,0,0

[HitObjects]
256,192,10214,5,8,0:0:0:0:
256,192,10407,1,0,0:0:0:0:
256,192,10989,1,8,0:0:0:0:
256,192,11183,1,0,0:0:0:0:
256,192,11571,1,0,0:0:0:0:
256,192,12540,1,8,0:0:0:0:
256,192,12734,1,0,0:0:0:0:
256,192,12928,1,0,0:0:0:0:
256,192,12976,1,0,0:0:0:0:
256,192,13121,1,0,0:0:0:0:
256,192,13315,1,0,0:0:0:0:
256,192,13703,1,8,0:0:0:0:
256,192,13897,1,0,0:0:0:0:
256,192,14091,1,8,0:0:0:0:
256,192,14285,1,8,0:0:0:0:
256,192,14478,1,8,0:0:0:0:
256,192,14672,1,0,0:0:0:0:
256,192,15060,1,8,0:0:0:0:
256,192,15254,1,0,0:0:0:0:
256,192,15448,1,0,0:0:0:0:
256,192,15545,1,0,0:0:0:0:
256,192,15642,1,8,0:0:0:0:
256,192,15835,1,8,0:0:0:0:
256,192,16029,1,0,0:0:0:0:
256,192,16223,1,8,0:0:0:0:
256,192,16417,1,0,0:0:0:0:
256,192,16514,1,0,0:0:0:0:
256,192,16611,1,8,0:0:0:0:
256,192,16708,1,8,0:0:0:0:
256,192,16805,1,8,0:0:0:0:
256,192,16999,1,0,0:0:0:0:
256,192,17192,1,8,0:0:0:0:
256,192,17386,1,8,0:0:0:0:
256,192,17580,1,0,0:0:0:0:
256,192,17774,1,4,0:0:0:0:
256,192,18743,1,8,0:0:0:0:
256,192,18937,1,0,0:0:0:0:
256,192,19131,1,0,0:0:0:0:
256,192,19180,1,0,0:0:0:0:
256,192,19325,1,0,0:0:0:0:
256,192,19519,1,0,0:0:0:0:
256,192,19907,1,8,0:0:0:0:
256,192,20100,1,0,0:0:0:0:
256,192,20294,1,8,0:0:0:0:
256,192,20488,1,0,0:0:0:0:
256,192,20682,1,8,0:0:0:0:
256,192,20876,1,8,0:0:0:0:
256,192,21264,1,8,0:0:0:0:
256,192,21457,1,0,0:0:0:0:
256,192,21651,1,0,0:0:0:0:
256,192,21748,1,0,0:0:0:0:
256,192,21845,1,8,0:0:0:0:
256,192,22039,1,0,0:0:0:0:
256,192,22233,1,0,0:0:0:0:
256,192,22427,1,0,0:0:0:0:
256,192,22621,1,8,0:0:0:0:
256,192,22814,1,0,0:0:0:0:
256,192,23202,1,8,0:0:0:0:
256,192,23396,1,0,0:0:0:0:
256,192,23590,1,8,0:0:0:0:
256,192,23784,1,0,0:0:0:0:
256,192,23978,1,0,0:0:0:0:
256,192,24171,1,8,0:0:0:0:
256,192,24365,1,8,0:0:0:0:
256,192,24559,1,0,0:0:0:0:
256,192,24753,1,0,0:0:0:0:
256,192,24850,1,0,0:0:0:0:
256,192,24947,1,8,0:0:0:0:
256,192,25141,1,0,0:0:0:0:
256,192,25335,1,8,0:0:0:0:
256,192,25383,1,8,0:0:0:0:
256,192,25529,1,8,0:0:0:0:
256,192,25722,1,0,0:0:0:0:
256,192,26110,1,8,0:0:0:0:
256,192,26304,1,0,0:0:0:0:
256,192,26498,1,8,0:0:0:0:
256,192,26692,1,0,0:0:0:0:
256,192,26886,1,8,0:0:0:0:
256,192,27079,1,8,0:0:0:0:
256,192,27467,1,8,0:0:0:0:
256,192,27661,1,0,0:0:0:0:
256,192,27855,1,0,0:0:0:0:
256,192,27952,1,0,0:0:0:0:
256,192,28049,1,8,0:0:0:0:
256,192,28243,1,0,0:0:0:0:
256,192,28436,1,0,0:0:0:0:
256,192,28630,1,0,0:0:0:0:
256,192,28824,1,8,0:0:0:0:
256,192,29018,1,0,0:0:0:0:
256,192,29406,1,8,0:0:0:0:
256,192,29600,1,0,0:0:0:0:
256,192,29793,1,8,0:0:0:0:
256,192,29987,1,0,0:0:0:0:
256,192,30181,1,0,0:0:0:0:
256,192,31150,1,8,0:0:0:0:
256,192,31538,1,0,0:0:0:0:
256,192,31587,1,0,0:0:0:0:
256,192,31732,1,0,0:0:0:0:
256,192,31926,1,0,0:0:0:0:
256,192,32314,1,8,0:0:0:0:
256,192,32508,1,8,0:0:0:0:
256,192,32701,1,0,0:0:0:0:
256,192,32895,1,8,0:0:0:0:
256,192,33089,1,8,0:0:0:0:
256,192,33283,1,0,0:0:0:0:
256,192,33477,1,8,0:0:0:0:
256,192,33671,1,8,0:0:0:0:
256,192,33865,1,0,0:0:0:0:
256,192,34058,1,0,0:0:0:0:
256,192,34155,1,0,0:0:0:0:
256,192,34252,1,8,0:0:0:0:
256,192,34446,1,0,0:0:0:0:
256,192,34640,1,0,0:0:0:0:
256,192,34834,1,0,0:0:0:0:
256,192,35028,1,8,0:0:0:0:
256,192,35222,1,0,0:0:0:0:
256,192,35609,1,8,0:0:0:0:
256,192,35803,1,0,0:0:0:0:
256,192,35997,1,8,0:0:0:0:
256,192,36191,1,0,0:0:0:0:
256,192,36385,1,0,0:0:0:0:
256,192,36579,1,8,0:0:0:0:
256,192,36772,1,8,0:0:0:0:
256,192,36966,1,0,0:0:0:0:
256,192,37160,1,0,0:0:0:0:
256,192,37257,1,0,0:0:0:0:
256,192,37354,1,8,0:0:0:0:
256,192,37548,1,0,0:0:0:0:
256,192,37742,1,8,0:0:0:0:
256,192,37936,1,0,0:0:0:0:
256,192,38129,1,0,0:0:0:0:
256,192,38323,1,8,0:0:0:0:
256,192,38517,1,8,0:0:0:0:
256,192,38711,1,8,0:0:0:0:
256,192,38905,1,0,0:0:0:0:
256,192,39099,1,8,0:0:0:0:
256,192,39293,1,8,0:0:0:0:
256,192,39487,1,0,0:0:0:0:
256,192,39680,1,8,0:0:0:0:
256,192,39874,1,8,0:0:0:0:
256,192,40068,1,0,0:0:0:0:
256,192,40262,1,0,0:0:0:0:
256,192,40359,1,0,0:0:0:0:
256,192,40456,1,8,0:0:0:0:
256,192,40650,1,0,0:0:0:0:
256,192,40844,1,0,0:0:0:0:
256,192,41037,1,0,0:0:0:0:
256,192,41231,1,8,0:0:0:0:
256,192,41425,1,0,0:0:0:0:
256,192,41813,1,8,0:0:0:0:
256,192,42007,1,0,0:0:0:0:
256,192,42201,1,8,0:0:0:0:
256,192,42394,1,0,0:0:0:0:
256,192,42588,1,0,0:0:0:0:
256,192,42976,1,8,0:0:0:0:
256,192,43170,1,0,0:0:0:0:
256,192,43364,1,0,0:0:0:0:
256,192,43558,1,8,0:0:0:0:
256,192,43751,1,0,0:0:0:0:
256,192,43945,1,8,0:0:0:0:
256,192,43994,1,8,0:0:0:0:
256,192,44139,1,8,0:0:0:0:
256,192,44333,1,0,0:0:0:0:
256,192,44721,1,0,0:0:0:0:
256,192,45108,1,0,0:0:0:0:
256,192,45496,1,0,0:0:0:0:
256,192,45884,1,0,0:0:0:0:
256,192,46272,1,0,0:0:0:0:
256,192,46659,1,0,0:0:0:0:
256,192,47435,1,4,0:0:0:0:
256,192,47629,1,8,0:0:0:0:
256,192,47823,1,8,0:0:0:0:
256,192,48016,1,0,0:0:0:0:
256,192,48210,1,8,0:0:0:0:
256,192,48404,1,8,0:0:0:0:
256,192,48598,1,0,0:0:0:0:
256,192,48792,1,0,0:0:0:0:
256,192,48986,1,8,0:0:0:0:
256,192,49180,1,0,0:0:0:0:
256,192,49373,1,8,0:0:0:0:
256,192,49567,1,8,0:0:0:0:
256,192,49761,1,0,0:0:0:0:
256,192,49955,1,8,0:0:0:0:
256,192,50149,1,0,0:0:0:0:
256,192,50537,1,8,0:0:0:0:
256,192,50730,1,0,0:0:0:0:
256,192,50924,1,8,0:0:0:0:
256,192,51118,1,8,0:0:0:0:
256,192,51312,1,0,0:0:0:0:
256,192,51506,1,8,0:0:0:0:
256,192,51700,1,0,0:0:0:0:
256,192,51894,1,8,0:0:0:0:
256,192,52087,1,0,0:0:0:0:
256,192,52184,1,0,0:0:0:0:
256,192,52281,1,0,0:0:0:0:
256,192,52475,1,8,0:0:0:0:
256,192,52669,1,0,0:0:0:0:
256,192,52863,1,8,0:0:0:0:
256,192,53057,1,8,0:0:0:0:
256,192,53154,1,8,0:0:0:0:
256,192,53251,1,0,0:0:0:0:
256,192,53445,1,8,0:0:0:0:
256,192,53638,1,4,0:0:0:0:
256,192,53832,1,8,0:0:0:0:
256,192,54026,1,8,0:0:0:0:
256,192,54220,1,0,0:0:0:0:
256,192,54414,1,8,0:0:0:0:
256,192,54608,1,8,0:0:0:0:
256,192,54802,1,0,0:0:0:0:
256,192,54995,1,0,0:0:0:0:
256,192,55189,1,8,0:0:0:0:
256,192,55577,1,8,0:0:0:0:
256,192,55771,1,8,0:0:0:0:
256,192,55965,1,0,0:0:0:0:
256,192,56159,1,8,0:0:0:0:
256,192,56352,1,0,0:0:0:0:
256,192,56740,1,8,0:0:0:0:
256,192,56934,1,0,0:0:0:0:
256,192,57128,1,8,0:0:0:0:
256,192,57322,1,8,0:0:0:0:
256,192,57516,1,0,0:0:0:0:
256,192,57709,1,4,0:0:0:0:
256,192,58097,1,4,0:0:0:0:
256,192,58485,1,0,0:0:0:0:
256,192,58679,1,8,0:0:0:0:
256,192,58873,1,8,0:0:0:0:
256,192,59066,1,0,0:0:0:0:
256,192,59260,1,8,0:0:0:0:
256,192,59454,1,0,0:0:0:0:
256,192,59503,1,0,0:0:0:0:
256,192,59648,1,0,0:0:0:0:
256,192,59842,1,12,0:0:0:0:
256,192,60230,1,8,0:0:0:0:
256,192,60424,1,8,0:0:0:0:
256,192,60617,1,0,0:0:0:0:
256,192,60811,1,8,0:0:0:0:
256,192,61005,1,0,0:0:0:0:
256,192,61199,1,8,0:0:0:0:
256,192,61393,1,0,0:0:0:0:
256,192,61587,1,0,0:0:0:0:
256,192,61781,1,8,0:0:0:0:
256,192,61974,1,8,0:0:0:0:
256,192,62168,1,0,0:0:0:0:
256,192,62362,1,8,0:0:0:0:
256,192,62459,1,0,0:0:0:0:
256,192,62556,1,8,0:0:0:0:
256,192,62750,1,8,0:0:0:0:
256,192,63138,1,8,0:0:0:0:
256,192,63331,1,0,0:0:0:0:
256,192,63525,1,8,0:0:0:0:
256,192,63719,1,0,0:0:0:0:
256,192,63913,1,8,0:0:0:0:
256,192,64107,1,8,0:0:0:0:
256,192,64301,1,8,0:0:0:0:
256,192,64688,1,8,0:0:0:0:
256,192,64882,1,0,0:0:0:0:
256,192,65076,1,8,0:0:0:0:
256,192,65270,1,0,0:0:0:0:
256,192,65464,1,8,0:0:0:0:
256,192,65561,1,8,0:0:0:0:
256,192,65658,1,0,0:0:0:0:
256,192,65852,1,8,0:0:0:0:
256,192,66045,1,4,0:0:0:0:
256,192,66239,1,8,0:0:0:0:
256,192,66433,1,0,0:0:0:0:
256,192,66627,1,8,0:0:0:0:
256,192,66821,1,0,0:0:0:0:
256,192,67015,1,8,0:0:0:0:
256,192,67209,1,8,0:0:0:0:
256,192,67403,1,8,0:0:0:0:
256,192,67790,1,8,0:0:0:0:
256,192,67984,1,0,0:0:0:0:
256,192,68178,1,8,0:0:0:0:
256,192,68372,1,0,0:0:0:0:
256,192,68566,1,8,0:0:0:0:
256,192,68663,1,8,0:0:0:0:
256,192,68760,1,0,0:0:0:0:
256,192,68953,1,8,0:0:0:0:
256,192,69147,1,4,0:0:0:0:
256,192,69341,1,0,0:0:0:0:
256,192,69535,1,0,0:0:0:0:
256,192,69729,1,8,0:0:0:0:
256,192,70117,1,4,0:0:0:0:
256,192,70310,1,8,0:0:0:0:
256,192,70504,1,4,0:0:0:0:
256,192,70698,1,0,0:0:0:0:
256,192,70892,1,8,0:0:0:0:
256,192,70989,1,8,0:0:0:0:
256,192,71086,1,0,0:0:0:0:
256,192,71280,1,8,0:0:0:0:
256,192,71474,1,8,0:0:0:0:
256,192,71667,1,0,0:0:0:0:
256,192,71861,1,0,0:0:0:0:
256,192,71910,1,0,0:0:0:0:
256,192,72055,1,0,0:0:0:0:
256,192,72249,1,0,0:0:0:0:
256,192,72637,1,0,0:0:0:0:
256,192,72831,1,8,0:0:0:0:
256,192,73218,1,0,0:0:0:0:
256,192,73412,1,0,0:0:0:0:
256,192,73800,1,0,0:0:0:0:
256,192,73994,1,8,0:0:0:0:
256,192,74382,1,0,0:0:0:0:
256,192,74575,1,8,0:0:0:0:
256,192,74769,1,0,0:0:0:0:
256,192,74963,1,0,0:0:0:0:
256,192,75351,1,8,0:0:0:0:
256,192,75545,1,0,0:0:0:0:
256,192,75932,1,0,0:0:0:0:
256,192,76320,1,8,0:0:0:0:
256,192,76708,1,0,0:0:0:0:
256,192,77677,1,0,0:0:0:0:
256,192,78065,1,0,0:0:0:0:
256,192,78453,1,0,0:0:0:0:
256,192,78646,1,0,0:0:0:0:
256,192,78840,1,0,0:0:0:0:
256,192,79034,1,8,0:0:0:0:
256,192,79422,1,0,0:0:0:0:
256,192,79616,1,8,0:0:0:0:
256,192,80003,1,0,0:0:0:0:
256,192,80197,1,0,0:0:0:0:
256,192,80585,1,0,0:0:0:0:
256,192,80779,1,8,0:0:0:0:
256,192,80973,1,0,0:0:0:0:
256,192,81167,1,0,0:0:0:0:
256,192,81554,1,8,0:0:0:0:
256,192,81748,1,0,0:0:0:0:
256,192,82136,1,0,0:0:0:0:
256,192,82524,1,8,0:0:0:0:
256,192,82911,1,0,0:0:0:0:
256,192,83105,1,8,0:0:0:0:
256,192,83493,1,0,0:0:0:0:
256,192,83687,1,0,0:0:0:0:
256,192,83881,1,8,0:0:0:0:
256,192,84075,1,0,0:0:0:0:
256,192,84268,1,0,0:0:0:0:
256,192,84317,1,0,0:0:0:0:
256,192,84462,1,0,0:0:0:0:
256,192,84656,1,0,0:0:0:0:
256,192,85044,1,0,0:0:0:0:
256,192,85238,1,8,0:0:0:0:
256,192,85432,1,0,0:0:0:0:
256,192,85625,1,8,0:0:0:0:
256,192,85819,1,8,0:0:0:0:
256,192,86013,1,0,0:0:0:0:
256,192,86207,1,8,0:0:0:0:
256,192,86401,1,0,0:0:0:0:
256,192,86595,1,0,0:0:0:0:
256,192,86789,1,0,0:0:0:0:
256,192,86886,1,0,0:0:0:0:
256,192,86982,1,8,0:0:0:0:
256,192,87176,1,0,0:0:0:0:
256,192,87370,1,8,0:0:0:0:
256,192,87564,1,8,0:0:0:0:
256,192,87758,1,8,0:0:0:0:
256,192,88146,1,0,0:0:0:0:
256,192,88340,1,0,0:0:0:0:
256,192,88533,1,8,0:0:0:0:
256,192,88727,1,0,0:0:0:0:
256,192,88921,1,0,0:0:0:0:
256,192,89115,1,8,0:0:0:0:
256,192,89503,1,8,0:0:0:0:
256,192,89697,1,8,0:0:0:0:
256,192,89890,1,0,0:0:0:0:
256,192,89987,1,0,0:0:0:0:
256,192,90084,1,8,0:0:0:0:
256,192,90278,1,0,0:0:0:0:
256,192,90472,1,0,0:0:0:0:
256,192,90520,1,0,0:0:0:0:
256,192,90666,1,0,0:0:0:0:
256,192,90860,1,0,0:0:0:0:
256,192,91247,1,8,0:0:0:0:
256,192,91441,1,8,0:0:0:0:
256,192,91635,1,0,0:0:0:0:
256,192,91829,1,8,0:0:0:0:
256,192,92023,1,8,0:0:0:0:
256,192,92217,1,0,0:0:0:0:
256,192,92411,1,8,0:0:0:0:
256,192,92604,1,8,0:0:0:0:
256,192,92798,1,0,0:0:0:0:
256,192,92992,1,0,0:0:0:0:
256,192,93089,1,0,0:0:0:0:
256,192,93186,1,8,0:0:0:0:
256,192,93380,1,0,0:0:0:0:
256,192,93574,1,8,0:0:0:0:
256,192,93768,1,8,0:0:0:0:
256,192,93961,1,0,0:0:0:0:
256,192,94058,1,0,0:0:0:0:
256,192,94155,1,0,0:0:0:0:
256,192,94252,1,0,0:0:0:0:
256,192,94349,1,8,0:0:0:0:
256,192,94543,1,0,0:0:0:0:
256,192,94737,1,8,0:0:0:0:
256,192,94931,1,8,0:0:0:0:
256,192,95125,1,0,0:0:0:0:
256,192,95319,1,4,0:0:0:0:
256,192,96288,1,8,0:0:0:0:
256,192,96482,1,0,0:0:0:0:
256,192,96676,1,0,0:0:0:0:
256,192,96724,1,0,0:0:0:0:
256,192,96869,1,0,0:0:0:0:
256,192,97063,1,0,0:0:0:0:
256,192,97451,1,8,0:0:0:0:
256,192,97645,1,0,0:0:0:0:
256,192,97839,1,8,0:0:0:0:
256,192,98033,1,0,0:0:0:0:
256,192,98226,1,8,0:0:0:0:
256,192,98420,1,8,0:0:0:0:
256,192,98808,1,8,0:0:0:0:
256,192,99002,1,0,0:0:0:0:
256,192,99196,1,0,0:0:0:0:
256,192,99293,1,0,0:0:0:0:
256,192,99390,1,8,0:0:0:0:
256,192,99583,1,0,0:0:0:0:
256,192,99777,1,0,0:0:0:0:
256,192,99971,1,0,0:0:0:0:
256,192,100165,1,8,0:0:0:0:
256,192,100359,1,0,0:0:0:0:
256,192,100747,1,8,0:0:0:0:
256,192,100940,1,0,0:0:0:0:
256,192,101134,1,8,0:0:0:0:
256,192,101328,1,0,0:0:0:0:
256,192,101522,1,0,0:0:0:0:
256,192,101716,1,8,0:0:0:0:
256,192,101910,1,8,0:0:0:0:
256,192,102104,1,0,0:0:0:0:
256,192,102298,1,0,0:0:0:0:
256,192,102394,1,0,0:0:0:0:
256,192,102491,1,8,0:0:0:0:
256,192,102685,1,0,0:0:0:0:
256,192,102879,1,8,0:0:0:0:
256,192,102928,1,8,0:0:0:0:
256,192,103073,1,8,0:0:0:0:
256,192,103267,1,0,0:0:0:0:
256,192,103655,1,8,0:0:0:0:
256,192,103848,1,0,0:0:0:0:
256,192,104042,1,8,0:0:0:0:
256,192,104236,1,0,0:0:0:0:
256,192,104430,1,8,0:0:0:0:
256,192,104624,1,8,0:0:0:0:
256,192,105012,1,8,0:0:0:0:
256,192,105205,1,0,0:0:0:0:
256,192,105399,1,0,0:0:0:0:
256,192,105496,1,0,0:0:0:0:
256,192,105593,1,8,0:0:0:0:
256,192,105787,1,0,0:0:0:0:
256,192,105981,1,0,0:0:0:0:
256,192,106175,1,0,0:0:0:0:
256,192,106369,1,8,0:0:0:0:
256,192,106562,1,0,0:0:0:0:
256,192,106950,1,8,0:0:0:0:
256,192,107144,1,0,0:0:0:0:
256,192,107338,1,8,0:0:0:0:
256,192,107532,1,0,0:0:0:0:
256,192,107726,1,0,0:0:0:0:
256,192,107919,1,0,0:0:0:0:
256,192,109470,1,0,0:0:0:0:
256,192,109664,1,8,0:0:0:0:
256,192,109858,1,8,0:0:0:0:
256,192,110052,1,0,0:0:0:0:
256,192,110246,1,8,0:0:0:0:
256,192,110440,1,8,0:0:0:0:
256,192,110634,1,0,0:0:0:0:
256,192,110827,1,0,0:0:0:0:
256,192,111021,1,8,0:0:0:0:
256,192,111118,1,8,0:0:0:0:
256,192,111215,1,0,0:0:0:0:
256,192,111409,1,8,0:0:0:0:
256,192,111603,1,8,0:0:0:0:
256,192,111797,1,0,0:0:0:0:
256,192,111991,1,8,0:0:0:0:
256,192,112184,1,0,0:0:0:0:
256,192,112378,1,0,0:0:0:0:
256,192,112572,1,8,0:0:0:0:
256,192,112766,1,0,0:0:0:0:
256,192,113154,1,8,0:0:0:0:
256,192,113348,1,0,0:0:0:0:
256,192,113541,1,8,0:0:0:0:
256,192,113735,1,8,0:0:0:0:
256,192,113929,1,0,0:0:0:0:
256,192,114317,1,0,0:0:0:0:
256,192,114511,1,8,0:0:0:0:
256,192,114705,1,0,0:0:0:0:
256,192,114898,1,8,0:0:0:0:
256,192,115092,1,8,0:0:0:0:
256,192,115189,1,8,0:0:0:0:
256,192,115286,1,0,0:0:0:0:
256,192,115480,1,8,0:0:0:0:
256,192,115674,1,0,0:0:0:0:
256,192,115868,1,8,0:0:0:0:
256,192,116062,1,8,0:0:0:0:
256,192,116256,1,0,0:0:0:0:
256,192,116449,1,8,0:0:0:0:
256,192,116643,1,8,0:0:0:0:
256,192,116837,1,0,0:0:0:0:
256,192,117031,1,0,0:0:0:0:
256,192,117225,1,8,0:0:0:0:
256,192,117419,1,0,0:0:0:0:
256,192,117613,1,8,0:0:0:0:
256,192,117806,1,8,0:0:0:0:
256,192,118000,1,0,0:0:0:0:
256,192,118194,1,8,0:0:0:0:
256,192,118388,1,0,0:0:0:0:
256,192,118582,1,0,0:0:0:0:
256,192,118776,1,8,0:0:0:0:
256,192,118970,1,0,0:0:0:0:
256,192,119357,1,8,0:0:0:0:
256,192,119551,1,0,0:0:0:0:
256,192,119745,1,8,0:0:0:0:
256,192,120133,1,0,0:0:0:0:
256,192,121102,1,8,0:0:0:0:
256,192,121490,1,0,0:0:0:0:
256,192,121538,1,0,0:0:0:0:
256,192,121684,1,0,0:0:0:0:
256,192,121877,1,0,0:0:0:0:
256,192,122265,1,8,0:0:0:0:
256,192,122459,1,8,0:0:0:0:
256,192,122653,1,0,0:0:0:0:
256,192,122847,1,8,0:0:0:0:
256,192,123041,1,8,0:0:0:0:
256,192,123235,1,0,0:0:0:0:
256,192,123428,1,8,0:0:0:0:
256,192,123622,1,8,0:0:0:0:
256,192,123816,1,0,0:0:0:0:
256,192,124010,1,0,0:0:0:0:
256,192,124107,1,0,0:0:0:0:
256,192,124204,1,8,0:0:0:0:
256,192,124398,1,0,0:0:0:0:
256,192,124592,1,0,0:0:0:0:
256,192,124785,1,0,0:0:0:0:
256,192,124979,1,8,0:0:0:0:
256,192,125173,1,0,0:0:0:0:
256,192,125561,1,8,0:0:0:0:
256,192,125755,1,0,0:0:0:0:
256,192,125949,1,8,0:0:0:0:
256,192,126142,1,0,0:0:0:0:
256,192,126336,1,0,0:0:0:0:
256,192,126530,1,8,0:0:0:0:
256,192,126724,1,8,0:0:0:0:
256,192,126918,1,0,0:0:0:0:
256,192,127112,1,0,0:0:0:0:
256,192,127209,1,0,0:0:0:0:
256,192,127306,1,8,0:0:0:0:
256,192,127499,1,0,0:0:0:0:
256,192,127693,1,8,0:0:0:0:
256,192,127887,1,0,0:0:0:0:
256,192,128081,1,0,0:0:0:0:
256,192,128275,1,8,0:0:0:0:
256,192,128469,1,8,0:0:0:0:
256,192,128663,1,8,0:0:0:0:
256,192,128856,1,0,0:0:0:0:
256,192,129050,1,8,0:0:0:0:
256,192,129244,1,8,0:0:0:0:
256,192,129438,1,0,0:0:0:0:
256,192,129632,1,8,0:0:0:0:
256,192,129826,1,8,0:0:0:0:
256,192,130020,1,0,0:0:0:0:
256,192,130214,1,0,0:0:0:0:
256,192,130310,1,0,0:0:0:0:
256,192,130407,1,8,0:0:0:0:
256,192,130601,1,0,0:0:0:0:
256,192,130795,1,0,0:0:0:0:
256,192,130989,1,0,0:0:0:0:
256,192,131183,1,8,0:0:0:0:
256,192,131377,1,0,0:0:0:0:
256,192,131764,1,8,0:0:0:0:
256,192,131958,1,0,0:0:0:0:
256,192,132152,1,8,0:0:0:0:
256,192,132346,1,0,0:0:0:0:
256,192,132540,1,0,0:0:0:0:
256,192,132928,1,8,0:0:0:0:
256,192,133121,1,0,0:0:0:0:
256,192,133315,1,0,0:0:0:0:
256,192,133509,1,8,0:0:0:0:
256,192,133703,1,0,0:0:0:0:
256,192,133897,1,8,0:0:0:0:
256,192,133945,1,8,0:0:0:0:
256,192,134091,1,8,0:0:0:0:
256,192,134285,1,0,0:0:0:0:
256,192,137386,1,0,0:0:0:0:
256,192,137580,1,8,0:0:0:0:
256,192,137774,1,8,0:0:0:0:
256,192,137968,1,0,0:0:0:0:
256,192,138162,1,8,0:0:0:0:
256,192,138356,1,8,0:0:0:0:
256,192,138550,1,0,0:0:0:0:
256,192,138743,1,0,0:0:0:0:
256,192,138937,1,8,0:0:0:0:
256,192,139131,1,0,0:0:0:0:
256,192,139325,1,8,0:0:0:0:
256,192,139519,1,8,0:0:0:0:
256,192,139713,1,0,0:0:0:0:
256,192,139907,1,8,0:0:0:0:
256,192,140100,1,0,0:0:0:0:
256,192,140488,1,8,0:0:0:0:
256,192,140682,1,0,0:0:0:0:
256,192,141070,1,8,0:0:0:0:
256,192,141264,1,0,0:0:0:0:
256,192,141457,1,8,0:0:0:0:
256,192,141845,1,0,0:0:0:0:
256,192,142233,1,0,0:0:0:0:
256,192,142427,1,8,0:0:0:0:
256,192,142621,1,0,0:0:0:0:
256,192,142814,1,8,0:0:0:0:
256,192,143008,1,8,0:0:0:0:
256,192,143202,1,0,0:0:0:0:
256,192,143590,1,0,0:0:0:0:
256,192,143784,1,8,0:0:0:0:
256,192,143978,1,8,0:0:0:0:
256,192,144171,1,0,0:0:0:0:
256,192,144365,1,8,0:0:0:0:
256,192,144559,1,8,0:0:0:0:
256,192,144753,1,0,0:0:0:0:
256,192,144947,1,0,0:0:0:0:
256,192,145141,1,8,0:0:0:0:
256,192,145335,1,0,0:0:0:0:
256,192,145529,1,8,0:0:0:0:
256,192,145722,1,8,0:0:0:0:
256,192,145916,1,0,0:0:0:0:
256,192,146110,1,8,0:0:0:0:
256,192,146304,1,0,0:0:0:0:
256,192,146692,1,8,0:0:0:0:
256,192,146886,1,0,0:0:0:0:
256,192,147273,1,0,0:0:0:0:
256,192,147661,1,8,0:0:0:0:
256,192,147855,1,0,0:0:0:0:
256,192,148049,1,0,0:0:0:0:
256,192,148243,1,0,0:0:0:0:
256,192,149406,1,0,0:0:0:0:
256,192,149454,1,0,0:0:0:0:
256,192,149600,1,0,0:0:0:0:
256,192,149793,1,0,0:0:0:0:
256,192,149987,1,8,0:0:0:0:
256,192,150181,1,8,0:0:0:0:
256,192,150375,1,0,0:0:0:0:
256,192,150569,1,8,0:0:0:0:
256,192,150763,1,8,0:0:0:0:
256,192,150957,1,0,0:0:0:0:
256,192,151150,1,0,0:0:0:0:
256,192,151344,1,8,0:0:0:0:
256,192,151538,1,0,0:0:0:0:
256,192,151732,1,8,0:0:0:0:
256,192,151926,1,8,0:0:0:0:
256,192,152023,1,8,0:0:0:0:
256,192,152120,1,0,0:0:0:0:
256,192,152314,1,8,0:0:0:0:
256,192,152508,1,0,0:0:0:0:
256,192,152701,1,0,0:0:0:0:
256,192,152895,1,8,0:0:0:0:
256,192,153089,1,0,0:0:0:0:
256,192,153283,1,0,0:0:0:0:
256,192,153477,1,8,0:0:0:0:
256,192,153671,1,0,0:0:0:0:
256,192,153865,1,8,0:0:0:0:
256,192,154058,1,0,0:0:0:0:
256,192,154252,1,8,0:0:0:0:
256,192,154446,1,0,0:0:0:0:
256,192,154640,1,0,0:0:0:0:
256,192,154834,1,8,0:0:0:0:
256,192,155028,1,0,0:0:0:0:
256,192,155125,1,0,0:0:0:0:
256,192,155222,1,8,0:0:0:0:
256,192,155415,1,8,0:0:0:0:
256,192,155609,1,0,0:0:0:0:
256,192,155803,1,8,0:0:0:0:
256,192,155997,1,0,0:0:0:0:
256,192,156191,1,8,0:0:0:0:
256,192,156385,1,8,0:0:0:0:
256,192,156579,1,0,0:0:0:0:
256,192,156772,1,8,0:0:0:0:
256,192,156966,1,8,0:0:0:0:
256,192,157160,1,0,0:0:0:0:
256,192,157354,1,0,0:0:0:0:
256,192,157548,1,8,0:0:0:0:
256,192,157742,1,0,0:0:0:0:
256,192,157936,1,8,0:0:0:0:
256,192,158129,1,8,0:0:0:0:
256,192,158226,1,8,0:0:0:0:
256,192,158323,1,0,0:0:0:0:
256,192,158517,1,8,0:0:0:0:
256,192,158711,1,0,0:0:0:0:
256,192,158905,1,0,0:0:0:0:
256,192,159099,1,8,0:0:0:0:
256,192,159293,1,0,0:0:0:0:
256,192,159680,1,8,0:0:0:0:
256,192,159874,1,0,0:0:0:0:
256,192,160068,1,8,0:0:0:0:
256,192,160456,1,0,0:0:0:0:
256,192,160650,1,0,0:0:0:0:
256,192,161425,1,8,0:0:0:0:
256,192,161619,1,0,0:0:0:0:
256,192,161813,1,0,0:0:0:0:
256,192,161861,1,0,0:0:0:0:
256,192,162007,1,0,0:0:0:0:
256,192,162201,1,8,0:0:0:0:
256,192,162588,1,0,0:0:0:0:
256,192,162976,1,0,0:0:0:0:
256,192,163364,1,0,0:0:0:0:
256,192,163751,1,0,0:0:0:0:
256,192,164139,1,0,0:0:0:0:
256,192,164527,1,0,0:0:0:0:
256,192,165302,5,8,0:0:0:0:
256,192,165690,1,0,0:0:0:0:
256,192,165884,1,0,0:0:0:0:
256,192,166272,1,0,0:0:0:0:
256,192,166466,1,8,0:0:0:0:
256,192,167241,1,0,0:0:0:0:
256,192,167629,1,8,0:0:0:0:
256,192,168016,1,0,0:0:0:0:
256,192,168404,1,8,0:0:0:0:
256,192,168598,1,0,0:0:0:0:
256,192,168986,1,0,0:0:0:0:
256,192,169373,1,8,0:0:0:0:
256,192,169761,1,0,0:0:0:0:
256,192,171118,1,0,0:0:0:0:
256,192,171506,5,8,0:0:0:0:
256,192,171894,1,0,0:0:0:0:
256,192,172087,1,0,0:0:0:0:
256,192,172475,1,0,0:0:0:0:
256,192,172669,1,8,0:0:0:0:
256,192,173445,1,0,0:0:0:0:
256,192,173832,1,8,0:0:0:0:
256,192,174220,1,0,0:0:0:0:
256,192,174608,1,8,0:0:0:0:
256,192,175189,1,0,0:0:0:0:
256,192,175577,1,8,0:0:0:0:
256,192,175965,1,0,0:0:0:0:
