osu file format v14

[General]
AudioFilename: audio.mp3
AudioLeadIn: 0
PreviewTime: -1
Countdown: 0
SampleSet: None
StackLeniency: 0.7
Mode: 3
LetterboxInBreaks: 0
SpecialStyle: 1
WidescreenStoryboard: 0

[Editor]
Bookmarks: 9150,42150,72150,96150,120150,150150,180150,204150
DistanceSpacing: 1
BeatDivisor: 4
GridSize: 4
TimelineZoom: 3.299999

[Metadata]
Title:BUBBLE TEA (feat. juu & cinders)
TitleUnicode:BUBBLE TEA (feat. juu & cinders)
Artist:dark cat
ArtistUnicode:dark cat
Creator:fufu-
Version:crumch the cheese
Source:
Tags:
BeatmapID:1650183
BeatmapSetID:786072

[Difficulty]
HPDrainRate:7
CircleSize:4
OverallDifficulty:8.5
ApproachRate:9
SliderMultiplier:1.5
SliderTickRate:1

[Events]
//Background and Video events
0,0,"wallpapber.jpg",0,0
//Break Periods
//Storyboard Layer 0 (Background)
//Storyboard Layer 1 (Fail)
//Storyboard Layer 2 (Pass)
//Storyboard Layer 3 (Foreground)
//Storyboard Sound Samples

[TimingPoints]
150,375,4,2,0,30,1,0

[HitObjects]
153,192,150,5,0,0:0:0:0:
256,192,337,1,0,0:0:0:0:
448,192,525,1,0,0:0:0:0:
64,192,712,1,0,0:0:0:0:
192,192,900,1,0,0:0:0:0:
320,192,1087,1,0,0:0:0:0:
448,192,1275,1,0,0:0:0:0:
320,192,1462,1,0,0:0:0:0:
192,192,1650,1,0,0:0:0:0:
320,192,1837,1,0,0:0:0:0:
192,192,2025,1,0,0:0:0:0:
64,192,2212,1,0,0:0:0:0:
192,192,2400,1,0,0:0:0:0:
320,192,2587,1,0,0:0:0:0:
448,192,2775,1,0,0:0:0:0:
320,192,2962,1,0,0:0:0:0:
192,192,3056,1,0,0:0:0:0:
64,192,3150,1,0,0:0:0:0:
320,192,3337,1,0,0:0:0:0:
192,192,3525,1,0,0:0:0:0:
448,192,3712,1,0,0:0:0:0:
320,192,3900,1,0,0:0:0:0:
192,192,3900,1,0,0:0:0:0:
448,192,4087,1,0,0:0:0:0:
256,192,4275,1,0,0:0:0:0:
64,192,4462,1,0,0:0:0:0:
320,192,4650,1,0,0:0:0:0:
153,192,4650,1,0,0:0:0:0:
64,192,4837,1,0,0:0:0:0:
192,192,5025,1,0,0:0:0:0:
448,192,5212,1,0,0:0:0:0:
320,192,5212,1,0,0:0:0:0:
153,192,5400,1,0,0:0:0:0:
448,192,5587,1,0,0:0:0:0:
64,192,5775,1,0,0:0:0:0:
320,192,5962,1,0,0:0:0:0:
153,192,5962,1,0,0:0:0:0:
153,192,6150,1,0,0:0:0:0:
320,192,6150,1,0,0:0:0:0:
448,192,6337,1,0,0:0:0:0:
64,192,6525,1,0,0:0:0:0:
448,192,6712,1,0,0:0:0:0:
256,192,6900,1,0,0:0:0:0:
153,192,6900,1,0,0:0:0:0:
192,192,7275,1,0,0:0:0:0:
192,192,7462,1,0,0:0:0:0:
448,192,7650,1,0,0:0:0:0:
320,192,7837,1,0,0:0:0:0:
153,192,8025,1,0,0:0:0:0:
320,192,8025,128,0,9150:0:0:0:0:
448,192,8212,1,0,0:0:0:0:
64,192,8400,1,0,0:0:0:0:
448,192,8587,1,0,0:0:0:0:
153,192,8775,1,0,0:0:0:0:
448,192,8962,1,0,0:0:0:0:
192,192,9056,1,0,0:0:0:0:
64,192,9150,1,0,0:0:0:0:
448,192,9150,1,0,0:0:0:0:
256,192,9337,1,0,0:0:0:0:
192,192,9525,1,0,0:0:0:0:
448,192,9712,1,0,0:0:0:0:
256,192,9712,1,0,0:0:0:0:
153,192,9900,1,0,0:0:0:0:
320,192,10087,1,0,0:0:0:0:
64,192,10275,1,0,0:0:0:0:
153,192,10275,1,0,0:0:0:0:
320,192,10462,1,0,0:0:0:0:
448,192,10650,1,0,0:0:0:0:
256,192,10837,1,0,0:0:0:0:
192,192,10837,1,0,0:0:0:0:
448,192,11025,1,0,0:0:0:0:
320,192,11212,1,0,0:0:0:0:
192,192,11400,1,0,0:0:0:0:
448,192,11400,1,0,0:0:0:0:
192,192,11962,1,0,0:0:0:0:
320,192,11962,1,0,0:0:0:0:
192,192,12150,1,0,0:0:0:0:
448,192,12150,1,0,0:0:0:0:
64,192,12150,1,0,0:0:0:0:
256,192,12337,1,0,0:0:0:0:
448,192,12525,128,0,12712:0:0:0:0:
320,192,12712,1,0,0:0:0:0:
153,192,12712,128,0,12900:0:0:0:0:
256,192,12900,1,0,0:0:0:0:
64,192,13087,1,0,0:0:0:0:
192,192,13275,1,0,0:0:0:0:
448,192,13275,1,0,0:0:0:0:
64,192,13462,1,0,0:0:0:0:
320,192,13650,1,0,0:0:0:0:
448,192,13650,1,0,0:0:0:0:
64,192,13837,1,0,0:0:0:0:
153,192,14025,128,0,14212:0:0:0:0:
448,192,14212,128,0,14400:0:0:0:0:
320,192,14212,1,0,0:0:0:0:
256,192,14400,1,0,0:0:0:0:
64,192,14587,1,0,0:0:0:0:
448,192,14775,1,0,0:0:0:0:
256,192,14775,128,0,14962:0:0:0:0:
153,192,14962,128,0,15150:0:0:0:0:
448,192,15150,1,0,0:0:0:0:
320,192,15150,1,0,0:0:0:0:
64,192,15337,1,0,0:0:0:0:
192,192,15525,1,0,0:0:0:0:
320,192,15712,128,0,15900:0:0:0:0:
64,192,15712,1,0,0:0:0:0:
448,192,15900,128,0,16087:0:0:0:0:
192,192,16087,128,0,16275:0:0:0:0:
64,192,16275,128,0,16462:0:0:0:0:
320,192,16275,1,0,0:0:0:0:
320,192,16462,128,0,16650:0:0:0:0:
448,192,16650,128,0,16837:0:0:0:0:
192,192,16837,128,0,17025:0:0:0:0:
64,192,16837,1,0,0:0:0:0:
320,192,17025,128,0,17212:0:0:0:0:
64,192,17212,128,0,17400:0:0:0:0:
320,192,17400,128,0,17587:0:0:0:0:
448,192,17400,1,0,0:0:0:0:
192,192,17587,128,0,17775:0:0:0:0:
448,192,17775,128,0,17962:0:0:0:0:
64,192,17775,1,0,0:0:0:0:
64,192,17962,128,0,18150:0:0:0:0:
192,192,18150,128,0,18337:0:0:0:0:
320,192,18150,1,0,0:0:0:0:
448,192,18337,1,0,0:0:0:0:
320,192,18525,1,0,0:0:0:0:
192,192,18712,1,0,0:0:0:0:
64,192,18712,1,0,0:0:0:0:
448,192,18900,1,0,0:0:0:0:
320,192,19087,1,0,0:0:0:0:
448,192,19275,1,0,0:0:0:0:
192,192,19275,1,0,0:0:0:0:
64,192,19462,1,0,0:0:0:0:
320,192,19650,1,0,0:0:0:0:
192,192,19650,1,0,0:0:0:0:
448,192,19837,1,0,0:0:0:0:
192,192,20025,1,0,0:0:0:0:
320,192,20212,1,0,0:0:0:0:
448,192,20212,1,0,0:0:0:0:
64,192,20400,1,0,0:0:0:0:
320,192,20587,1,0,0:0:0:0:
448,192,20775,1,0,0:0:0:0:
64,192,20775,1,0,0:0:0:0:
192,192,20962,1,0,0:0:0:0:
448,192,21150,128,0,21337:0:0:0:0:
320,192,21150,1,0,0:0:0:0:
192,192,21337,128,0,21525:0:0:0:0:
320,192,21525,128,0,21712:0:0:0:0:
192,192,21712,1,0,0:0:0:0:
64,192,21712,128,0,21900:0:0:0:0:
192,192,21900,128,0,22087:0:0:0:0:
320,192,22087,128,0,22275:0:0:0:0:
448,192,22275,128,0,22462:0:0:0:0:
64,192,22275,1,0,0:0:0:0:
320,192,22462,128,0,22650:0:0:0:0:
192,192,22650,128,0,22837:0:0:0:0:
64,192,22837,128,0,23025:0:0:0:0:
448,192,22837,1,0,0:0:0:0:
320,192,23025,128,0,23212:0:0:0:0:
192,192,23212,128,0,23400:0:0:0:0:
448,192,23400,128,0,23587:0:0:0:0:
320,192,23400,1,0,0:0:0:0:
64,192,23587,128,0,23775:0:0:0:0:
448,192,23775,1,0,0:0:0:0:
320,192,23775,128,0,23962:0:0:0:0:
192,192,23962,128,0,24150:0:0:0:0:
448,192,24150,1,0,0:0:0:0:
64,192,24150,1,0,0:0:0:0:
320,192,24150,1,0,0:0:0:0:
192,192,24337,1,0,0:0:0:0:
448,192,24525,128,0,24712:0:0:0:0:
64,192,24712,128,0,24900:0:0:0:0:
320,192,24712,1,0,0:0:0:0:
192,192,24712,1,0,0:0:0:0:
192,192,24900,1,0,0:0:0:0:
320,192,25087,1,0,0:0:0:0:
448,192,25275,1,0,0:0:0:0:
192,192,25275,1,0,0:0:0:0:
64,192,25275,1,0,0:0:0:0:
320,192,25462,1,0,0:0:0:0:
64,192,25650,1,0,0:0:0:0:
448,192,25650,1,0,0:0:0:0:
192,192,25837,1,0,0:0:0:0:
320,192,25837,1,0,0:0:0:0:
64,192,26025,128,0,26212:0:0:0:0:
192,192,26212,128,0,26400:0:0:0:0:
320,192,26212,1,0,0:0:0:0:
448,192,26400,1,0,0:0:0:0:
64,192,26400,1,0,0:0:0:0:
320,192,26587,1,0,0:0:0:0:
64,192,26775,1,0,0:0:0:0:
192,192,26775,1,0,0:0:0:0:
320,192,26868,1,0,0:0:0:0:
448,192,26962,1,0,0:0:0:0:
64,192,27056,1,0,0:0:0:0:
192,192,27150,1,0,0:0:0:0:
320,192,27150,1,0,0:0:0:0:
448,192,27150,1,0,0:0:0:0:
64,192,27337,1,0,0:0:0:0:
448,192,27525,1,0,0:0:0:0:
320,192,27712,1,0,0:0:0:0:
192,192,27712,1,0,0:0:0:0:
64,192,27712,128,0,27900:0:0:0:0:
448,192,27900,128,0,28087:0:0:0:0:
192,192,28087,128,0,28275:0:0:0:0:
320,192,28275,128,0,28462:0:0:0:0:
448,192,28275,1,0,0:0:0:0:
64,192,28275,1,0,0:0:0:0:
64,192,28462,128,0,28650:0:0:0:0:
448,192,28650,128,0,28837:0:0:0:0:
192,192,28837,128,0,29025:0:0:0:0:
64,192,28837,1,0,0:0:0:0:
320,192,28837,1,0,0:0:0:0:
320,192,29025,128,0,29212:0:0:0:0:
64,192,29212,128,0,29400:0:0:0:0:
448,192,29400,128,0,29587:0:0:0:0:
192,192,29400,1,0,0:0:0:0:
320,192,29400,1,0,0:0:0:0:
320,192,29587,128,0,29775:0:0:0:0:
192,192,29775,128,0,29962:0:0:0:0:
448,192,29775,1,0,0:0:0:0:
64,192,29962,128,0,30150:0:0:0:0:
192,192,30150,1,0,0:0:0:0:
448,192,30150,1,0,0:0:0:0:
320,192,30337,1,0,0:0:0:0:
192,192,30525,1,0,0:0:0:0:
64,192,30525,1,0,0:0:0:0:
320,192,30712,1,0,0:0:0:0:
448,192,30712,1,0,0:0:0:0:
64,192,30712,1,0,0:0:0:0:
192,192,30900,1,0,0:0:0:0:
320,192,31087,1,0,0:0:0:0:
448,192,31275,1,0,0:0:0:0:
192,192,31275,1,0,0:0:0:0:
64,192,31275,1,0,0:0:0:0:
320,192,31462,1,0,0:0:0:0:
192,192,31650,1,0,0:0:0:0:
448,192,31650,1,0,0:0:0:0:
320,192,31837,1,0,0:0:0:0:
64,192,31837,1,0,0:0:0:0:
192,192,31837,1,0,0:0:0:0:
448,192,32025,1,0,0:0:0:0:
192,192,32212,1,0,0:0:0:0:
64,192,32212,1,0,0:0:0:0:
320,192,32400,1,0,0:0:0:0:
448,192,32400,1,0,0:0:0:0:
64,192,32587,1,0,0:0:0:0:
192,192,32775,1,0,0:0:0:0:
320,192,32775,1,0,0:0:0:0:
448,192,32868,1,0,0:0:0:0:
320,192,32962,1,0,0:0:0:0:
192,192,33056,1,0,0:0:0:0:
64,192,33150,1,0,0:0:0:0:
448,192,33150,1,0,0:0:0:0:
320,192,33150,1,0,0:0:0:0:
192,192,33337,1,0,0:0:0:0:
448,192,33525,1,0,0:0:0:0:
320,192,33712,1,0,0:0:0:0:
64,192,33712,1,0,0:0:0:0:
192,192,33712,1,0,0:0:0:0:
192,192,33900,1,0,0:0:0:0:
448,192,34087,1,0,0:0:0:0:
320,192,34275,1,0,0:0:0:0:
192,192,34275,1,0,0:0:0:0:
64,192,34275,1,0,0:0:0:0:
192,192,34462,1,0,0:0:0:0:
448,192,34650,1,0,0:0:0:0:
320,192,34837,1,0,0:0:0:0:
192,192,34837,1,0,0:0:0:0:
64,192,34837,1,0,0:0:0:0:
192,192,35025,1,0,0:0:0:0:
320,192,35212,1,0,0:0:0:0:
448,192,35400,1,0,0:0:0:0:
192,192,35400,1,0,0:0:0:0:
64,192,35400,1,0,0:0:0:0:
320,192,35400,1,0,0:0:0:0:
192,192,35775,1,0,0:0:0:0:
320,192,35775,1,0,0:0:0:0:
64,192,36150,1,0,0:0:0:0:
192,192,36150,1,0,0:0:0:0:
320,192,36150,1,0,0:0:0:0:
448,192,36150,1,0,0:0:0:0:
192,192,36337,128,0,36525:0:0:0:0:
320,192,36525,128,0,36712:0:0:0:0:
320,192,36900,1,0,0:0:0:0:
192,192,37275,1,0,0:0:0:0:
320,192,37650,1,0,0:0:0:0:
192,192,38025,1,0,0:0:0:0:
320,192,38400,1,0,0:0:0:0:
192,192,38775,1,0,0:0:0:0:
320,192,39150,1,0,0:0:0:0:
64,192,39150,128,0,39337:0:0:0:0:
192,192,39525,1,0,0:0:0:0:
320,192,39900,1,0,0:0:0:0:
192,192,40275,1,0,0:0:0:0:
320,192,40650,1,0,0:0:0:0:
448,192,40650,128,0,42150:0:0:0:0:
192,192,41025,1,0,0:0:0:0:
320,192,41400,128,0,42150:0:0:0:0:
64,192,42150,1,0,0:0:0:0:
192,192,42150,1,0,0:0:0:0:
192,192,42525,1,0,0:0:0:0:
320,192,42712,1,0,0:0:0:0:
448,192,42712,1,0,0:0:0:0:
64,192,42712,1,0,0:0:0:0:
192,192,43087,1,0,0:0:0:0:
320,192,43275,1,0,0:0:0:0:
448,192,43275,1,0,0:0:0:0:
64,192,43462,1,0,0:0:0:0:
192,192,43650,1,0,0:0:0:0:
320,192,43650,1,0,0:0:0:0:
448,192,43837,1,0,0:0:0:0:
320,192,44025,1,0,0:0:0:0:
192,192,44212,1,0,0:0:0:0:
64,192,44212,1,0,0:0:0:0:
448,192,44212,1,0,0:0:0:0:
64,192,44587,1,0,0:0:0:0:
192,192,44775,1,0,0:0:0:0:
448,192,44775,1,0,0:0:0:0:
320,192,44775,1,0,0:0:0:0:
64,192,44962,1,0,0:0:0:0:
448,192,45150,1,0,0:0:0:0:
192,192,45150,1,0,0:0:0:0:
64,192,45712,1,0,0:0:0:0:
448,192,45712,1,0,0:0:0:0:
192,192,45712,1,0,0:0:0:0:
320,192,45900,1,0,0:0:0:0:
192,192,46087,1,0,0:0:0:0:
320,192,46275,1,0,0:0:0:0:
64,192,46275,1,0,0:0:0:0:
448,192,46275,1,0,0:0:0:0:
192,192,46462,1,0,0:0:0:0:
320,192,46650,1,0,0:0:0:0:
448,192,46837,1,0,0:0:0:0:
192,192,46837,1,0,0:0:0:0:
64,192,46837,1,0,0:0:0:0:
320,192,47025,1,0,0:0:0:0:
64,192,47212,1,0,0:0:0:0:
448,192,47400,1,0,0:0:0:0:
320,192,47400,1,0,0:0:0:0:
192,192,47400,1,0,0:0:0:0:
64,192,47587,1,0,0:0:0:0:
320,192,47775,1,0,0:0:0:0:
192,192,47775,1,0,0:0:0:0:
448,192,47775,1,0,0:0:0:0:
64,192,47962,1,0,0:0:0:0:
448,192,48150,1,0,0:0:0:0:
192,192,48150,1,0,0:0:0:0:
320,192,48525,1,0,0:0:0:0:
64,192,48712,1,0,0:0:0:0:
448,192,48712,1,0,0:0:0:0:
192,192,48712,1,0,0:0:0:0:
320,192,49087,1,0,0:0:0:0:
448,192,49275,1,0,0:0:0:0:
64,192,49275,1,0,0:0:0:0:
320,192,49462,1,0,0:0:0:0:
192,192,49650,1,0,0:0:0:0:
64,192,49650,1,0,0:0:0:0:
320,192,49837,1,0,0:0:0:0:
448,192,50025,1,0,0:0:0:0:
64,192,50212,1,0,0:0:0:0:
320,192,50212,1,0,0:0:0:0:
192,192,50212,1,0,0:0:0:0:
192,192,50587,1,0,0:0:0:0:
64,192,50775,1,0,0:0:0:0:
448,192,50775,1,0,0:0:0:0:
320,192,50775,1,0,0:0:0:0:
192,192,50962,1,0,0:0:0:0:
64,192,51150,1,0,0:0:0:0:
320,192,51150,1,0,0:0:0:0:
192,192,51712,1,0,0:0:0:0:
64,192,51900,1,0,0:0:0:0:
320,192,51900,1,0,0:0:0:0:
448,192,51900,1,0,0:0:0:0:
192,192,52087,1,0,0:0:0:0:
448,192,52275,1,0,0:0:0:0:
64,192,52275,1,0,0:0:0:0:
320,192,52275,1,0,0:0:0:0:
192,192,52462,1,0,0:0:0:0:
320,192,52650,1,0,0:0:0:0:
448,192,52837,1,0,0:0:0:0:
192,192,52837,1,0,0:0:0:0:
64,192,52837,1,0,0:0:0:0:
320,192,53025,1,0,0:0:0:0:
448,192,53212,1,0,0:0:0:0:
320,192,53400,1,0,0:0:0:0:
192,192,53400,1,0,0:0:0:0:
64,192,53400,1,0,0:0:0:0:
448,192,53587,1,0,0:0:0:0:
320,192,53775,1,0,0:0:0:0:
192,192,53775,1,0,0:0:0:0:
64,192,53775,1,0,0:0:0:0:
448,192,53962,1,0,0:0:0:0:
320,192,54150,1,0,0:0:0:0:
64,192,54150,1,0,0:0:0:0:
192,192,54150,1,0,0:0:0:0:
192,192,54525,1,0,0:0:0:0:
320,192,54712,1,0,0:0:0:0:
448,192,54712,1,0,0:0:0:0:
192,192,55087,1,0,0:0:0:0:
320,192,55275,1,0,0:0:0:0:
64,192,55275,1,0,0:0:0:0:
192,192,55462,1,0,0:0:0:0:
320,192,55650,1,0,0:0:0:0:
448,192,55650,1,0,0:0:0:0:
192,192,55837,1,0,0:0:0:0:
448,192,56212,1,0,0:0:0:0:
320,192,56212,1,0,0:0:0:0:
64,192,56212,1,0,0:0:0:0:
192,192,56400,1,0,0:0:0:0:
64,192,56587,1,0,0:0:0:0:
448,192,56775,1,0,0:0:0:0:
192,192,56775,1,0,0:0:0:0:
320,192,56775,1,0,0:0:0:0:
64,192,56962,1,0,0:0:0:0:
192,192,57150,1,0,0:0:0:0:
320,192,57150,1,0,0:0:0:0:
448,192,57712,1,0,0:0:0:0:
320,192,57900,1,0,0:0:0:0:
192,192,57900,1,0,0:0:0:0:
64,192,57900,1,0,0:0:0:0:
448,192,58087,1,0,0:0:0:0:
320,192,58275,1,0,0:0:0:0:
192,192,58275,1,0,0:0:0:0:
64,192,58275,1,0,0:0:0:0:
448,192,58462,1,0,0:0:0:0:
192,192,58650,1,0,0:0:0:0:
64,192,58837,1,0,0:0:0:0:
448,192,58837,1,0,0:0:0:0:
320,192,58837,1,0,0:0:0:0:
192,192,59025,1,0,0:0:0:0:
320,192,59212,1,0,0:0:0:0:
192,192,59400,1,0,0:0:0:0:
64,192,59400,1,0,0:0:0:0:
448,192,59400,1,0,0:0:0:0:
320,192,59587,1,0,0:0:0:0:
192,192,59775,1,0,0:0:0:0:
64,192,59775,1,0,0:0:0:0:
448,192,59775,1,0,0:0:0:0:
320,192,59962,1,0,0:0:0:0:
192,192,60150,1,0,0:0:0:0:
448,192,60150,1,0,0:0:0:0:
192,192,60525,1,0,0:0:0:0:
320,192,60712,1,0,0:0:0:0:
448,192,60712,1,0,0:0:0:0:
64,192,60712,1,0,0:0:0:0:
320,192,61087,1,0,0:0:0:0:
192,192,61275,1,0,0:0:0:0:
448,192,61275,1,0,0:0:0:0:
320,192,61462,1,0,0:0:0:0:
192,192,61650,1,0,0:0:0:0:
448,192,61650,1,0,0:0:0:0:
64,192,61837,1,0,0:0:0:0:
64,192,62212,1,0,0:0:0:0:
192,192,62212,1,0,0:0:0:0:
448,192,62212,1,0,0:0:0:0:
448,192,62587,1,0,0:0:0:0:
192,192,62775,1,0,0:0:0:0:
320,192,62775,1,0,0:0:0:0:
64,192,62962,1,0,0:0:0:0:
192,192,63150,1,0,0:0:0:0:
448,192,63150,1,0,0:0:0:0:
192,192,63712,1,0,0:0:0:0:
64,192,63900,1,0,0:0:0:0:
320,192,63900,1,0,0:0:0:0:
448,192,63900,1,0,0:0:0:0:
192,192,64087,1,0,0:0:0:0:
64,192,64275,1,0,0:0:0:0:
320,192,64275,1,0,0:0:0:0:
448,192,64275,1,0,0:0:0:0:
192,192,64462,1,0,0:0:0:0:
448,192,64650,1,0,0:0:0:0:
64,192,64837,1,0,0:0:0:0:
192,192,64837,1,0,0:0:0:0:
320,192,64837,1,0,0:0:0:0:
448,192,65025,1,0,0:0:0:0:
64,192,65212,1,0,0:0:0:0:
192,192,65400,1,0,0:0:0:0:
320,192,65400,1,0,0:0:0:0:
448,192,65400,1,0,0:0:0:0:
64,192,65587,1,0,0:0:0:0:
192,192,65775,1,0,0:0:0:0:
320,192,65775,1,0,0:0:0:0:
448,192,65775,1,0,0:0:0:0:
64,192,65962,1,0,0:0:0:0:
64,192,66150,1,0,0:0:0:0:
448,192,66150,1,0,0:0:0:0:
320,192,66150,128,0,66243:0:0:0:0:
192,192,66337,128,0,66431:0:0:0:0:
320,192,66525,128,0,66618:0:0:0:0:
192,192,66712,128,0,66806:0:0:0:0:
64,192,66712,128,0,66759:0:0:0:0:
320,192,66900,128,0,66993:0:0:0:0:
192,192,67087,128,0,67181:0:0:0:0:
320,192,67275,128,0,67368:0:0:0:0:
192,192,67462,128,0,67556:0:0:0:0:
64,192,67462,128,0,67509:0:0:0:0:
448,192,67650,1,0,0:0:0:0:
320,192,67650,128,0,67743:0:0:0:0:
192,192,67837,128,0,67931:0:0:0:0:
64,192,67837,1,0,0:0:0:0:
320,192,68025,128,0,68118:0:0:0:0:
448,192,68025,1,0,0:0:0:0:
192,192,68212,128,0,68306:0:0:0:0:
64,192,68212,128,0,68259:0:0:0:0:
320,192,68400,128,0,68493:0:0:0:0:
192,192,68587,128,0,68681:0:0:0:0:
64,192,68587,1,0,0:0:0:0:
320,192,68775,128,0,68868:0:0:0:0:
448,192,68775,1,0,0:0:0:0:
192,192,68962,128,0,69056:0:0:0:0:
64,192,68962,128,0,69009:0:0:0:0:
448,192,69150,1,0,0:0:0:0:
320,192,69150,1,0,0:0:0:0:
192,192,69150,1,0,0:0:0:0:
448,192,69525,1,0,0:0:0:0:
320,192,69525,128,0,69618:0:0:0:0:
192,192,69712,128,0,69806:0:0:0:0:
320,192,69712,1,0,0:0:0:0:
64,192,70087,1,0,0:0:0:0:
192,192,70087,128,0,70181:0:0:0:0:
192,192,70462,1,0,0:0:0:0:
320,192,70509,128,0,70603:0:0:0:0:
448,192,71025,1,0,0:0:0:0:
320,192,71025,128,0,71118:0:0:0:0:
64,192,71400,1,0,0:0:0:0:
448,192,71400,1,0,0:0:0:0:
64,192,71587,1,0,0:0:0:0:
192,192,71610,1,0,0:0:0:0:
320,192,71634,1,0,0:0:0:0:
64,192,71775,1,0,0:0:0:0:
192,192,71821,1,0,0:0:0:0:
64,192,71962,1,0,0:0:0:0:
192,192,71962,1,0,0:0:0:0:
448,192,71962,1,0,0:0:0:0:
192,192,72150,1,0,0:0:0:0:
64,192,72150,1,0,0:0:0:0:
320,192,72150,1,0,0:0:0:0:
448,192,72150,128,0,72243:0:0:0:0:
192,192,72337,1,0,0:0:0:0:
448,192,72525,1,0,0:0:0:0:
64,192,72525,1,0,0:0:0:0:
320,192,72525,128,0,72618:0:0:0:0:
448,192,72712,1,0,0:0:0:0:
64,192,72900,1,0,0:0:0:0:
192,192,72900,128,0,72993:0:0:0:0:
320,192,72900,1,0,0:0:0:0:
64,192,73087,1,0,0:0:0:0:
64,192,73275,128,0,73368:0:0:0:0:
320,192,73275,1,0,0:0:0:0:
448,192,73275,1,0,0:0:0:0:
320,192,73462,1,0,0:0:0:0:
192,192,73650,1,0,0:0:0:0:
448,192,73650,1,0,0:0:0:0:
320,192,73650,128,0,74025:0:0:0:0:
64,192,73837,1,0,0:0:0:0:
64,192,74025,1,0,0:0:0:0:
448,192,74025,1,0,0:0:0:0:
192,192,74025,128,0,74400:0:0:0:0:
320,192,74212,1,0,0:0:0:0:
64,192,74400,1,0,0:0:0:0:
320,192,74400,1,0,0:0:0:0:
448,192,74400,128,0,74775:0:0:0:0:
192,192,74587,1,0,0:0:0:0:
192,192,74775,1,0,0:0:0:0:
320,192,74775,1,0,0:0:0:0:
64,192,74775,128,0,75150:0:0:0:0:
320,192,74962,1,0,0:0:0:0:
448,192,74962,1,0,0:0:0:0:
192,192,75150,128,0,75243:0:0:0:0:
320,192,75150,128,0,75243:0:0:0:0:
448,192,75150,1,0,0:0:0:0:
64,192,75337,128,0,75431:0:0:0:0:
192,192,75337,128,0,75431:0:0:0:0:
320,192,75525,128,0,75618:0:0:0:0:
448,192,75525,128,0,75618:0:0:0:0:
64,192,75712,128,0,75806:0:0:0:0:
320,192,75712,128,0,75806:0:0:0:0:
192,192,75712,1,0,0:0:0:0:
192,192,75900,128,0,75993:0:0:0:0:
448,192,75900,128,0,75993:0:0:0:0:
320,192,75900,1,0,0:0:0:0:
448,192,76087,128,0,76181:0:0:0:0:
64,192,76087,128,0,76181:0:0:0:0:
320,192,76275,128,0,76368:0:0:0:0:
448,192,76275,128,0,76368:0:0:0:0:
192,192,76275,1,0,0:0:0:0:
192,192,76462,128,0,76556:0:0:0:0:
64,192,76462,128,0,76556:0:0:0:0:
448,192,76650,128,0,76743:0:0:0:0:
64,192,76650,128,0,76743:0:0:0:0:
64,192,76837,128,0,76931:0:0:0:0:
192,192,76837,128,0,76931:0:0:0:0:
320,192,76837,1,0,0:0:0:0:
192,192,77025,128,0,77118:0:0:0:0:
320,192,77025,128,0,77118:0:0:0:0:
448,192,77025,1,0,0:0:0:0:
320,192,77212,128,0,77306:0:0:0:0:
448,192,77212,128,0,77306:0:0:0:0:
64,192,77400,1,0,0:0:0:0:
448,192,77587,1,0,0:0:0:0:
320,192,77634,1,0,0:0:0:0:
192,192,77681,1,0,0:0:0:0:
64,192,77775,1,0,0:0:0:0:
448,192,77775,1,0,0:0:0:0:
192,192,77962,1,0,0:0:0:0:
320,192,77962,1,0,0:0:0:0:
64,192,78150,1,0,0:0:0:0:
320,192,78150,1,0,0:0:0:0:
192,192,78150,128,0,78243:0:0:0:0:
448,192,78150,1,0,0:0:0:0:
192,192,78337,1,0,0:0:0:0:
448,192,78525,1,0,0:0:0:0:
192,192,78525,1,0,0:0:0:0:
64,192,78525,128,0,78618:0:0:0:0:
320,192,78712,1,0,0:0:0:0:
192,192,78900,1,0,0:0:0:0:
448,192,78900,128,0,78993:0:0:0:0:
320,192,78900,1,0,0:0:0:0:
64,192,79087,1,0,0:0:0:0:
192,192,79275,128,0,79368:0:0:0:0:
320,192,79275,1,0,0:0:0:0:
64,192,79275,1,0,0:0:0:0:
448,192,79462,1,0,0:0:0:0:
64,192,79650,1,0,0:0:0:0:
448,192,79650,1,0,0:0:0:0:
320,192,79650,128,0,80025:0:0:0:0:
192,192,79837,1,0,0:0:0:0:
64,192,80025,1,0,0:0:0:0:
448,192,80025,128,0,80400:0:0:0:0:
192,192,80025,1,0,0:0:0:0:
320,192,80212,1,0,0:0:0:0:
64,192,80400,1,0,0:0:0:0:
320,192,80400,1,0,0:0:0:0:
192,192,80400,128,0,80775:0:0:0:0:
448,192,80587,1,0,0:0:0:0:
320,192,80775,1,0,0:0:0:0:
64,192,80775,128,0,81150:0:0:0:0:
448,192,80775,1,0,0:0:0:0:
448,192,80962,1,0,0:0:0:0:
192,192,80962,1,0,0:0:0:0:
320,192,81150,1,0,0:0:0:0:
192,192,81150,128,0,81243:0:0:0:0:
448,192,81150,128,0,81243:0:0:0:0:
64,192,81337,128,0,81431:0:0:0:0:
320,192,81337,128,0,81431:0:0:0:0:
192,192,81525,128,0,81618:0:0:0:0:
448,192,81525,128,0,81618:0:0:0:0:
64,192,81712,128,0,81806:0:0:0:0:
192,192,81712,128,0,81806:0:0:0:0:
320,192,81712,1,0,0:0:0:0:
320,192,81900,128,0,81993:0:0:0:0:
448,192,81900,128,0,81993:0:0:0:0:
192,192,81900,1,0,0:0:0:0:
320,192,82087,128,0,82181:0:0:0:0:
192,192,82087,128,0,82181:0:0:0:0:
64,192,82275,128,0,82368:0:0:0:0:
448,192,82275,128,0,82368:0:0:0:0:
192,192,82275,1,0,0:0:0:0:
192,192,82462,128,0,82556:0:0:0:0:
64,192,82462,128,0,82556:0:0:0:0:
448,192,82650,128,0,82743:0:0:0:0:
64,192,82650,128,0,82743:0:0:0:0:
64,192,82837,128,0,82931:0:0:0:0:
192,192,82837,128,0,82931:0:0:0:0:
448,192,82837,1,0,0:0:0:0:
192,192,83025,128,0,83118:0:0:0:0:
448,192,83025,128,0,83118:0:0:0:0:
64,192,83025,1,0,0:0:0:0:
192,192,83212,128,0,83306:0:0:0:0:
448,192,83212,128,0,83306:0:0:0:0:
64,192,83400,1,0,0:0:0:0:
192,192,83587,1,0,0:0:0:0:
320,192,83634,1,0,0:0:0:0:
448,192,83681,1,0,0:0:0:0:
64,192,83775,1,0,0:0:0:0:
192,192,83775,1,0,0:0:0:0:
64,192,83962,1,0,0:0:0:0:
448,192,83962,1,0,0:0:0:0:
448,192,84150,1,0,0:0:0:0:
64,192,84150,128,0,84525:0:0:0:0:
192,192,84525,1,0,0:0:0:0:
320,192,84712,1,0,0:0:0:0:
448,192,84900,1,0,0:0:0:0:
192,192,84900,128,0,85087:0:0:0:0:
320,192,85087,128,0,85275:0:0:0:0:
64,192,85275,128,0,85462:0:0:0:0:
448,192,85275,1,0,0:0:0:0:
192,192,85462,128,0,85650:0:0:0:0:
64,192,85650,128,0,85837:0:0:0:0:
448,192,85837,128,0,86025:0:0:0:0:
320,192,85837,1,0,0:0:0:0:
192,192,86025,1,0,0:0:0:0:
64,192,86025,128,0,86212:0:0:0:0:
320,192,86212,128,0,86400:0:0:0:0:
192,192,86400,128,0,86587:0:0:0:0:
448,192,86400,1,0,0:0:0:0:
64,192,86587,128,0,86775:0:0:0:0:
320,192,86775,128,0,86962:0:0:0:0:
192,192,86962,128,0,87150:0:0:0:0:
448,192,87150,1,0,0:0:0:0:
320,192,87150,128,0,87243:0:0:0:0:
64,192,87150,128,0,87243:0:0:0:0:
320,192,87337,128,0,87431:0:0:0:0:
192,192,87337,128,0,87431:0:0:0:0:
192,192,87525,128,0,87618:0:0:0:0:
448,192,87525,128,0,87618:0:0:0:0:
64,192,87712,1,0,0:0:0:0:
320,192,87712,128,0,87806:0:0:0:0:
448,192,87712,128,0,87806:0:0:0:0:
192,192,87900,1,0,0:0:0:0:
64,192,87900,128,0,87993:0:0:0:0:
448,192,87900,128,0,87993:0:0:0:0:
192,192,88087,128,0,88181:0:0:0:0:
320,192,88087,128,0,88181:0:0:0:0:
448,192,88275,1,0,0:0:0:0:
64,192,88275,128,0,88368:0:0:0:0:
192,192,88275,128,0,88368:0:0:0:0:
320,192,88462,128,0,88556:0:0:0:0:
448,192,88462,128,0,88556:0:0:0:0:
64,192,88650,128,0,88743:0:0:0:0:
448,192,88650,128,0,88743:0:0:0:0:
320,192,88837,1,0,0:0:0:0:
192,192,88837,128,0,88931:0:0:0:0:
64,192,88837,128,0,88931:0:0:0:0:
192,192,89025,1,0,0:0:0:0:
320,192,89025,128,0,89118:0:0:0:0:
448,192,89025,128,0,89118:0:0:0:0:
192,192,89212,128,0,89306:0:0:0:0:
320,192,89212,128,0,89306:0:0:0:0:
64,192,89400,1,0,0:0:0:0:
448,192,89587,1,0,0:0:0:0:
192,192,89634,1,0,0:0:0:0:
64,192,89681,1,0,0:0:0:0:
448,192,89775,1,0,0:0:0:0:
320,192,89775,1,0,0:0:0:0:
192,192,89962,1,0,0:0:0:0:
64,192,89962,1,0,0:0:0:0:
448,192,90150,128,0,90243:0:0:0:0:
192,192,90150,1,0,0:0:0:0:
320,192,90150,1,0,0:0:0:0:
64,192,90150,1,0,0:0:0:0:
192,192,90337,1,0,0:0:0:0:
320,192,90525,1,0,0:0:0:0:
192,192,90525,128,0,90618:0:0:0:0:
64,192,90525,1,0,0:0:0:0:
448,192,90712,1,0,0:0:0:0:
320,192,90900,128,0,90993:0:0:0:0:
64,192,90900,1,0,0:0:0:0:
448,192,90900,1,0,0:0:0:0:
192,192,91087,1,0,0:0:0:0:
64,192,91275,128,0,91368:0:0:0:0:
192,192,91275,1,0,0:0:0:0:
448,192,91275,1,0,0:0:0:0:
320,192,91462,1,0,0:0:0:0:
64,192,91650,128,0,92025:0:0:0:0:
192,192,91650,1,0,0:0:0:0:
448,192,91650,1,0,0:0:0:0:
320,192,91837,1,0,0:0:0:0:
192,192,92025,128,0,92400:0:0:0:0:
448,192,92025,1,0,0:0:0:0:
320,192,92025,1,0,0:0:0:0:
448,192,92212,1,0,0:0:0:0:
320,192,92400,128,0,92775:0:0:0:0:
448,192,92400,1,0,0:0:0:0:
64,192,92400,1,0,0:0:0:0:
64,192,92587,1,0,0:0:0:0:
448,192,92775,128,0,93150:0:0:0:0:
64,192,92775,1,0,0:0:0:0:
192,192,92775,1,0,0:0:0:0:
192,192,92962,1,0,0:0:0:0:
64,192,93150,128,0,93243:0:0:0:0:
192,192,93150,128,0,93243:0:0:0:0:
320,192,93150,1,0,0:0:0:0:
320,192,93337,128,0,93431:0:0:0:0:
448,192,93337,128,0,93431:0:0:0:0:
192,192,93525,128,0,93618:0:0:0:0:
64,192,93525,128,0,93618:0:0:0:0:
192,192,93712,1,0,0:0:0:0:
320,192,93712,128,0,93806:0:0:0:0:
448,192,93712,128,0,93806:0:0:0:0:
64,192,93900,128,0,93993:0:0:0:0:
320,192,93900,128,0,93993:0:0:0:0:
448,192,93900,1,0,0:0:0:0:
192,192,94087,128,0,94181:0:0:0:0:
448,192,94087,128,0,94181:0:0:0:0:
320,192,94275,128,0,94368:0:0:0:0:
64,192,94275,128,0,94368:0:0:0:0:
192,192,94275,1,0,0:0:0:0:
192,192,94462,128,0,94556:0:0:0:0:
448,192,94462,128,0,94556:0:0:0:0:
64,192,94650,128,0,94743:0:0:0:0:
448,192,94837,128,0,94931:0:0:0:0:
192,192,94837,1,0,0:0:0:0:
64,192,95025,1,0,0:0:0:0:
320,192,95025,128,0,95118:0:0:0:0:
192,192,95212,128,0,95306:0:0:0:0:
448,192,95400,1,0,0:0:0:0:
64,192,95587,1,0,0:0:0:0:
192,192,95634,1,0,0:0:0:0:
320,192,95681,1,0,0:0:0:0:
64,192,95775,1,0,0:0:0:0:
192,192,95775,1,0,0:0:0:0:
320,192,95962,1,0,0:0:0:0:
448,192,95962,1,0,0:0:0:0:
64,192,96150,1,0,0:0:0:0:
320,192,96150,1,0,0:0:0:0:
192,192,96150,1,0,0:0:0:0:
448,192,96150,1,0,0:0:0:0:
64,192,96712,1,0,0:0:0:0:
192,192,96712,1,0,0:0:0:0:
64,192,97275,1,0,0:0:0:0:
192,192,97275,1,0,0:0:0:0:
64,192,97650,1,0,0:0:0:0:
192,192,97650,1,0,0:0:0:0:
192,192,98212,1,0,0:0:0:0:
64,192,98212,1,0,0:0:0:0:
64,192,98775,1,0,0:0:0:0:
192,192,98775,1,0,0:0:0:0:
320,192,98962,1,0,0:0:0:0:
192,192,99056,1,0,0:0:0:0:
320,192,99150,1,0,0:0:0:0:
448,192,99150,1,0,0:0:0:0:
320,192,99712,1,0,0:0:0:0:
448,192,99712,1,0,0:0:0:0:
320,192,100275,1,0,0:0:0:0:
448,192,100275,1,0,0:0:0:0:
320,192,100837,1,0,0:0:0:0:
448,192,100837,1,0,0:0:0:0:
448,192,101400,1,0,0:0:0:0:
320,192,101400,128,0,101587:0:0:0:0:
192,192,101587,128,0,101775:0:0:0:0:
320,192,101775,128,0,101962:0:0:0:0:
192,192,101962,128,0,102150:0:0:0:0:
64,192,102150,1,0,0:0:0:0:
448,192,102150,1,0,0:0:0:0:
320,192,102150,1,0,0:0:0:0:
64,192,102712,1,0,0:0:0:0:
448,192,102712,1,0,0:0:0:0:
320,192,102712,1,0,0:0:0:0:
64,192,103275,1,0,0:0:0:0:
448,192,103275,1,0,0:0:0:0:
64,192,103650,1,0,0:0:0:0:
448,192,103650,1,0,0:0:0:0:
64,192,104212,1,0,0:0:0:0:
448,192,104212,1,0,0:0:0:0:
64,192,104775,1,0,0:0:0:0:
448,192,104775,1,0,0:0:0:0:
320,192,104962,1,0,0:0:0:0:
448,192,105056,1,0,0:0:0:0:
320,192,105150,1,0,0:0:0:0:
192,192,105150,1,0,0:0:0:0:
192,192,105712,1,0,0:0:0:0:
320,192,105712,1,0,0:0:0:0:
192,192,106275,1,0,0:0:0:0:
320,192,106275,1,0,0:0:0:0:
192,192,106837,1,0,0:0:0:0:
320,192,106837,1,0,0:0:0:0:
192,192,107400,1,0,0:0:0:0:
320,192,107400,128,0,107587:0:0:0:0:
448,192,107587,128,0,107775:0:0:0:0:
64,192,107775,128,0,107962:0:0:0:0:
192,192,107775,1,0,0:0:0:0:
192,192,107962,128,0,108150:0:0:0:0:
320,192,107962,1,0,0:0:0:0:
448,192,108056,1,0,0:0:0:0:
320,192,108150,1,0,0:0:0:0:
64,192,108150,1,0,0:0:0:0:
448,192,108337,1,0,0:0:0:0:
320,192,108525,1,0,0:0:0:0:
192,192,108712,1,0,0:0:0:0:
64,192,108712,1,0,0:0:0:0:
320,192,108900,1,0,0:0:0:0:
448,192,108900,1,0,0:0:0:0:
64,192,109087,1,0,0:0:0:0:
192,192,109275,1,0,0:0:0:0:
320,192,109275,1,0,0:0:0:0:
448,192,109462,1,0,0:0:0:0:
320,192,109650,1,0,0:0:0:0:
64,192,109650,1,0,0:0:0:0:
192,192,109837,1,0,0:0:0:0:
448,192,110025,1,0,0:0:0:0:
320,192,110212,1,0,0:0:0:0:
64,192,110212,1,0,0:0:0:0:
448,192,110400,1,0,0:0:0:0:
192,192,110400,1,0,0:0:0:0:
320,192,110587,1,0,0:0:0:0:
64,192,110775,1,0,0:0:0:0:
448,192,110775,1,0,0:0:0:0:
192,192,110962,1,0,0:0:0:0:
320,192,111056,1,0,0:0:0:0:
448,192,111150,1,0,0:0:0:0:
64,192,111150,1,0,0:0:0:0:
192,192,111337,1,0,0:0:0:0:
320,192,111525,1,0,0:0:0:0:
448,192,111712,1,0,0:0:0:0:
192,192,111712,1,0,0:0:0:0:
320,192,111900,1,0,0:0:0:0:
64,192,111900,1,0,0:0:0:0:
192,192,112087,1,0,0:0:0:0:
320,192,112275,1,0,0:0:0:0:
448,192,112275,1,0,0:0:0:0:
192,192,112462,1,0,0:0:0:0:
320,192,112650,1,0,0:0:0:0:
192,192,112837,1,0,0:0:0:0:
64,192,112837,1,0,0:0:0:0:
448,192,113025,1,0,0:0:0:0:
64,192,113212,1,0,0:0:0:0:
192,192,113400,1,0,0:0:0:0:
320,192,113400,128,0,113587:0:0:0:0:
64,192,113587,128,0,113775:0:0:0:0:
448,192,113775,128,0,113962:0:0:0:0:
320,192,113775,1,0,0:0:0:0:
192,192,113962,128,0,114150:0:0:0:0:
64,192,113962,1,0,0:0:0:0:
320,192,114056,1,0,0:0:0:0:
448,192,114150,1,0,0:0:0:0:
64,192,114150,1,0,0:0:0:0:
320,192,114337,1,0,0:0:0:0:
192,192,114525,1,0,0:0:0:0:
320,192,114712,1,0,0:0:0:0:
448,192,114712,1,0,0:0:0:0:
192,192,114900,1,0,0:0:0:0:
64,192,114900,1,0,0:0:0:0:
320,192,115087,1,0,0:0:0:0:
448,192,115275,1,0,0:0:0:0:
192,192,115275,1,0,0:0:0:0:
320,192,115462,1,0,0:0:0:0:
64,192,115650,1,0,0:0:0:0:
448,192,115650,1,0,0:0:0:0:
192,192,115837,1,0,0:0:0:0:
320,192,116025,1,0,0:0:0:0:
192,192,116212,1,0,0:0:0:0:
64,192,116212,1,0,0:0:0:0:
448,192,116400,1,0,0:0:0:0:
320,192,116400,1,0,0:0:0:0:
192,192,116587,1,0,0:0:0:0:
64,192,116775,1,0,0:0:0:0:
448,192,116775,1,0,0:0:0:0:
320,192,116962,1,0,0:0:0:0:
192,192,117056,1,0,0:0:0:0:
64,192,117150,1,0,0:0:0:0:
320,192,117150,1,0,0:0:0:0:
192,192,117337,1,0,0:0:0:0:
320,192,117525,1,0,0:0:0:0:
192,192,117712,1,0,0:0:0:0:
448,192,117712,1,0,0:0:0:0:
64,192,117900,1,0,0:0:0:0:
320,192,117900,1,0,0:0:0:0:
448,192,118087,1,0,0:0:0:0:
64,192,118275,1,0,0:0:0:0:
192,192,118275,1,0,0:0:0:0:
320,192,118462,1,0,0:0:0:0:
192,192,118650,1,0,0:0:0:0:
64,192,118837,1,0,0:0:0:0:
320,192,118837,1,0,0:0:0:0:
192,192,119025,1,0,0:0:0:0:
320,192,119212,1,0,0:0:0:0:
448,192,119400,1,0,0:0:0:0:
64,192,119400,1,0,0:0:0:0:
192,192,119775,128,0,119868:0:0:0:0:
320,192,119962,128,0,120056:0:0:0:0:
64,192,120150,1,0,0:0:0:0:
192,192,120150,1,0,0:0:0:0:
448,192,120150,1,0,0:0:0:0:
256,192,120337,1,0,0:0:0:0:
448,192,120525,128,0,120712:0:0:0:0:
320,192,120712,1,0,0:0:0:0:
153,192,120712,128,0,120900:0:0:0:0:
256,192,120900,1,0,0:0:0:0:
64,192,121087,1,0,0:0:0:0:
192,192,121275,1,0,0:0:0:0:
448,192,121275,1,0,0:0:0:0:
64,192,121462,1,0,0:0:0:0:
320,192,121650,1,0,0:0:0:0:
448,192,121650,1,0,0:0:0:0:
64,192,121837,1,0,0:0:0:0:
153,192,122025,128,0,122212:0:0:0:0:
448,192,122212,128,0,122400:0:0:0:0:
320,192,122212,1,0,0:0:0:0:
256,192,122400,1,0,0:0:0:0:
64,192,122587,1,0,0:0:0:0:
448,192,122775,1,0,0:0:0:0:
256,192,122775,128,0,122962:0:0:0:0:
153,192,122962,128,0,123150:0:0:0:0:
448,192,123150,1,0,0:0:0:0:
320,192,123150,1,0,0:0:0:0:
64,192,123337,1,0,0:0:0:0:
192,192,123525,1,0,0:0:0:0:
320,192,123712,128,0,123900:0:0:0:0:
64,192,123712,1,0,0:0:0:0:
448,192,123900,128,0,124087:0:0:0:0:
192,192,124087,128,0,124275:0:0:0:0:
64,192,124275,128,0,124462:0:0:0:0:
320,192,124275,1,0,0:0:0:0:
320,192,124462,128,0,124650:0:0:0:0:
448,192,124650,128,0,124837:0:0:0:0:
192,192,124837,128,0,125025:0:0:0:0:
64,192,124837,1,0,0:0:0:0:
320,192,125025,128,0,125212:0:0:0:0:
64,192,125212,128,0,125400:0:0:0:0:
320,192,125400,128,0,125587:0:0:0:0:
448,192,125400,1,0,0:0:0:0:
192,192,125587,128,0,125775:0:0:0:0:
448,192,125775,128,0,125962:0:0:0:0:
64,192,125775,1,0,0:0:0:0:
64,192,125962,128,0,126150:0:0:0:0:
192,192,126150,128,0,126337:0:0:0:0:
320,192,126150,1,0,0:0:0:0:
448,192,126337,1,0,0:0:0:0:
320,192,126525,1,0,0:0:0:0:
192,192,126712,1,0,0:0:0:0:
64,192,126712,1,0,0:0:0:0:
448,192,126900,1,0,0:0:0:0:
320,192,127087,1,0,0:0:0:0:
448,192,127275,1,0,0:0:0:0:
192,192,127275,1,0,0:0:0:0:
64,192,127462,1,0,0:0:0:0:
320,192,127650,1,0,0:0:0:0:
192,192,127650,1,0,0:0:0:0:
448,192,127837,1,0,0:0:0:0:
192,192,128025,1,0,0:0:0:0:
320,192,128212,1,0,0:0:0:0:
448,192,128212,1,0,0:0:0:0:
64,192,128400,1,0,0:0:0:0:
320,192,128587,1,0,0:0:0:0:
448,192,128775,1,0,0:0:0:0:
64,192,128775,1,0,0:0:0:0:
192,192,128962,1,0,0:0:0:0:
448,192,129150,128,0,129337:0:0:0:0:
320,192,129150,1,0,0:0:0:0:
192,192,129337,128,0,129525:0:0:0:0:
320,192,129525,128,0,129712:0:0:0:0:
192,192,129712,1,0,0:0:0:0:
64,192,129712,128,0,129900:0:0:0:0:
192,192,129900,128,0,130087:0:0:0:0:
320,192,130087,128,0,130275:0:0:0:0:
448,192,130275,128,0,130462:0:0:0:0:
64,192,130275,1,0,0:0:0:0:
320,192,130462,128,0,130650:0:0:0:0:
192,192,130650,128,0,130837:0:0:0:0:
64,192,130837,128,0,131025:0:0:0:0:
448,192,130837,1,0,0:0:0:0:
320,192,131025,128,0,131212:0:0:0:0:
192,192,131212,128,0,131400:0:0:0:0:
448,192,131400,128,0,131587:0:0:0:0:
320,192,131400,1,0,0:0:0:0:
64,192,131587,128,0,131775:0:0:0:0:
448,192,131775,1,0,0:0:0:0:
320,192,131775,128,0,131962:0:0:0:0:
192,192,131962,128,0,132150:0:0:0:0:
448,192,132150,1,0,0:0:0:0:
64,192,132150,1,0,0:0:0:0:
320,192,132150,1,0,0:0:0:0:
192,192,132337,1,0,0:0:0:0:
448,192,132525,128,0,132712:0:0:0:0:
64,192,132712,128,0,132900:0:0:0:0:
320,192,132712,1,0,0:0:0:0:
192,192,132712,1,0,0:0:0:0:
192,192,132900,1,0,0:0:0:0:
320,192,133087,1,0,0:0:0:0:
448,192,133275,1,0,0:0:0:0:
192,192,133275,1,0,0:0:0:0:
64,192,133275,1,0,0:0:0:0:
320,192,133462,1,0,0:0:0:0:
64,192,133650,1,0,0:0:0:0:
448,192,133650,1,0,0:0:0:0:
192,192,133837,1,0,0:0:0:0:
320,192,133837,1,0,0:0:0:0:
64,192,134025,128,0,134212:0:0:0:0:
192,192,134212,128,0,134400:0:0:0:0:
320,192,134212,1,0,0:0:0:0:
448,192,134400,1,0,0:0:0:0:
64,192,134400,1,0,0:0:0:0:
320,192,134587,1,0,0:0:0:0:
64,192,134775,1,0,0:0:0:0:
192,192,134775,1,0,0:0:0:0:
320,192,134868,1,0,0:0:0:0:
448,192,134962,1,0,0:0:0:0:
64,192,135056,1,0,0:0:0:0:
192,192,135150,1,0,0:0:0:0:
320,192,135150,1,0,0:0:0:0:
448,192,135150,1,0,0:0:0:0:
64,192,135337,1,0,0:0:0:0:
448,192,135525,1,0,0:0:0:0:
320,192,135712,1,0,0:0:0:0:
192,192,135712,1,0,0:0:0:0:
64,192,135712,128,0,135900:0:0:0:0:
448,192,135900,128,0,136087:0:0:0:0:
192,192,136087,128,0,136275:0:0:0:0:
320,192,136275,128,0,136462:0:0:0:0:
448,192,136275,1,0,0:0:0:0:
64,192,136275,1,0,0:0:0:0:
64,192,136462,128,0,136650:0:0:0:0:
448,192,136650,128,0,136837:0:0:0:0:
192,192,136837,128,0,137025:0:0:0:0:
64,192,136837,1,0,0:0:0:0:
320,192,136837,1,0,0:0:0:0:
320,192,137025,128,0,137212:0:0:0:0:
64,192,137212,128,0,137400:0:0:0:0:
448,192,137400,128,0,137587:0:0:0:0:
192,192,137400,1,0,0:0:0:0:
320,192,137400,1,0,0:0:0:0:
320,192,137587,128,0,137775:0:0:0:0:
192,192,137775,128,0,137962:0:0:0:0:
448,192,137775,1,0,0:0:0:0:
64,192,137962,128,0,138150:0:0:0:0:
192,192,138150,1,0,0:0:0:0:
448,192,138150,1,0,0:0:0:0:
320,192,138337,1,0,0:0:0:0:
192,192,138525,1,0,0:0:0:0:
64,192,138525,1,0,0:0:0:0:
320,192,138712,1,0,0:0:0:0:
448,192,138712,1,0,0:0:0:0:
64,192,138712,1,0,0:0:0:0:
192,192,138900,1,0,0:0:0:0:
320,192,139087,1,0,0:0:0:0:
448,192,139275,1,0,0:0:0:0:
192,192,139275,1,0,0:0:0:0:
64,192,139275,1,0,0:0:0:0:
320,192,139462,1,0,0:0:0:0:
192,192,139650,1,0,0:0:0:0:
448,192,139650,1,0,0:0:0:0:
320,192,139837,1,0,0:0:0:0:
64,192,139837,1,0,0:0:0:0:
192,192,139837,1,0,0:0:0:0:
448,192,140025,1,0,0:0:0:0:
192,192,140212,1,0,0:0:0:0:
64,192,140212,1,0,0:0:0:0:
320,192,140400,1,0,0:0:0:0:
448,192,140400,1,0,0:0:0:0:
64,192,140587,1,0,0:0:0:0:
192,192,140775,1,0,0:0:0:0:
320,192,140775,1,0,0:0:0:0:
448,192,140868,1,0,0:0:0:0:
320,192,140962,1,0,0:0:0:0:
192,192,141056,1,0,0:0:0:0:
64,192,141150,1,0,0:0:0:0:
448,192,141150,1,0,0:0:0:0:
320,192,141150,1,0,0:0:0:0:
192,192,141337,1,0,0:0:0:0:
448,192,141525,1,0,0:0:0:0:
320,192,141712,1,0,0:0:0:0:
64,192,141712,1,0,0:0:0:0:
192,192,141712,1,0,0:0:0:0:
192,192,141900,1,0,0:0:0:0:
448,192,142087,1,0,0:0:0:0:
320,192,142275,1,0,0:0:0:0:
192,192,142275,1,0,0:0:0:0:
64,192,142275,1,0,0:0:0:0:
192,192,142462,1,0,0:0:0:0:
448,192,142650,1,0,0:0:0:0:
320,192,142837,1,0,0:0:0:0:
192,192,142837,1,0,0:0:0:0:
64,192,142837,1,0,0:0:0:0:
192,192,143025,1,0,0:0:0:0:
320,192,143212,1,0,0:0:0:0:
448,192,143400,1,0,0:0:0:0:
192,192,143400,1,0,0:0:0:0:
64,192,143400,1,0,0:0:0:0:
320,192,143400,1,0,0:0:0:0:
192,192,143775,1,0,0:0:0:0:
320,192,143775,1,0,0:0:0:0:
64,192,144150,1,0,0:0:0:0:
192,192,144150,1,0,0:0:0:0:
320,192,144150,1,0,0:0:0:0:
448,192,144150,1,0,0:0:0:0:
320,192,144337,128,0,144525:0:0:0:0:
192,192,144525,128,0,144712:0:0:0:0:
192,192,144900,1,0,0:0:0:0:
320,192,145275,1,0,0:0:0:0:
192,192,145650,1,0,0:0:0:0:
320,192,146025,1,0,0:0:0:0:
192,192,146400,1,0,0:0:0:0:
320,192,146775,1,0,0:0:0:0:
192,192,147150,1,0,0:0:0:0:
448,192,147150,128,0,147337:0:0:0:0:
320,192,147525,1,0,0:0:0:0:
192,192,147900,1,0,0:0:0:0:
320,192,148275,1,0,0:0:0:0:
192,192,148650,1,0,0:0:0:0:
64,192,148650,128,0,150150:0:0:0:0:
320,192,149025,1,0,0:0:0:0:
192,192,149400,128,0,150150:0:0:0:0:
448,192,150150,1,0,0:0:0:0:
320,192,150150,1,0,0:0:0:0:
320,192,150525,1,0,0:0:0:0:
192,192,150712,1,0,0:0:0:0:
64,192,150712,1,0,0:0:0:0:
448,192,150712,1,0,0:0:0:0:
320,192,151087,1,0,0:0:0:0:
192,192,151275,1,0,0:0:0:0:
64,192,151275,1,0,0:0:0:0:
448,192,151462,1,0,0:0:0:0:
320,192,151650,1,0,0:0:0:0:
192,192,151650,1,0,0:0:0:0:
64,192,151837,1,0,0:0:0:0:
192,192,152025,1,0,0:0:0:0:
320,192,152212,1,0,0:0:0:0:
448,192,152212,1,0,0:0:0:0:
64,192,152212,1,0,0:0:0:0:
448,192,152587,1,0,0:0:0:0:
320,192,152775,1,0,0:0:0:0:
64,192,152775,1,0,0:0:0:0:
192,192,152775,1,0,0:0:0:0:
448,192,152962,1,0,0:0:0:0:
64,192,153150,1,0,0:0:0:0:
320,192,153150,1,0,0:0:0:0:
448,192,153712,1,0,0:0:0:0:
64,192,153712,1,0,0:0:0:0:
320,192,153712,1,0,0:0:0:0:
192,192,153900,1,0,0:0:0:0:
320,192,154087,1,0,0:0:0:0:
192,192,154275,1,0,0:0:0:0:
448,192,154275,1,0,0:0:0:0:
64,192,154275,1,0,0:0:0:0:
320,192,154462,1,0,0:0:0:0:
192,192,154650,1,0,0:0:0:0:
64,192,154837,1,0,0:0:0:0:
320,192,154837,1,0,0:0:0:0:
448,192,154837,1,0,0:0:0:0:
192,192,155025,1,0,0:0:0:0:
448,192,155212,1,0,0:0:0:0:
64,192,155400,1,0,0:0:0:0:
192,192,155400,1,0,0:0:0:0:
320,192,155400,1,0,0:0:0:0:
448,192,155587,1,0,0:0:0:0:
192,192,155775,1,0,0:0:0:0:
320,192,155775,1,0,0:0:0:0:
64,192,155775,1,0,0:0:0:0:
448,192,155962,1,0,0:0:0:0:
64,192,156150,1,0,0:0:0:0:
320,192,156150,1,0,0:0:0:0:
192,192,156525,1,0,0:0:0:0:
448,192,156712,1,0,0:0:0:0:
64,192,156712,1,0,0:0:0:0:
320,192,156712,1,0,0:0:0:0:
192,192,157087,1,0,0:0:0:0:
64,192,157275,1,0,0:0:0:0:
448,192,157275,1,0,0:0:0:0:
192,192,157462,1,0,0:0:0:0:
320,192,157650,1,0,0:0:0:0:
448,192,157650,1,0,0:0:0:0:
192,192,157837,1,0,0:0:0:0:
64,192,158025,1,0,0:0:0:0:
448,192,158212,1,0,0:0:0:0:
192,192,158212,1,0,0:0:0:0:
320,192,158212,1,0,0:0:0:0:
320,192,158587,1,0,0:0:0:0:
448,192,158775,1,0,0:0:0:0:
64,192,158775,1,0,0:0:0:0:
192,192,158775,1,0,0:0:0:0:
320,192,158962,1,0,0:0:0:0:
448,192,159150,1,0,0:0:0:0:
192,192,159150,1,0,0:0:0:0:
320,192,159712,1,0,0:0:0:0:
448,192,159900,1,0,0:0:0:0:
192,192,159900,1,0,0:0:0:0:
64,192,159900,1,0,0:0:0:0:
320,192,160087,1,0,0:0:0:0:
64,192,160275,1,0,0:0:0:0:
448,192,160275,1,0,0:0:0:0:
192,192,160275,1,0,0:0:0:0:
320,192,160462,1,0,0:0:0:0:
192,192,160650,1,0,0:0:0:0:
64,192,160837,1,0,0:0:0:0:
320,192,160837,1,0,0:0:0:0:
448,192,160837,1,0,0:0:0:0:
192,192,161025,1,0,0:0:0:0:
64,192,161212,1,0,0:0:0:0:
192,192,161400,1,0,0:0:0:0:
320,192,161400,1,0,0:0:0:0:
448,192,161400,1,0,0:0:0:0:
64,192,161587,1,0,0:0:0:0:
192,192,161775,1,0,0:0:0:0:
320,192,161775,1,0,0:0:0:0:
448,192,161775,1,0,0:0:0:0:
64,192,161962,1,0,0:0:0:0:
192,192,162150,1,0,0:0:0:0:
448,192,162150,1,0,0:0:0:0:
320,192,162150,1,0,0:0:0:0:
320,192,162525,1,0,0:0:0:0:
192,192,162712,1,0,0:0:0:0:
64,192,162712,1,0,0:0:0:0:
320,192,163087,1,0,0:0:0:0:
192,192,163275,1,0,0:0:0:0:
448,192,163275,1,0,0:0:0:0:
320,192,163462,1,0,0:0:0:0:
192,192,163650,1,0,0:0:0:0:
64,192,163650,1,0,0:0:0:0:
320,192,163837,1,0,0:0:0:0:
64,192,164212,1,0,0:0:0:0:
192,192,164212,1,0,0:0:0:0:
448,192,164212,1,0,0:0:0:0:
320,192,164400,1,0,0:0:0:0:
448,192,164587,1,0,0:0:0:0:
64,192,164775,1,0,0:0:0:0:
320,192,164775,1,0,0:0:0:0:
192,192,164775,1,0,0:0:0:0:
448,192,164962,1,0,0:0:0:0:
320,192,165150,1,0,0:0:0:0:
192,192,165150,1,0,0:0:0:0:
64,192,165712,1,0,0:0:0:0:
192,192,165900,1,0,0:0:0:0:
320,192,165900,1,0,0:0:0:0:
448,192,165900,1,0,0:0:0:0:
64,192,166087,1,0,0:0:0:0:
192,192,166275,1,0,0:0:0:0:
320,192,166275,1,0,0:0:0:0:
448,192,166275,1,0,0:0:0:0:
64,192,166462,1,0,0:0:0:0:
320,192,166650,1,0,0:0:0:0:
448,192,166837,1,0,0:0:0:0:
64,192,166837,1,0,0:0:0:0:
192,192,166837,1,0,0:0:0:0:
320,192,167025,1,0,0:0:0:0:
192,192,167212,1,0,0:0:0:0:
320,192,167400,1,0,0:0:0:0:
448,192,167400,1,0,0:0:0:0:
64,192,167400,1,0,0:0:0:0:
192,192,167587,1,0,0:0:0:0:
320,192,167775,1,0,0:0:0:0:
448,192,167775,1,0,0:0:0:0:
64,192,167775,1,0,0:0:0:0:
192,192,167962,1,0,0:0:0:0:
320,192,168150,1,0,0:0:0:0:
64,192,168150,1,0,0:0:0:0:
320,192,168525,1,0,0:0:0:0:
192,192,168712,1,0,0:0:0:0:
64,192,168712,1,0,0:0:0:0:
448,192,168712,1,0,0:0:0:0:
192,192,169087,1,0,0:0:0:0:
320,192,169275,1,0,0:0:0:0:
64,192,169275,1,0,0:0:0:0:
192,192,169462,1,0,0:0:0:0:
320,192,169650,1,0,0:0:0:0:
64,192,169650,1,0,0:0:0:0:
448,192,169837,1,0,0:0:0:0:
448,192,170212,1,0,0:0:0:0:
320,192,170212,1,0,0:0:0:0:
64,192,170212,1,0,0:0:0:0:
64,192,170587,1,0,0:0:0:0:
320,192,170775,1,0,0:0:0:0:
192,192,170775,1,0,0:0:0:0:
448,192,170962,1,0,0:0:0:0:
320,192,171150,1,0,0:0:0:0:
64,192,171150,1,0,0:0:0:0:
320,192,171712,1,0,0:0:0:0:
448,192,171900,1,0,0:0:0:0:
192,192,171900,1,0,0:0:0:0:
64,192,171900,1,0,0:0:0:0:
320,192,172087,1,0,0:0:0:0:
448,192,172275,1,0,0:0:0:0:
192,192,172275,1,0,0:0:0:0:
64,192,172275,1,0,0:0:0:0:
320,192,172462,1,0,0:0:0:0:
64,192,172650,1,0,0:0:0:0:
448,192,172837,1,0,0:0:0:0:
320,192,172837,1,0,0:0:0:0:
192,192,172837,1,0,0:0:0:0:
64,192,173025,1,0,0:0:0:0:
448,192,173212,1,0,0:0:0:0:
320,192,173400,1,0,0:0:0:0:
192,192,173400,1,0,0:0:0:0:
64,192,173400,1,0,0:0:0:0:
448,192,173587,1,0,0:0:0:0:
320,192,173775,1,0,0:0:0:0:
192,192,173775,1,0,0:0:0:0:
64,192,173775,1,0,0:0:0:0:
448,192,173962,1,0,0:0:0:0:
448,192,174150,1,0,0:0:0:0:
64,192,174150,1,0,0:0:0:0:
192,192,174150,128,0,174243:0:0:0:0:
320,192,174337,128,0,174431:0:0:0:0:
192,192,174525,128,0,174618:0:0:0:0:
320,192,174712,128,0,174806:0:0:0:0:
448,192,174712,128,0,174759:0:0:0:0:
192,192,174900,128,0,174993:0:0:0:0:
320,192,175087,128,0,175181:0:0:0:0:
192,192,175275,128,0,175368:0:0:0:0:
320,192,175462,128,0,175556:0:0:0:0:
448,192,175462,128,0,175509:0:0:0:0:
64,192,175650,1,0,0:0:0:0:
192,192,175650,128,0,175743:0:0:0:0:
320,192,175837,128,0,175931:0:0:0:0:
448,192,175837,1,0,0:0:0:0:
192,192,176025,128,0,176118:0:0:0:0:
64,192,176025,1,0,0:0:0:0:
320,192,176212,128,0,176306:0:0:0:0:
448,192,176212,128,0,176259:0:0:0:0:
192,192,176400,128,0,176493:0:0:0:0:
320,192,176587,128,0,176681:0:0:0:0:
448,192,176587,1,0,0:0:0:0:
192,192,176775,128,0,176868:0:0:0:0:
64,192,176775,1,0,0:0:0:0:
320,192,176962,128,0,177056:0:0:0:0:
448,192,176962,128,0,177009:0:0:0:0:
64,192,177150,1,0,0:0:0:0:
192,192,177150,1,0,0:0:0:0:
320,192,177150,1,0,0:0:0:0:
64,192,177525,1,0,0:0:0:0:
192,192,177525,128,0,177618:0:0:0:0:
320,192,177712,128,0,177806:0:0:0:0:
192,192,177712,1,0,0:0:0:0:
448,192,178087,1,0,0:0:0:0:
320,192,178087,128,0,178181:0:0:0:0:
320,192,178462,1,0,0:0:0:0:
192,192,178509,128,0,178603:0:0:0:0:
64,192,179025,1,0,0:0:0:0:
192,192,179025,128,0,179118:0:0:0:0:
448,192,179400,1,0,0:0:0:0:
64,192,179400,1,0,0:0:0:0:
448,192,179587,1,0,0:0:0:0:
320,192,179610,1,0,0:0:0:0:
192,192,179634,1,0,0:0:0:0:
448,192,179775,1,0,0:0:0:0:
320,192,179821,1,0,0:0:0:0:
448,192,179962,1,0,0:0:0:0:
320,192,179962,1,0,0:0:0:0:
64,192,179962,1,0,0:0:0:0:
192,192,180150,1,0,0:0:0:0:
64,192,180150,1,0,0:0:0:0:
320,192,180150,1,0,0:0:0:0:
448,192,180150,128,0,180243:0:0:0:0:
192,192,180337,1,0,0:0:0:0:
448,192,180525,1,0,0:0:0:0:
64,192,180525,1,0,0:0:0:0:
320,192,180525,128,0,180618:0:0:0:0:
448,192,180712,1,0,0:0:0:0:
64,192,180900,1,0,0:0:0:0:
192,192,180900,128,0,180993:0:0:0:0:
320,192,180900,1,0,0:0:0:0:
64,192,181087,1,0,0:0:0:0:
64,192,181275,128,0,181368:0:0:0:0:
320,192,181275,1,0,0:0:0:0:
448,192,181275,1,0,0:0:0:0:
320,192,181462,1,0,0:0:0:0:
192,192,181650,1,0,0:0:0:0:
448,192,181650,1,0,0:0:0:0:
320,192,181650,128,0,182025:0:0:0:0:
64,192,181837,1,0,0:0:0:0:
64,192,182025,1,0,0:0:0:0:
448,192,182025,1,0,0:0:0:0:
192,192,182025,128,0,182400:0:0:0:0:
320,192,182212,1,0,0:0:0:0:
64,192,182400,1,0,0:0:0:0:
320,192,182400,1,0,0:0:0:0:
448,192,182400,128,0,182775:0:0:0:0:
192,192,182587,1,0,0:0:0:0:
192,192,182775,1,0,0:0:0:0:
320,192,182775,1,0,0:0:0:0:
64,192,182775,128,0,183150:0:0:0:0:
320,192,182962,1,0,0:0:0:0:
448,192,182962,1,0,0:0:0:0:
192,192,183150,128,0,183243:0:0:0:0:
320,192,183150,128,0,183243:0:0:0:0:
448,192,183150,1,0,0:0:0:0:
64,192,183337,128,0,183431:0:0:0:0:
192,192,183337,128,0,183431:0:0:0:0:
320,192,183525,128,0,183618:0:0:0:0:
448,192,183525,128,0,183618:0:0:0:0:
64,192,183712,128,0,183806:0:0:0:0:
320,192,183712,128,0,183806:0:0:0:0:
192,192,183712,1,0,0:0:0:0:
192,192,183900,128,0,183993:0:0:0:0:
448,192,183900,128,0,183993:0:0:0:0:
320,192,183900,1,0,0:0:0:0:
448,192,184087,128,0,184181:0:0:0:0:
64,192,184087,128,0,184181:0:0:0:0:
320,192,184275,128,0,184368:0:0:0:0:
448,192,184275,128,0,184368:0:0:0:0:
192,192,184275,1,0,0:0:0:0:
192,192,184462,128,0,184556:0:0:0:0:
64,192,184462,128,0,184556:0:0:0:0:
448,192,184650,128,0,184743:0:0:0:0:
64,192,184650,128,0,184743:0:0:0:0:
64,192,184837,128,0,184931:0:0:0:0:
192,192,184837,128,0,184931:0:0:0:0:
320,192,184837,1,0,0:0:0:0:
192,192,185025,128,0,185118:0:0:0:0:
320,192,185025,128,0,185118:0:0:0:0:
448,192,185025,1,0,0:0:0:0:
320,192,185212,128,0,185306:0:0:0:0:
448,192,185212,128,0,185306:0:0:0:0:
64,192,185400,1,0,0:0:0:0:
448,192,185587,1,0,0:0:0:0:
320,192,185634,1,0,0:0:0:0:
192,192,185681,1,0,0:0:0:0:
64,192,185775,1,0,0:0:0:0:
448,192,185775,1,0,0:0:0:0:
192,192,185962,1,0,0:0:0:0:
320,192,185962,1,0,0:0:0:0:
64,192,186150,1,0,0:0:0:0:
320,192,186150,1,0,0:0:0:0:
192,192,186150,128,0,186243:0:0:0:0:
448,192,186150,1,0,0:0:0:0:
192,192,186337,1,0,0:0:0:0:
448,192,186525,1,0,0:0:0:0:
192,192,186525,1,0,0:0:0:0:
64,192,186525,128,0,186618:0:0:0:0:
320,192,186712,1,0,0:0:0:0:
192,192,186900,1,0,0:0:0:0:
448,192,186900,128,0,186993:0:0:0:0:
320,192,186900,1,0,0:0:0:0:
64,192,187087,1,0,0:0:0:0:
192,192,187275,128,0,187368:0:0:0:0:
320,192,187275,1,0,0:0:0:0:
64,192,187275,1,0,0:0:0:0:
448,192,187462,1,0,0:0:0:0:
64,192,187650,1,0,0:0:0:0:
448,192,187650,1,0,0:0:0:0:
320,192,187650,128,0,188025:0:0:0:0:
192,192,187837,1,0,0:0:0:0:
64,192,188025,1,0,0:0:0:0:
448,192,188025,128,0,188400:0:0:0:0:
192,192,188025,1,0,0:0:0:0:
320,192,188212,1,0,0:0:0:0:
64,192,188400,1,0,0:0:0:0:
320,192,188400,1,0,0:0:0:0:
192,192,188400,128,0,188775:0:0:0:0:
448,192,188587,1,0,0:0:0:0:
320,192,188775,1,0,0:0:0:0:
64,192,188775,128,0,189150:0:0:0:0:
448,192,188775,1,0,0:0:0:0:
448,192,188962,1,0,0:0:0:0:
192,192,188962,1,0,0:0:0:0:
320,192,189150,1,0,0:0:0:0:
192,192,189150,128,0,189243:0:0:0:0:
448,192,189150,128,0,189243:0:0:0:0:
64,192,189337,128,0,189431:0:0:0:0:
320,192,189337,128,0,189431:0:0:0:0:
192,192,189525,128,0,189618:0:0:0:0:
448,192,189525,128,0,189618:0:0:0:0:
64,192,189712,128,0,189806:0:0:0:0:
192,192,189712,128,0,189806:0:0:0:0:
320,192,189712,1,0,0:0:0:0:
320,192,189900,128,0,189993:0:0:0:0:
448,192,189900,128,0,189993:0:0:0:0:
192,192,189900,1,0,0:0:0:0:
320,192,190087,128,0,190181:0:0:0:0:
192,192,190087,128,0,190181:0:0:0:0:
64,192,190275,128,0,190368:0:0:0:0:
448,192,190275,128,0,190368:0:0:0:0:
192,192,190275,1,0,0:0:0:0:
192,192,190462,128,0,190556:0:0:0:0:
64,192,190462,128,0,190556:0:0:0:0:
448,192,190650,128,0,190743:0:0:0:0:
64,192,190650,128,0,190743:0:0:0:0:
64,192,190837,128,0,190931:0:0:0:0:
192,192,190837,128,0,190931:0:0:0:0:
448,192,190837,1,0,0:0:0:0:
192,192,191025,128,0,191118:0:0:0:0:
448,192,191025,128,0,191118:0:0:0:0:
64,192,191025,1,0,0:0:0:0:
192,192,191212,128,0,191306:0:0:0:0:
448,192,191212,128,0,191306:0:0:0:0:
64,192,191400,1,0,0:0:0:0:
192,192,191587,1,0,0:0:0:0:
320,192,191634,1,0,0:0:0:0:
448,192,191681,1,0,0:0:0:0:
64,192,191775,1,0,0:0:0:0:
192,192,191775,1,0,0:0:0:0:
64,192,191962,1,0,0:0:0:0:
448,192,191962,1,0,0:0:0:0:
448,192,192150,1,0,0:0:0:0:
64,192,192150,128,0,192525:0:0:0:0:
192,192,192525,1,0,0:0:0:0:
320,192,192712,1,0,0:0:0:0:
448,192,192900,1,0,0:0:0:0:
192,192,192900,128,0,193087:0:0:0:0:
320,192,193087,128,0,193275:0:0:0:0:
64,192,193275,128,0,193462:0:0:0:0:
448,192,193275,1,0,0:0:0:0:
192,192,193462,128,0,193650:0:0:0:0:
64,192,193650,128,0,193837:0:0:0:0:
448,192,193837,128,0,194025:0:0:0:0:
320,192,193837,1,0,0:0:0:0:
192,192,194025,1,0,0:0:0:0:
64,192,194025,128,0,194212:0:0:0:0:
320,192,194212,128,0,194400:0:0:0:0:
192,192,194400,128,0,194587:0:0:0:0:
448,192,194400,1,0,0:0:0:0:
64,192,194587,128,0,194775:0:0:0:0:
320,192,194775,128,0,194962:0:0:0:0:
192,192,194962,128,0,195150:0:0:0:0:
448,192,195150,1,0,0:0:0:0:
320,192,195150,128,0,195243:0:0:0:0:
64,192,195150,128,0,195243:0:0:0:0:
320,192,195337,128,0,195431:0:0:0:0:
192,192,195337,128,0,195431:0:0:0:0:
192,192,195525,128,0,195618:0:0:0:0:
448,192,195525,128,0,195618:0:0:0:0:
64,192,195712,1,0,0:0:0:0:
320,192,195712,128,0,195806:0:0:0:0:
448,192,195712,128,0,195806:0:0:0:0:
192,192,195900,1,0,0:0:0:0:
64,192,195900,128,0,195993:0:0:0:0:
448,192,195900,128,0,195993:0:0:0:0:
192,192,196087,128,0,196181:0:0:0:0:
320,192,196087,128,0,196181:0:0:0:0:
448,192,196275,1,0,0:0:0:0:
64,192,196275,128,0,196368:0:0:0:0:
192,192,196275,128,0,196368:0:0:0:0:
320,192,196462,128,0,196556:0:0:0:0:
448,192,196462,128,0,196556:0:0:0:0:
64,192,196650,128,0,196743:0:0:0:0:
448,192,196650,128,0,196743:0:0:0:0:
320,192,196837,1,0,0:0:0:0:
192,192,196837,128,0,196931:0:0:0:0:
64,192,196837,128,0,196931:0:0:0:0:
192,192,197025,1,0,0:0:0:0:
320,192,197025,128,0,197118:0:0:0:0:
448,192,197025,128,0,197118:0:0:0:0:
192,192,197212,128,0,197306:0:0:0:0:
320,192,197212,128,0,197306:0:0:0:0:
64,192,197400,1,0,0:0:0:0:
448,192,197587,1,0,0:0:0:0:
192,192,197634,1,0,0:0:0:0:
64,192,197681,1,0,0:0:0:0:
448,192,197775,1,0,0:0:0:0:
320,192,197775,1,0,0:0:0:0:
192,192,197962,1,0,0:0:0:0:
64,192,197962,1,0,0:0:0:0:
448,192,198150,128,0,198243:0:0:0:0:
192,192,198150,1,0,0:0:0:0:
320,192,198150,1,0,0:0:0:0:
64,192,198150,1,0,0:0:0:0:
192,192,198337,1,0,0:0:0:0:
320,192,198525,1,0,0:0:0:0:
192,192,198525,128,0,198618:0:0:0:0:
64,192,198525,1,0,0:0:0:0:
448,192,198712,1,0,0:0:0:0:
320,192,198900,128,0,198993:0:0:0:0:
64,192,198900,1,0,0:0:0:0:
448,192,198900,1,0,0:0:0:0:
192,192,199087,1,0,0:0:0:0:
64,192,199275,128,0,199368:0:0:0:0:
192,192,199275,1,0,0:0:0:0:
448,192,199275,1,0,0:0:0:0:
320,192,199462,1,0,0:0:0:0:
64,192,199650,128,0,200025:0:0:0:0:
192,192,199650,1,0,0:0:0:0:
448,192,199650,1,0,0:0:0:0:
320,192,199837,1,0,0:0:0:0:
192,192,200025,128,0,200400:0:0:0:0:
448,192,200025,1,0,0:0:0:0:
320,192,200025,1,0,0:0:0:0:
448,192,200212,1,0,0:0:0:0:
320,192,200400,128,0,200775:0:0:0:0:
448,192,200400,1,0,0:0:0:0:
64,192,200400,1,0,0:0:0:0:
64,192,200587,1,0,0:0:0:0:
448,192,200775,128,0,201150:0:0:0:0:
64,192,200775,1,0,0:0:0:0:
192,192,200775,1,0,0:0:0:0:
192,192,200962,1,0,0:0:0:0:
64,192,201150,128,0,201243:0:0:0:0:
192,192,201150,128,0,201243:0:0:0:0:
320,192,201150,1,0,0:0:0:0:
320,192,201337,128,0,201431:0:0:0:0:
448,192,201337,128,0,201431:0:0:0:0:
192,192,201525,128,0,201618:0:0:0:0:
64,192,201525,128,0,201618:0:0:0:0:
192,192,201712,1,0,0:0:0:0:
320,192,201712,128,0,201806:0:0:0:0:
448,192,201712,128,0,201806:0:0:0:0:
64,192,201900,128,0,201993:0:0:0:0:
320,192,201900,128,0,201993:0:0:0:0:
448,192,201900,1,0,0:0:0:0:
192,192,202087,128,0,202181:0:0:0:0:
448,192,202087,128,0,202181:0:0:0:0:
320,192,202275,128,0,202368:0:0:0:0:
64,192,202275,128,0,202368:0:0:0:0:
192,192,202275,1,0,0:0:0:0:
192,192,202462,128,0,202556:0:0:0:0:
448,192,202462,128,0,202556:0:0:0:0:
64,192,202650,128,0,202743:0:0:0:0:
448,192,202837,128,0,202931:0:0:0:0:
192,192,202837,1,0,0:0:0:0:
64,192,203025,1,0,0:0:0:0:
320,192,203025,128,0,203118:0:0:0:0:
192,192,203212,128,0,203306:0:0:0:0:
448,192,203400,1,0,0:0:0:0:
64,192,203587,1,0,0:0:0:0:
192,192,203634,1,0,0:0:0:0:
320,192,203681,1,0,0:0:0:0:
64,192,203775,1,0,0:0:0:0:
192,192,203775,1,0,0:0:0:0:
320,192,203962,1,0,0:0:0:0:
448,192,203962,1,0,0:0:0:0:
64,192,204150,1,0,0:0:0:0:
320,192,204150,1,0,0:0:0:0:
192,192,204150,1,0,0:0:0:0:
448,192,204150,1,0,0:0:0:0:
320,192,204337,1,0,0:0:0:0:
448,192,204525,128,0,204712:0:0:0:0:
320,192,204712,1,0,0:0:0:0:
153,192,204712,128,0,204900:0:0:0:0:
256,192,204900,1,0,0:0:0:0:
64,192,205087,1,0,0:0:0:0:
192,192,205275,1,0,0:0:0:0:
448,192,205275,1,0,0:0:0:0:
64,192,205462,1,0,0:0:0:0:
320,192,205650,1,0,0:0:0:0:
448,192,205650,1,0,0:0:0:0:
64,192,205837,1,0,0:0:0:0:
153,192,206025,128,0,206212:0:0:0:0:
448,192,206212,128,0,206400:0:0:0:0:
320,192,206212,1,0,0:0:0:0:
256,192,206400,1,0,0:0:0:0:
64,192,206587,1,0,0:0:0:0:
448,192,206775,1,0,0:0:0:0:
256,192,206775,128,0,206962:0:0:0:0:
153,192,206962,128,0,207150:0:0:0:0:
448,192,207150,1,0,0:0:0:0:
320,192,207150,1,0,0:0:0:0:
64,192,207337,1,0,0:0:0:0:
192,192,207525,1,0,0:0:0:0:
320,192,207712,128,0,207900:0:0:0:0:
64,192,207712,1,0,0:0:0:0:
448,192,207900,128,0,208087:0:0:0:0:
192,192,208087,128,0,208275:0:0:0:0:
64,192,208275,128,0,208462:0:0:0:0:
320,192,208275,1,0,0:0:0:0:
320,192,208462,128,0,208650:0:0:0:0:
448,192,208650,128,0,208837:0:0:0:0:
192,192,208837,128,0,209025:0:0:0:0:
64,192,208837,1,0,0:0:0:0:
320,192,209025,128,0,209212:0:0:0:0:
64,192,209212,128,0,209400:0:0:0:0:
320,192,209400,128,0,209587:0:0:0:0:
448,192,209400,1,0,0:0:0:0:
192,192,209587,128,0,209775:0:0:0:0:
448,192,209775,128,0,209962:0:0:0:0:
64,192,209775,1,0,0:0:0:0:
64,192,209962,128,0,210150:0:0:0:0:
192,192,210150,128,0,210337:0:0:0:0:
320,192,210150,1,0,0:0:0:0:
448,192,210337,1,0,0:0:0:0:
320,192,210525,1,0,0:0:0:0:
192,192,210712,1,0,0:0:0:0:
64,192,210712,1,0,0:0:0:0:
448,192,210900,1,0,0:0:0:0:
320,192,211087,1,0,0:0:0:0:
448,192,211275,1,0,0:0:0:0:
192,192,211275,1,0,0:0:0:0:
64,192,211462,1,0,0:0:0:0:
320,192,211650,1,0,0:0:0:0:
192,192,211650,1,0,0:0:0:0:
448,192,211837,1,0,0:0:0:0:
192,192,212025,1,0,0:0:0:0:
320,192,212212,1,0,0:0:0:0:
448,192,212212,1,0,0:0:0:0:
64,192,212400,1,0,0:0:0:0:
320,192,212587,1,0,0:0:0:0:
448,192,212775,1,0,0:0:0:0:
64,192,212775,1,0,0:0:0:0:
192,192,212962,1,0,0:0:0:0:
448,192,213150,128,0,213337:0:0:0:0:
320,192,213150,1,0,0:0:0:0:
192,192,213337,128,0,213525:0:0:0:0:
320,192,213525,128,0,213712:0:0:0:0:
192,192,213712,1,0,0:0:0:0:
64,192,213712,128,0,213900:0:0:0:0:
192,192,213900,128,0,214087:0:0:0:0:
320,192,214087,128,0,214275:0:0:0:0:
448,192,214275,128,0,214462:0:0:0:0:
64,192,214275,1,0,0:0:0:0:
320,192,214462,128,0,214650:0:0:0:0:
192,192,214650,128,0,214837:0:0:0:0:
64,192,214837,128,0,215025:0:0:0:0:
448,192,214837,1,0,0:0:0:0:
320,192,215025,128,0,215212:0:0:0:0:
192,192,215212,128,0,215400:0:0:0:0:
448,192,215400,128,0,215587:0:0:0:0:
320,192,215400,1,0,0:0:0:0:
64,192,215587,128,0,215775:0:0:0:0:
448,192,215775,1,0,0:0:0:0:
320,192,215775,128,0,215962:0:0:0:0:
192,192,215962,128,0,216150:0:0:0:0:
448,192,216150,1,0,0:0:0:0:
64,192,216150,1,0,0:0:0:0:
320,192,216150,1,0,0:0:0:0:
192,192,216337,1,0,0:0:0:0:
448,192,216525,128,0,216712:0:0:0:0:
64,192,216712,128,0,216900:0:0:0:0:
320,192,216712,1,0,0:0:0:0:
192,192,216712,1,0,0:0:0:0:
192,192,216900,1,0,0:0:0:0:
320,192,217087,1,0,0:0:0:0:
448,192,217275,1,0,0:0:0:0:
192,192,217275,1,0,0:0:0:0:
64,192,217275,1,0,0:0:0:0:
320,192,217462,1,0,0:0:0:0:
64,192,217650,1,0,0:0:0:0:
448,192,217650,1,0,0:0:0:0:
192,192,217837,1,0,0:0:0:0:
320,192,217837,1,0,0:0:0:0:
64,192,218025,128,0,218212:0:0:0:0:
192,192,218212,128,0,218400:0:0:0:0:
320,192,218212,1,0,0:0:0:0:
448,192,218400,1,0,0:0:0:0:
64,192,218400,1,0,0:0:0:0:
320,192,218587,1,0,0:0:0:0:
64,192,218775,1,0,0:0:0:0:
192,192,218775,1,0,0:0:0:0:
320,192,218868,1,0,0:0:0:0:
448,192,218962,1,0,0:0:0:0:
64,192,219056,1,0,0:0:0:0:
192,192,219150,1,0,0:0:0:0:
320,192,219150,1,0,0:0:0:0:
448,192,219150,1,0,0:0:0:0:
64,192,219337,1,0,0:0:0:0:
448,192,219525,1,0,0:0:0:0:
320,192,219712,1,0,0:0:0:0:
192,192,219712,1,0,0:0:0:0:
64,192,219712,128,0,219900:0:0:0:0:
448,192,219900,128,0,220087:0:0:0:0:
192,192,220087,128,0,220275:0:0:0:0:
320,192,220275,128,0,220462:0:0:0:0:
448,192,220275,1,0,0:0:0:0:
64,192,220275,1,0,0:0:0:0:
64,192,220462,128,0,220650:0:0:0:0:
448,192,220650,128,0,220837:0:0:0:0:
192,192,220837,128,0,221025:0:0:0:0:
64,192,220837,1,0,0:0:0:0:
320,192,220837,1,0,0:0:0:0:
320,192,221025,128,0,221212:0:0:0:0:
64,192,221212,128,0,221400:0:0:0:0:
448,192,221400,128,0,221587:0:0:0:0:
192,192,221400,1,0,0:0:0:0:
320,192,221400,1,0,0:0:0:0:
320,192,221587,128,0,221775:0:0:0:0:
192,192,221775,128,0,221962:0:0:0:0:
448,192,221775,1,0,0:0:0:0:
64,192,221962,128,0,222150:0:0:0:0:
192,192,222150,1,0,0:0:0:0:
448,192,222150,1,0,0:0:0:0:
320,192,222337,1,0,0:0:0:0:
192,192,222525,1,0,0:0:0:0:
64,192,222525,1,0,0:0:0:0:
320,192,222712,1,0,0:0:0:0:
448,192,222712,1,0,0:0:0:0:
64,192,222712,1,0,0:0:0:0:
192,192,222900,1,0,0:0:0:0:
320,192,223087,1,0,0:0:0:0:
448,192,223275,1,0,0:0:0:0:
192,192,223275,1,0,0:0:0:0:
64,192,223275,1,0,0:0:0:0:
320,192,223462,1,0,0:0:0:0:
192,192,223650,1,0,0:0:0:0:
448,192,223650,1,0,0:0:0:0:
320,192,223837,1,0,0:0:0:0:
64,192,223837,1,0,0:0:0:0:
192,192,223837,1,0,0:0:0:0:
448,192,224025,1,0,0:0:0:0:
192,192,224212,1,0,0:0:0:0:
64,192,224212,1,0,0:0:0:0:
320,192,224400,1,0,0:0:0:0:
448,192,224400,1,0,0:0:0:0:
64,192,224587,1,0,0:0:0:0:
192,192,224775,1,0,0:0:0:0:
320,192,224775,1,0,0:0:0:0:
448,192,224868,1,0,0:0:0:0:
320,192,224962,1,0,0:0:0:0:
192,192,225056,1,0,0:0:0:0:
64,192,225150,1,0,0:0:0:0:
448,192,225150,1,0,0:0:0:0:
320,192,225150,1,0,0:0:0:0:
192,192,225337,1,0,0:0:0:0:
448,192,225525,1,0,0:0:0:0:
320,192,225712,1,0,0:0:0:0:
64,192,225712,1,0,0:0:0:0:
192,192,225712,1,0,0:0:0:0:
192,192,225900,1,0,0:0:0:0:
448,192,226087,1,0,0:0:0:0:
320,192,226275,1,0,0:0:0:0:
192,192,226275,1,0,0:0:0:0:
64,192,226275,1,0,0:0:0:0:
192,192,226462,1,0,0:0:0:0:
448,192,226650,1,0,0:0:0:0:
320,192,226837,1,0,0:0:0:0:
192,192,226837,1,0,0:0:0:0:
64,192,226837,1,0,0:0:0:0:
192,192,227025,1,0,0:0:0:0:
320,192,227212,1,0,0:0:0:0:
448,192,227400,1,0,0:0:0:0:
192,192,227400,1,0,0:0:0:0:
64,192,227400,1,0,0:0:0:0:
320,192,227400,1,0,0:0:0:0:
192,192,227775,1,0,0:0:0:0:
320,192,227775,1,0,0:0:0:0:
64,192,228150,1,0,0:0:0:0:
192,192,228150,1,0,0:0:0:0:
320,192,228150,1,0,0:0:0:0:
448,192,228150,1,0,0:0:0:0:
448,192,228337,128,0,228525:0:0:0:0:
64,192,228525,128,0,228712:0:0:0:0:
64,192,228900,1,0,0:0:0:0:
448,192,229275,1,0,0:0:0:0:
64,192,229650,1,0,0:0:0:0:
448,192,230025,1,0,0:0:0:0:
64,192,230400,1,0,0:0:0:0:
448,192,230775,1,0,0:0:0:0:
64,192,231150,1,0,0:0:0:0:
320,192,231150,128,0,231337:0:0:0:0:
448,192,231525,1,0,0:0:0:0:
64,192,231900,1,0,0:0:0:0:
448,192,232275,1,0,0:0:0:0:
64,192,232650,1,0,0:0:0:0:
448,192,233025,1,0,0:0:0:0:
64,192,233400,1,0,0:0:0:0:
448,192,233775,1,0,0:0:0:0:
320,192,234150,128,0,234900:0:0:0:0:
