osu file format v14

[General]
AudioFilename: audio.mp3
AudioLeadIn: 0
PreviewTime: -1
Countdown: 1
SampleSet: Normal
StackLeniency: 0.7
Mode: 1
LetterboxInBreaks: 0
WidescreenStoryboard: 0

[Editor]
DistanceSpacing: 1.3
BeatDivisor: 4
GridSize: 4
TimelineZoom: 1

[Metadata]
Title:BUBBLE TEA (feat. juu & cinders)
TitleUnicode:BUBBLE TEA (feat. juu & cinders)
Artist:dark cat
ArtistUnicode:dark cat
Creator:andrey774
Version:Taiko
Source:
Tags:
BeatmapID:1493192
BeatmapSetID:706076

[Difficulty]
HPDrainRate:5
CircleSize:5
OverallDifficulty:5
ApproachRate:5
SliderMultiplier:1.4
SliderTickRate:1

[Events]
//Background and Video events
Video,0,"dark cat - BUBBLE TEA (feat. juu cinders).avi"
0,0,"ws_wall___bokeh_by_beanhugger.jpg",0,0
//Break Periods
2,66350,69450
//Storyboard Layer 0 (Background)
//Storyboard Layer 1 (Fail)
//Storyboard Layer 2 (Pass)
//Storyboard Layer 3 (Foreground)
//Storyboard Sound Samples

[TimingPoints]
150,375,4,1,0,100,1,0
70653,-28.5714285714286,4,1,0,100,0,0
71927,-66.6666666666667,4,1,0,100,0,0
72027,-100,4,1,0,100,0,0
72127,-133.333333333333,4,1,0,100,0,0
72227,-100,4,1,0,100,0,0
72327,-66.6666666666667,4,1,0,100,0,0
72427,-100,4,1,0,100,0,0
72527,-133.333333333333,4,1,0,100,0,0
72627,-100,4,1,0,100,0,0
72727,-66.6666666666667,4,1,0,100,0,0
72827,-100,4,1,0,100,0,0
72927,-133.333333333333,4,1,0,100,0,0
73027,-50,4,1,0,100,0,0
73127,-40,4,1,0,100,0,0
73227,-50,4,1,0,100,0,0
73327,-57.1428571428571,4,1,0,100,0,0
73427,-50,4,1,0,100,0,0
73527,-40,4,1,0,100,0,0
73627,-50,4,1,0,100,0,0
73727,-57.1428571428571,4,1,0,100,0,0
73827,-50,4,1,0,100,0,0
73927,-40,4,1,0,100,0,0
74027,-50,4,1,0,100,0,0
74127,-57.1428571428571,4,1,0,100,0,0
74227,-40,4,1,0,100,0,0
74327,-50,4,1,0,100,0,0
74427,-57.1428571428571,4,1,0,100,0,0
74527,-133.333333333333,4,1,0,100,0,0
74627,-100,4,1,0,100,0,0
74727,-66.6666666666667,4,1,0,100,0,0
74827,-100,4,1,0,100,0,0
74927,-133.333333333333,4,1,0,100,0,0
75027,-100,4,1,0,100,0,0
75127,-66.6666666666667,4,1,0,100,0,0
75227,-133.333333333333,4,1,0,100,0,0
75327,-100,4,1,0,100,0,0
75427,-66.6666666666667,4,1,0,100,0,0
75527,-50,4,1,0,100,0,0
75627,-40,4,1,0,100,0,0
75727,-57.1428571428571,4,1,0,100,0,0
75827,-50,4,1,0,100,0,0
75927,-40,4,1,0,100,0,0
76027,-50,4,1,0,100,0,0
76127,-57.1428571428571,4,1,0,100,0,0
76227,-50,4,1,0,100,0,0
76327,-40,4,1,0,100,0,0
76427,-66.6666666666667,4,1,0,100,0,0
76527,-200,4,1,0,100,0,0
76627,-66.6666666666667,4,1,0,100,0,0
76727,-40,4,1,0,100,0,0
76827,-50,4,1,0,100,0,0
76927,-57.1428571428571,4,1,0,100,0,0
77027,-50,4,1,0,100,0,0
77127,-40,4,1,0,100,0,0
77227,-50,4,1,0,100,0,0
77327,-57.1428571428571,4,1,0,100,0,0
77427,-40,4,1,0,100,0,0
77527,-100,4,1,0,100,0,0
77627,-66.6666666666667,4,1,0,100,0,0
77727,-100,4,1,0,100,0,0
77827,-66.6666666666667,4,1,0,100,0,0
77927,-100,4,1,0,100,0,0
78027,-66.6666666666667,4,1,0,100,0,0
78127,-100,4,1,0,100,0,0
78227,-133.333333333333,4,1,0,100,0,0
78327,-100,4,1,0,100,0,0
78427,-133.333333333333,4,1,0,100,0,0
78527,-100,4,1,0,100,0,0
78627,-133.333333333333,4,1,0,100,0,0
78727,-100,4,1,0,100,0,0
78827,-66.6666666666667,4,1,0,100,0,0
78927,-133.333333333333,4,1,0,100,0,0
79027,-66.6666666666667,4,1,0,100,0,0
79127,-133.333333333333,4,1,0,100,0,0
79227,-66.6666666666667,4,1,0,100,0,0
79327,-133.333333333333,4,1,0,100,0,0
79427,-66.6666666666667,4,1,0,100,0,0
79527,-133.333333333333,4,1,0,100,0,0
79627,-66.6666666666667,4,1,0,100,0,0
79727,-100,4,1,0,100,0,0
79827,-66.6666666666667,4,1,0,100,0,0
79927,-133.333333333333,4,1,0,100,0,0
80027,-66.6666666666667,4,1,0,100,0,0
80127,-100,4,1,0,100,0,0
80227,-66.6666666666667,4,1,0,100,0,0
80327,-133.333333333333,4,1,0,100,0,0
80427,-66.6666666666667,4,1,0,100,0,0
80527,-100,4,1,0,100,0,0
80627,-66.6666666666667,4,1,0,100,0,0
80727,-133.333333333333,4,1,0,100,0,0
80827,-66.6666666666667,4,1,0,100,0,0
80927,-100,4,1,0,100,0,0
81027,-66.6666666666667,4,1,0,100,0,0
81127,-133.333333333333,4,1,0,100,0,0
81227,-66.6666666666667,4,1,0,100,0,0
81327,-100,4,1,0,100,0,0
81427,-66.6666666666667,4,1,0,100,0,0
81527,-133.333333333333,4,1,0,100,0,0
81627,-66.6666666666667,4,1,0,100,0,0
81727,-100,4,1,0,100,0,0
81827,-66.6666666666667,4,1,0,100,0,0
81927,-133.333333333333,4,1,0,100,0,0
82027,-66.6666666666667,4,1,0,100,0,0
82127,-133.333333333333,4,1,0,100,0,0
82227,-66.6666666666667,4,1,0,100,0,0
82327,-133.333333333333,4,1,0,100,0,0
82427,-66.6666666666667,4,1,0,100,0,0
82527,-40,4,1,0,100,0,0
82627,-66.6666666666667,4,1,0,100,0,0
82727,-40,4,1,0,100,0,0
82827,-66.6666666666667,4,1,0,100,0,0
82927,-40,4,1,0,100,0,0
83027,-66.6666666666667,4,1,0,100,0,0
83127,-40,4,1,0,100,0,0
83227,-66.6666666666667,4,1,0,100,0,0
83327,-40,4,1,0,100,0,0
83427,-66.6666666666667,4,1,0,100,0,0
83527,-40,4,1,0,100,0,0
83627,-66.6666666666667,4,1,0,100,0,0
83727,-40,4,1,0,100,0,0
83827,-66.6666666666667,4,1,0,100,0,0
83927,-40,4,1,0,100,0,0
84027,-66.6666666666667,4,1,0,100,0,0
84127,-66.6666666666667,4,1,0,100,0,0
84227,-40,4,1,0,100,0,0
84327,-66.6666666666667,4,1,0,100,0,0
84427,-40,4,1,0,100,0,0
84527,-66.6666666666667,4,1,0,100,0,0
84627,-40,4,1,0,100,0,0
84727,-66.6666666666667,4,1,0,100,0,0
84827,-40,4,1,0,100,0,0
84927,-66.6666666666667,4,1,0,100,0,0
85027,-133.333333333333,4,1,0,100,0,0
85127,-66.6666666666667,4,1,0,100,0,0
85227,-40,4,1,0,100,0,0
85327,-66.6666666666667,4,1,0,100,0,0
85427,-133.333333333333,4,1,0,100,0,0
85527,-66.6666666666667,4,1,0,100,0,0
85627,-40,4,1,0,100,0,0
85727,-66.6666666666667,4,1,0,100,0,0
85827,-133.333333333333,4,1,0,100,0,0
85927,-66.6666666666667,4,1,0,100,0,0
86027,-40,4,1,0,100,0,0
86127,-66.6666666666667,4,1,0,100,0,0
86227,-133.333333333333,4,1,0,100,0,0
86327,-66.6666666666667,4,1,0,100,0,0
86427,-40,4,1,0,100,0,0
86527,-66.6666666666667,4,1,0,100,0,0
86627,-133.333333333333,4,1,0,100,0,0
86727,-66.6666666666667,4,1,0,100,0,0
86827,-40,4,1,0,100,0,0
86927,-66.6666666666667,4,1,0,100,0,0
87027,-133.333333333333,4,1,0,100,0,0
87300,-66.6666666666667,4,1,0,100,0,0
87400,-40,4,1,0,100,0,0
87500,-133.333333333333,4,1,0,100,0,0
87600,-40,4,1,0,100,0,0
87700,-133.333333333333,4,1,0,100,0,0
87800,-40,4,1,0,100,0,0
87900,-133.333333333333,4,1,0,100,0,0
88000,-40,4,1,0,100,0,0
88100,-133.333333333333,4,1,0,100,0,0
88200,-40,4,1,0,100,0,0
88300,-66.6666666666667,4,1,0,100,0,0
88400,-40,4,1,0,100,0,0
88500,-66.6666666666667,4,1,0,100,0,0
88600,-40,4,1,0,100,0,0
88700,-66.6666666666667,4,1,0,100,0,0
88800,-40,4,1,0,100,0,0
88900,-66.6666666666667,4,1,0,100,0,0
89000,-40,4,1,0,100,0,0
89100,-100,4,1,0,100,0,0
89200,-40,4,1,0,100,0,0
89300,-100,4,1,0,100,0,0
89400,-40,4,1,0,100,0,0
89500,-40,4,1,0,100,0,0
89600,-100,4,1,0,100,0,0
89700,-40,4,1,0,100,0,0
89800,-66.6666666666667,4,1,0,100,0,0
89900,-40,4,1,0,100,0,0
90000,-100,4,1,0,100,0,0
90100,-40,4,1,0,100,0,0
90200,-66.6666666666667,4,1,0,100,0,0
90300,-40,4,1,0,100,0,0
90400,-40,4,1,0,100,0,0
90500,-100,4,1,0,100,0,0
90600,-40,4,1,0,100,0,0
90700,-66.6666666666667,4,1,0,100,0,0
90800,-40,4,1,0,100,0,0
90900,-100,4,1,0,100,0,0
91000,-40,4,1,0,100,0,0
91100,-66.6666666666667,4,1,0,100,0,0
91200,-40,4,1,0,100,0,0
91300,-100,4,1,0,100,0,0
91400,-40,4,1,0,100,0,0
91500,-66.6666666666667,4,1,0,100,0,0
91600,-40,4,1,0,100,0,0
91700,-100,4,1,0,100,0,0
91800,-40,4,1,0,100,0,0
91900,-66.6666666666667,4,1,0,100,0,0
92000,-40,4,1,0,100,0,0
92100,-100,4,1,0,100,0,0
92200,-40,4,1,0,100,0,0
92300,-133.333333333333,4,1,0,100,0,0
92400,-40,4,1,0,100,0,0
92500,-133.333333333333,4,1,0,100,0,0
92600,-40,4,1,0,100,0,0
92700,-133.333333333333,4,1,0,100,0,0
92800,-40,4,1,0,100,0,0
92900,-133.333333333333,4,1,0,100,0,0
93000,-40,4,1,0,100,0,0
93100,-133.333333333333,4,1,0,100,0,0
93200,-100,4,1,0,100,0,0
93200,-40,4,1,0,100,0,0
93300,-40,4,1,0,100,0,0
93400,-100,4,1,0,100,0,0
93500,-40,4,1,0,100,0,0
93600,-100,4,1,0,100,0,0
93700,-40,4,1,0,100,0,0
93800,-100,4,1,0,100,0,0
93900,-40,4,1,0,100,0,0
94000,-100,4,1,0,100,0,0
94100,-40,4,1,0,100,0,0
94200,-100,4,1,0,100,0,0
94300,-40,4,1,0,100,0,0
94400,-133.333333333333,4,1,0,100,0,0
94500,-40,4,1,0,100,0,0
94600,-133.333333333333,4,1,0,100,0,0
94700,-40,4,1,0,100,0,0
94800,-66.6666666666667,4,1,0,100,0,0
94900,-40,4,1,0,100,0,0
95000,-66.6666666666667,4,1,0,100,0,0
95100,-40,4,1,0,100,0,0
95200,-133.333333333333,4,1,0,100,0,0
95300,-40,4,1,0,100,0,0
95400,-133.333333333333,4,1,0,100,0,0
95500,-40,4,1,0,100,0,0
95600,-66.6666666666667,4,1,0,100,0,0
95700,-40,4,1,0,100,0,0
95800,-66.6666666666667,4,1,0,100,0,0
95900,-40,4,1,0,100,0,0
96000,-133.333333333333,4,1,0,100,0,0
96100,-40,4,1,0,100,0,0
96200,-133.333333333333,4,1,0,100,0,0
96300,-40,4,1,0,100,0,0
96400,-66.6666666666667,4,1,0,100,0,0
96500,-40,4,1,0,100,0,0
96600,-66.6666666666667,4,1,0,100,0,0
96700,-40,4,1,0,100,0,0
96800,-133.333333333333,4,1,0,100,0,0
96900,-40,4,1,0,100,0,0
97000,-133.333333333333,4,1,0,100,0,0
97100,-40,4,1,0,100,0,0
97200,-100,4,1,0,100,0,0
97300,-40,4,1,0,100,0,0
97400,-66.6666666666667,4,1,0,100,0,0
97500,-40,4,1,0,100,0,0
97600,-100,4,1,0,100,0,0
97700,-40,4,1,0,100,0,0
97800,-66.6666666666667,4,1,0,100,0,0
97900,-40,4,1,0,100,0,0
98000,-100,4,1,0,100,0,0
98100,-40,4,1,0,100,0,0
98200,-66.6666666666667,4,1,0,100,0,0
98300,-40,4,1,0,100,0,0

[HitObjects]
256,192,37275,12,0,41306,0:0:0:0:
256,192,41400,5,8,0:0:0:0:
256,192,41493,1,8,0:0:0:0:
256,192,41587,1,8,0:0:0:0:
256,192,41681,1,8,0:0:0:0:
256,192,41775,1,8,0:0:0:0:
256,192,41868,1,0,0:0:0:0:
256,192,41962,1,8,0:0:0:0:
256,192,42025,1,8,0:0:0:0:
256,192,42087,1,8,0:0:0:0:
256,192,42150,1,4,0:0:0:0:
256,192,42525,1,0,0:0:0:0:
256,192,42618,1,0,0:0:0:0:
256,192,42712,1,0,0:0:0:0:
256,192,42900,1,8,0:0:0:0:
256,192,43087,1,0,0:0:0:0:
256,196,43275,1,0,0:0:0:0:
256,192,43368,1,0,0:0:0:0:
256,192,43462,1,8,0:0:0:0:
256,192,43650,1,0,0:0:0:0:
256,192,43837,1,0,0:0:0:0:
256,192,44025,1,8,0:0:0:0:
256,192,44118,1,8,0:0:0:0:
256,192,44212,1,0,0:0:0:0:
256,192,44400,1,8,0:0:0:0:
256,192,44587,1,0,0:0:0:0:
256,192,44775,1,0,0:0:0:0:
256,192,44868,1,0,0:0:0:0:
256,192,44962,1,0,0:0:0:0:
256,192,45525,5,0,0:0:0:0:
256,192,45619,1,0,0:0:0:0:
256,192,45713,1,8,0:0:0:0:
256,192,45900,1,0,0:0:0:0:
256,192,46088,1,0,0:0:0:0:
256,192,46275,1,8,0:0:0:0:
256,192,46463,1,0,0:0:0:0:
256,192,46650,1,0,0:0:0:0:
256,192,46744,1,0,0:0:0:0:
256,192,46838,1,0,0:0:0:0:
252,180,46932,1,8,0:0:0:0:
256,192,47025,1,0,0:0:0:0:
248,192,47119,1,8,0:0:0:0:
256,192,47213,1,0,0:0:0:0:
256,192,47400,1,0,0:0:0:0:
252,188,47494,1,0,0:0:0:0:
256,192,47588,1,8,0:0:0:0:
260,200,47682,1,0,0:0:0:0:
256,192,47775,1,0,0:0:0:0:
256,192,47962,1,0,0:0:0:0:
260,184,48150,1,0,0:0:0:0:
256,192,48243,1,0,0:0:0:0:
256,192,48337,1,8,0:0:0:0:
256,192,48525,1,8,0:0:0:0:
252,184,48618,1,0,0:0:0:0:
256,192,48712,1,0,0:0:0:0:
260,184,48900,1,0,0:0:0:0:
256,192,49087,1,0,0:0:0:0:
256,192,49181,1,0,0:0:0:0:
256,192,49368,1,0,0:0:0:0:
256,192,49462,1,8,0:0:0:0:
248,188,49650,1,0,0:0:0:0:
256,192,49837,1,0,0:0:0:0:
248,192,49931,1,0,0:0:0:0:
240,188,50025,1,8,0:0:0:0:
256,192,50212,1,0,0:0:0:0:
248,192,50400,1,8,0:0:0:0:
248,188,50493,1,0,0:0:0:0:
256,192,50587,1,0,0:0:0:0:
256,192,50775,1,0,0:0:0:0:
256,192,50962,1,0,0:0:0:0:
256,192,51150,1,8,0:0:0:0:
256,192,51243,1,8,0:0:0:0:
256,192,51337,1,0,0:0:0:0:
256,192,51431,1,8,0:0:0:0:
256,192,51525,1,0,0:0:0:0:
256,192,51712,1,8,0:0:0:0:
256,188,51900,1,8,0:0:0:0:
256,192,51993,1,8,0:0:0:0:
256,192,52087,1,0,0:0:0:0:
248,192,52181,1,0,0:0:0:0:
256,192,52275,1,0,0:0:0:0:
256,192,52462,1,8,0:0:0:0:
264,192,52556,1,0,0:0:0:0:
256,192,52650,1,8,0:0:0:0:
256,192,52743,1,0,0:0:0:0:
256,192,52837,1,0,0:0:0:0:
256,192,53025,1,8,0:0:0:0:
256,192,53118,1,8,0:0:0:0:
256,192,53212,1,0,0:0:0:0:
256,192,53400,1,0,0:0:0:0:
256,192,53493,1,8,0:0:0:0:
256,192,53587,1,8,0:0:0:0:
256,192,53681,1,8,0:0:0:0:
256,192,53775,1,0,0:0:0:0:
264,188,53868,1,8,0:0:0:0:
256,192,53962,1,0,0:0:0:0:
256,192,54150,1,0,0:0:0:0:
256,192,54243,1,0,0:0:0:0:
256,192,54337,1,8,0:0:0:0:
256,192,54525,1,0,0:0:0:0:
256,192,54712,1,8,0:0:0:0:
256,192,54806,1,0,0:0:0:0:
256,192,54900,1,0,0:0:0:0:
256,192,55087,1,12,0:0:0:0:
256,192,55275,1,0,0:0:0:0:
256,192,55368,1,0,0:0:0:0:
256,192,55462,1,8,0:0:0:0:
256,200,55650,1,12,0:0:0:0:
256,192,55837,1,0,0:0:0:0:
260,188,55931,1,0,0:0:0:0:
256,192,56025,1,8,0:0:0:0:
256,192,56118,1,0,0:0:0:0:
256,192,56212,1,0,0:0:0:0:
256,192,56400,1,12,0:0:0:0:
256,196,56587,1,0,0:0:0:0:
256,188,56681,1,0,0:0:0:0:
256,196,56775,1,8,0:0:0:0:
260,196,56962,1,4,0:0:0:0:
242,214,57150,1,8,0:0:0:0:
242,169,57244,1,0,0:0:0:0:
282,192,57338,1,0,0:0:0:0:
242,214,57432,1,8,0:0:0:0:
242,169,57525,1,0,0:0:0:0:
282,192,57619,1,0,0:0:0:0:
242,214,57713,1,8,0:0:0:0:
242,169,57807,1,0,0:0:0:0:
282,192,57900,1,0,0:0:0:0:
282,192,57993,1,8,0:0:0:0:
256,192,58087,1,0,0:0:0:0:
256,192,58181,1,0,0:0:0:0:
256,188,58275,1,8,0:0:0:0:
260,200,58462,1,0,0:0:0:0:
256,200,58556,1,0,0:0:0:0:
256,200,58650,1,8,0:0:0:0:
256,200,58743,1,0,0:0:0:0:
256,200,58931,1,0,0:0:0:0:
256,200,59118,1,0,0:0:0:0:
256,200,59212,1,0,0:0:0:0:
256,200,59306,1,0,0:0:0:0:
256,200,59353,1,0,0:0:0:0:
256,200,59400,1,0,0:0:0:0:
256,200,59446,1,8,0:0:0:0:
256,188,59587,1,0,0:0:0:0:
256,192,59681,1,8,0:0:0:0:
256,192,59775,1,0,0:0:0:0:
260,196,59868,1,0,0:0:0:0:
256,196,59962,1,8,0:0:0:0:
260,200,60056,1,0,0:0:0:0:
260,200,60150,1,8,0:0:0:0:
264,208,60337,1,0,0:0:0:0:
264,204,60431,1,8,0:0:0:0:
264,204,60525,1,8,0:0:0:0:
264,204,60618,1,0,0:0:0:0:
260,200,60712,1,8,0:0:0:0:
260,192,60900,1,8,0:0:0:0:
260,184,60993,1,8,0:0:0:0:
256,196,61087,1,0,0:0:0:0:
260,192,61181,1,0,0:0:0:0:
256,196,61275,1,0,0:0:0:0:
256,192,61368,1,0,0:0:0:0:
260,200,61462,1,8,0:0:0:0:
252,192,61556,1,0,0:0:0:0:
256,196,61650,1,8,0:0:0:0:
256,196,61837,1,0,0:0:0:0:
240,204,62025,1,0,0:0:0:0:
248,200,62150,1,0,0:0:0:0:
248,200,62212,1,0,0:0:0:0:
256,196,62275,1,8,0:0:0:0:
256,192,62399,1,0,0:0:0:0:
256,192,62587,1,8,0:0:0:0:
256,192,62774,1,0,0:0:0:0:
260,192,62868,1,0,0:0:0:0:
260,192,62962,1,8,0:0:0:0:
256,184,63150,1,8,0:0:0:0:
260,192,63337,1,0,0:0:0:0:
256,196,63525,1,8,0:0:0:0:
256,196,63618,1,8,0:0:0:0:
256,196,63712,1,8,0:0:0:0:
256,196,63806,1,8,0:0:0:0:
256,196,63900,1,0,0:0:0:0:
256,192,64087,1,0,0:0:0:0:
256,192,64275,1,8,0:0:0:0:
256,192,64368,1,8,0:0:0:0:
264,196,64462,1,0,0:0:0:0:
264,192,64556,1,8,0:0:0:0:
264,192,64650,1,8,0:0:0:0:
264,192,64837,1,0,0:0:0:0:
264,192,65025,1,8,0:0:0:0:
264,192,65119,1,8,0:0:0:0:
268,196,65213,1,8,0:0:0:0:
256,192,65306,1,8,0:0:0:0:
264,192,65400,1,8,0:0:0:0:
260,192,65587,1,0,0:0:0:0:
264,188,65650,1,0,0:0:0:0:
264,192,65712,1,0,0:0:0:0:
260,192,65775,1,8,0:0:0:0:
264,196,65900,1,0,0:0:0:0:
268,196,66025,1,0,0:0:0:0:
260,192,66150,1,8,0:0:0:0:
32,188,70650,6,0,L|468:184,1,420
256,192,71962,5,0,0:0:0:0:
341,309,72025,1,0,0:0:0:0:
394,236,72087,1,0,0:0:0:0:
373,277,72150,1,8,0:0:0:0:
256,192,72212,5,0,0:0:0:0:
300,330,72275,1,8,0:0:0:0:
256,192,72337,5,0,0:0:0:0:
256,337,72431,1,0,0:0:0:0:
211,330,72525,1,8,0:0:0:0:
170,309,72618,1,0,0:0:0:0:
138,277,72712,1,0,0:0:0:0:
110,191,72900,1,0,0:0:0:0:
138,106,73087,1,0,0:0:0:0:
170,74,73181,1,8,0:0:0:0:
211,53,73275,1,8,0:0:0:0:
256,46,73368,1,0,0:0:0:0:
341,74,73556,1,8,0:0:0:0:
373,106,73650,1,0,0:0:0:0:
394,147,73743,1,8,0:0:0:0:
401,192,73837,1,0,0:0:0:0:
394,236,73931,1,8,0:0:0:0:
373,277,74025,1,8,0:0:0:0:
300,330,74212,1,0,0:0:0:0:
211,330,74400,1,0,0:0:0:0:
170,309,74493,1,8,0:0:0:0:
138,277,74587,1,8,0:0:0:0:
117,236,74681,1,8,0:0:0:0:
110,191,74775,1,0,0:0:0:0:
117,147,74868,1,8,0:0:0:0:
138,106,74962,1,0,0:0:0:0:
211,53,75150,1,0,0:0:0:0:
256,46,75243,1,0,0:0:0:0:
300,53,75337,1,0,0:0:0:0:
341,74,75431,1,8,0:0:0:0:
373,106,75525,1,0,0:0:0:0:
394,147,75618,1,0,0:0:0:0:
401,192,75712,1,0,0:0:0:0:
394,236,75806,1,8,0:0:0:0:
373,277,75900,1,8,0:0:0:0:
341,309,75993,1,0,0:0:0:0:
300,330,76087,1,0,0:0:0:0:
255,337,76181,1,8,0:0:0:0:
211,330,76275,1,8,0:0:0:0:
170,309,76368,1,8,0:0:0:0:
138,277,76462,1,0,0:0:0:0:
117,236,76556,1,8,0:0:0:0:
110,191,76650,1,8,0:0:0:0:
117,147,76743,1,8,0:0:0:0:
170,74,76837,1,0,0:0:0:0:
211,53,76931,1,8,0:0:0:0:
256,46,77025,1,8,0:0:0:0:
300,53,77118,1,8,0:0:0:0:
341,74,77306,1,0,0:0:0:0:
373,106,77400,1,8,0:0:0:0:
394,147,77493,1,8,0:0:0:0:
394,236,77681,1,0,0:0:0:0:
373,277,77775,1,0,0:0:0:0:
341,309,77868,1,8,0:0:0:0:
300,330,77962,1,0,0:0:0:0:
255,337,78056,1,0,0:0:0:0:
260,192,78243,1,8,0:0:0:0:
138,277,78337,1,8,0:0:0:0:
117,236,78431,1,0,0:0:0:0:
110,191,78525,1,8,0:0:0:0:
117,147,78618,1,0,0:0:0:0:
170,74,78806,1,0,0:0:0:0:
211,53,78900,1,0,0:0:0:0:
256,46,78993,1,0,0:0:0:0:
300,53,79087,1,8,0:0:0:0:
341,74,79181,1,8,0:0:0:0:
373,106,79275,1,8,0:0:0:0:
394,147,79368,1,8,0:0:0:0:
401,192,79462,1,8,0:0:0:0:
394,236,79556,1,8,0:0:0:0:
373,277,79650,1,0,0:0:0:0:
341,309,79743,1,0,0:0:0:0:
300,330,79837,1,0,0:0:0:0:
255,337,79931,1,0,0:0:0:0:
211,330,80025,1,0,0:0:0:0:
170,309,80118,1,8,0:0:0:0:
138,277,80212,1,0,0:0:0:0:
117,236,80306,1,0,0:0:0:0:
110,191,80400,1,8,0:0:0:0:
117,147,80493,1,8,0:0:0:0:
138,106,80587,1,0,0:0:0:0:
211,53,80775,1,0,0:0:0:0:
256,46,80868,1,0,0:0:0:0:
300,53,80962,1,8,0:0:0:0:
341,74,81056,1,8,0:0:0:0:
373,106,81150,1,8,0:0:0:0:
394,147,81243,1,0,0:0:0:0:
394,236,81431,1,0,0:0:0:0:
373,277,81525,1,0,0:0:0:0:
341,309,81618,1,8,0:0:0:0:
300,330,81712,1,8,0:0:0:0:
255,337,81806,1,8,0:0:0:0:
211,330,81900,1,8,0:0:0:0:
170,309,81993,1,8,0:0:0:0:
138,277,82087,1,8,0:0:0:0:
117,236,82181,1,0,0:0:0:0:
110,191,82275,1,0,0:0:0:0:
138,106,82462,1,0,0:0:0:0:
211,53,82650,1,8,0:0:0:0:
256,46,82743,1,8,0:0:0:0:
300,53,82837,1,8,0:0:0:0:
341,74,82931,1,8,0:0:0:0:
373,106,83025,1,8,0:0:0:0:
394,147,83118,1,8,0:0:0:0:
401,192,83212,1,8,0:0:0:0:
394,236,83306,1,8,0:0:0:0:
373,277,83400,1,0,0:0:0:0:
300,330,83587,1,0,0:0:0:0:
255,337,83650,1,0,0:0:0:0:
211,330,83712,1,0,0:0:0:0:
170,309,83775,1,0,0:0:0:0:
138,277,83837,1,8,0:0:0:0:
117,236,83962,1,0,0:0:0:0:
110,191,84056,1,8,0:0:0:0:
117,147,84150,1,8,0:0:0:0:
138,106,84337,1,8,0:0:0:0:
170,74,84431,1,8,0:0:0:0:
211,53,84525,1,0,0:0:0:0:
300,53,84712,1,0,0:0:0:0:
341,74,84806,1,8,0:0:0:0:
373,106,84900,1,8,0:0:0:0:
394,147,84993,1,8,0:0:0:0:
401,192,85181,1,0,0:0:0:0:
256,192,85368,1,0,0:0:0:0:
260,188,85509,1,8,0:0:0:0:
256,192,85650,1,8,0:0:0:0:
260,188,85790,1,0,0:0:0:0:
256,192,85931,1,8,0:0:0:0:
256,192,86024,1,8,0:0:0:0:
260,192,86087,1,0,0:0:0:0:
260,192,86149,1,0,0:0:0:0:
260,192,86212,1,8,0:0:0:0:
256,192,86400,1,0,0:0:0:0:
256,192,86587,1,8,0:0:0:0:
256,192,86775,1,0,0:0:0:0:
256,192,87025,1,0,0:0:0:0:
422,266,87337,1,0,0:0:0:0:
378,327,87400,1,0,0:0:0:0:
312,365,87462,1,0,0:0:0:0:
236,373,87525,1,8,0:0:0:0:
77,229,87712,1,0,0:0:0:0:
108,84,87837,1,0,0:0:0:0:
164,34,87900,1,0,0:0:0:0:
236,10,87962,1,8,0:0:0:0:
312,18,88025,1,8,0:0:0:0:
378,56,88087,1,8,0:0:0:0:
422,117,88150,1,0,0:0:0:0:
438,192,88212,1,8,0:0:0:0:
422,266,88400,1,0,0:0:0:0:
378,327,88462,1,8,0:0:0:0:
312,365,88525,1,8,0:0:0:0:
108,299,88587,1,8,0:0:0:0:
108,84,88650,1,0,0:0:0:0:
260,196,88837,1,0,0:0:0:0:
164,34,89025,1,0,0:0:0:0:
236,10,89088,1,8,0:0:0:0:
312,18,89150,1,8,0:0:0:0:
378,56,89213,1,8,0:0:0:0:
422,117,89275,1,8,0:0:0:0:
422,266,89338,1,8,0:0:0:0:
256,192,89493,1,0,0:0:0:0:
256,192,89587,1,0,0:0:0:0:
256,192,89775,1,0,0:0:0:0:
260,196,89868,1,0,0:0:0:0:
256,192,89962,1,0,0:0:0:0:
256,192,90056,1,8,0:0:0:0:
378,327,90150,1,0,0:0:0:0:
312,365,90212,1,0,0:0:0:0:
236,373,90275,1,0,0:0:0:0:
164,349,90337,1,8,0:0:0:0:
108,299,90400,1,8,0:0:0:0:
77,229,90462,1,8,0:0:0:0:
77,154,90525,1,8,0:0:0:0:
108,84,90587,1,8,0:0:0:0:
252,188,90806,1,0,0:0:0:0:
256,196,90900,1,0,0:0:0:0:
256,192,90993,1,0,0:0:0:0:
236,10,91149,1,0,0:0:0:0:
312,18,91212,1,0,0:0:0:0:
378,56,91274,1,8,0:0:0:0:
422,117,91337,1,8,0:0:0:0:
438,192,91399,1,0,0:0:0:0:
422,266,91462,1,8,0:0:0:0:
164,349,91525,1,8,0:0:0:0:
108,299,91587,1,8,0:0:0:0:
77,229,91650,1,0,0:0:0:0:
77,154,91713,1,8,0:0:0:0:
108,84,91776,1,8,0:0:0:0:
164,34,91838,1,8,0:0:0:0:
256,196,92025,1,0,0:0:0:0:
256,196,92118,1,0,0:0:0:0:
264,196,92212,1,0,0:0:0:0:
256,192,92337,1,8,0:0:0:0:
378,56,92399,1,8,0:0:0:0:
422,117,92461,1,8,0:0:0:0:
438,192,92525,1,8,0:0:0:0:
256,192,92587,1,8,0:0:0:0:
256,192,92650,1,8,0:0:0:0:
256,192,92712,1,0,0:0:0:0:
256,192,92868,1,8,0:0:0:0:
223,248,93056,1,0,0:0:0:0:
223,135,93150,1,0,0:0:0:0:
321,192,93243,1,0,0:0:0:0:
223,248,93337,1,8,0:0:0:0:
223,135,93431,1,8,0:0:0:0:
321,192,93525,1,8,0:0:0:0:
223,248,93618,1,8,0:0:0:0:
223,135,93712,1,8,0:0:0:0:
321,192,93806,1,8,0:0:0:0:
223,248,93900,1,8,0:0:0:0:
223,135,93993,1,8,0:0:0:0:
321,192,94087,1,8,0:0:0:0:
223,248,94181,1,8,0:0:0:0:
223,135,94275,1,0,0:0:0:0:
321,192,94368,1,0,0:0:0:0:
223,248,94462,1,0,0:0:0:0:
223,135,94556,1,0,0:0:0:0:
321,192,94650,1,0,0:0:0:0:
223,248,94743,1,8,0:0:0:0:
223,135,94837,1,8,0:0:0:0:
321,192,94931,1,8,0:0:0:0:
223,248,95025,1,0,0:0:0:0:
223,135,95118,1,0,0:0:0:0:
321,192,95212,1,0,0:0:0:0:
223,248,95306,1,8,0:0:0:0:
223,135,95400,1,0,0:0:0:0:
321,192,95493,1,0,0:0:0:0:
223,248,95587,1,0,0:0:0:0:
223,135,95681,1,8,0:0:0:0:
321,192,95775,1,0,0:0:0:0:
252,196,95837,1,0,0:0:0:0:
248,192,95900,1,0,0:0:0:0:
256,192,95962,1,8,0:0:0:0:
256,192,96087,1,0,0:0:0:0:
