osu file format v14

[General]
AudioFilename: audio.mp3
AudioLeadIn: 0
PreviewTime: -1
Countdown: 0
SampleSet: Soft
StackLeniency: 0.7
Mode: 3
LetterboxInBreaks: 0
SpecialStyle: 0
WidescreenStoryboard: 1

[Editor]
Bookmarks: 42150,144150,150150,180150
DistanceSpacing: 1.3
BeatDivisor: 4
GridSize: 4
TimelineZoom: 1.3

[Metadata]
Title:BUBBLE TEA (feat. juu & cinders)
TitleUnicode:BUBBLE TEA (feat. juu & cinders)
Artist:dark cat
ArtistUnicode:dark cat
Creator:Tornspirit
Version:Easy
Source:
Tags:catstep
BeatmapID:1266895
BeatmapSetID:599305

[Difficulty]
HPDrainRate:7
CircleSize:5
OverallDifficulty:7
ApproachRate:5
SliderMultiplier:1.4
SliderTickRate:1

[Events]
//Background and Video events
0,0,"dar cat.png",0,0
//Break Periods
2,36350,40950
2,144350,148950
//Storyboard Layer 0 (Background)
//Storyboard Layer 1 (Fail)
//Storyboard Layer 2 (Pass)
//Storyboard Layer 3 (Foreground)
//Storyboard Sound Samples

[TimingPoints]
150,375,4,2,0,10,1,0
72150,-100,4,2,0,10,0,1
96150,-100,4,2,0,10,0,0
180150,-100,4,2,0,10,0,1
204150,-100,4,2,0,10,0,0

[HitObjects]
51,192,3900,5,0,0:0:0:0:
256,192,4650,1,0,0:0:0:0:
460,192,5212,1,0,0:0:0:0:
153,192,9900,1,0,0:0:0:0:
460,192,10650,1,0,0:0:0:0:
256,192,11212,1,0,0:0:0:0:
153,192,11775,1,0,0:0:0:0:
51,192,12150,1,0,0:0:0:0:
51,192,12712,1,0,0:0:0:0:
153,192,13650,1,0,0:0:0:0:
153,192,14212,1,0,0:0:0:0:
358,192,15150,1,0,0:0:0:0:
256,192,15712,1,0,0:0:0:0:
153,192,16275,1,0,0:0:0:0:
460,192,16837,1,0,0:0:0:0:
51,192,17400,1,0,0:0:0:0:
460,192,18150,1,0,0:0:0:0:
460,192,18712,1,0,0:0:0:0:
358,192,19650,1,0,0:0:0:0:
358,192,20212,1,0,0:0:0:0:
51,192,21150,1,0,0:0:0:0:
256,192,21712,1,0,0:0:0:0:
460,192,22275,1,0,0:0:0:0:
153,192,22837,1,0,0:0:0:0:
358,192,23400,1,0,0:0:0:0:
51,192,24150,1,0,0:0:0:0:
153,192,24712,1,0,0:0:0:0:
256,192,25275,1,0,0:0:0:0:
153,192,25837,1,0,0:0:0:0:
51,192,26400,1,0,0:0:0:0:
460,192,27150,1,0,0:0:0:0:
358,192,27712,1,0,0:0:0:0:
256,192,28275,1,0,0:0:0:0:
51,192,28837,1,0,0:0:0:0:
358,192,29400,1,0,0:0:0:0:
460,192,30150,1,0,0:0:0:0:
358,192,30712,1,0,0:0:0:0:
256,192,31275,1,0,0:0:0:0:
358,192,31837,1,0,0:0:0:0:
460,192,32400,1,0,0:0:0:0:
51,192,33150,1,0,0:0:0:0:
153,192,33712,1,0,0:0:0:0:
460,192,34275,1,0,0:0:0:0:
358,192,34837,1,0,0:0:0:0:
256,192,35400,1,0,0:0:0:0:
256,192,36150,1,0,0:0:0:0:
460,192,42150,5,0,0:0:0:0:
153,192,42712,1,0,0:0:0:0:
358,192,43650,1,0,0:0:0:0:
51,192,44212,1,0,0:0:0:0:
256,192,45150,1,0,0:0:0:0:
51,192,45900,1,0,0:0:0:0:
153,192,46650,1,0,0:0:0:0:
358,192,47212,1,0,0:0:0:0:
153,192,48150,1,0,0:0:0:0:
358,192,48712,1,0,0:0:0:0:
51,192,49650,1,0,0:0:0:0:
460,192,50212,1,0,0:0:0:0:
256,192,51150,1,0,0:0:0:0:
460,192,51900,1,0,0:0:0:0:
358,192,52650,1,0,0:0:0:0:
153,192,53212,1,0,0:0:0:0:
51,192,54150,1,0,0:0:0:0:
358,192,54712,1,0,0:0:0:0:
460,192,55650,1,0,0:0:0:0:
153,192,56212,1,0,0:0:0:0:
256,192,57150,1,0,0:0:0:0:
51,192,57900,1,0,0:0:0:0:
358,192,58650,1,0,0:0:0:0:
460,192,59212,1,0,0:0:0:0:
256,192,60150,1,0,0:0:0:0:
153,192,60712,1,0,0:0:0:0:
256,192,61650,1,0,0:0:0:0:
358,192,62212,1,0,0:0:0:0:
256,192,63150,1,0,0:0:0:0:
460,192,63900,1,0,0:0:0:0:
153,192,64650,1,0,0:0:0:0:
51,192,65212,1,0,0:0:0:0:
460,192,66150,128,0,69150:0:0:0:0:
51,192,67650,128,0,69150:0:0:0:0:
256,192,71400,1,0,0:0:0:0:
460,192,72150,5,0,0:0:0:0:
460,192,72900,1,0,0:0:0:0:
51,192,73650,1,0,0:0:0:0:
51,192,74400,1,0,0:0:0:0:
358,192,75150,1,0,0:0:0:0:
153,192,75900,1,0,0:0:0:0:
358,192,76650,1,0,0:0:0:0:
256,192,77775,1,0,0:0:0:0:
51,192,78150,1,0,0:0:0:0:
460,192,78900,1,0,0:0:0:0:
256,192,79650,1,0,0:0:0:0:
256,192,80400,1,0,0:0:0:0:
460,192,81150,1,0,0:0:0:0:
51,192,81900,1,0,0:0:0:0:
460,192,82650,1,0,0:0:0:0:
256,192,83775,5,0,0:0:0:0:
153,192,84525,128,0,85462:0:0:0:0:
358,192,86025,128,0,86962:0:0:0:0:
51,192,87525,128,0,88462:0:0:0:0:
460,192,89212,1,0,0:0:0:0:
153,192,90150,1,0,0:0:0:0:
153,192,90900,1,0,0:0:0:0:
358,192,91650,1,0,0:0:0:0:
358,192,92400,1,0,0:0:0:0:
51,192,93150,1,0,0:0:0:0:
358,192,93900,1,0,0:0:0:0:
153,192,94650,1,0,0:0:0:0:
256,192,95775,1,0,0:0:0:0:
460,192,96150,1,0,0:0:0:0:
460,192,96712,1,0,0:0:0:0:
358,192,97650,1,0,0:0:0:0:
358,192,98212,1,0,0:0:0:0:
51,192,99150,1,0,0:0:0:0:
153,192,99712,1,0,0:0:0:0:
460,192,100275,1,0,0:0:0:0:
256,192,100837,1,0,0:0:0:0:
358,192,101400,1,0,0:0:0:0:
51,192,102150,1,0,0:0:0:0:
51,192,102712,1,0,0:0:0:0:
153,192,103650,1,0,0:0:0:0:
153,192,104212,1,0,0:0:0:0:
358,192,105150,1,0,0:0:0:0:
256,192,105712,1,0,0:0:0:0:
153,192,106275,1,0,0:0:0:0:
460,192,106837,1,0,0:0:0:0:
256,192,107400,1,0,0:0:0:0:
51,192,108150,1,0,0:0:0:0:
460,192,108712,1,0,0:0:0:0:
51,192,109275,1,0,0:0:0:0:
460,192,109837,1,0,0:0:0:0:
51,192,110400,1,0,0:0:0:0:
358,192,111150,1,0,0:0:0:0:
153,192,111712,1,0,0:0:0:0:
358,192,112275,1,0,0:0:0:0:
153,192,112837,1,0,0:0:0:0:
358,192,113400,1,0,0:0:0:0:
460,192,114150,1,0,0:0:0:0:
358,192,114712,1,0,0:0:0:0:
256,192,115275,1,0,0:0:0:0:
153,192,115837,1,0,0:0:0:0:
51,192,116400,1,0,0:0:0:0:
51,192,117150,1,0,0:0:0:0:
153,192,117712,1,0,0:0:0:0:
256,192,118275,1,0,0:0:0:0:
358,192,118837,1,0,0:0:0:0:
460,192,119400,1,0,0:0:0:0:
51,192,120150,1,0,0:0:0:0:
51,192,120712,1,0,0:0:0:0:
153,192,121650,1,0,0:0:0:0:
153,192,122212,1,0,0:0:0:0:
358,192,123150,1,0,0:0:0:0:
256,192,123712,1,0,0:0:0:0:
153,192,124275,1,0,0:0:0:0:
460,192,124837,1,0,0:0:0:0:
51,192,125400,1,0,0:0:0:0:
460,192,126150,1,0,0:0:0:0:
460,192,126712,1,0,0:0:0:0:
358,192,127650,1,0,0:0:0:0:
358,192,128212,1,0,0:0:0:0:
51,192,129150,1,0,0:0:0:0:
256,192,129712,1,0,0:0:0:0:
460,192,130275,1,0,0:0:0:0:
153,192,130837,1,0,0:0:0:0:
358,192,131400,1,0,0:0:0:0:
51,192,132150,1,0,0:0:0:0:
256,192,132712,1,0,0:0:0:0:
460,192,133275,1,0,0:0:0:0:
256,192,133837,1,0,0:0:0:0:
51,192,134400,1,0,0:0:0:0:
460,192,135150,1,0,0:0:0:0:
358,192,135712,1,0,0:0:0:0:
51,192,136275,1,0,0:0:0:0:
153,192,136837,1,0,0:0:0:0:
460,192,137400,1,0,0:0:0:0:
51,192,138150,1,0,0:0:0:0:
256,192,138712,1,0,0:0:0:0:
460,192,139275,1,0,0:0:0:0:
256,192,139837,1,0,0:0:0:0:
51,192,140400,1,0,0:0:0:0:
153,192,141150,1,0,0:0:0:0:
256,192,141712,1,0,0:0:0:0:
358,192,142275,1,0,0:0:0:0:
153,192,142837,1,0,0:0:0:0:
256,192,143400,1,0,0:0:0:0:
256,192,144150,1,0,0:0:0:0:
460,192,150150,5,0,0:0:0:0:
256,192,150712,1,0,0:0:0:0:
358,192,151650,1,0,0:0:0:0:
153,192,152212,1,0,0:0:0:0:
51,192,153150,1,0,0:0:0:0:
460,192,153900,1,0,0:0:0:0:
256,192,154650,1,0,0:0:0:0:
51,192,155212,1,0,0:0:0:0:
153,192,156150,1,0,0:0:0:0:
460,192,156712,1,0,0:0:0:0:
51,192,157650,1,0,0:0:0:0:
358,192,158212,1,0,0:0:0:0:
256,192,159150,1,0,0:0:0:0:
51,192,159900,1,0,0:0:0:0:
256,192,160650,1,0,0:0:0:0:
460,192,161212,1,0,0:0:0:0:
51,192,162150,1,0,0:0:0:0:
460,192,162712,1,0,0:0:0:0:
460,192,163650,1,0,0:0:0:0:
51,192,164212,1,0,0:0:0:0:
256,192,165150,1,0,0:0:0:0:
51,192,165900,1,0,0:0:0:0:
153,192,166650,1,0,0:0:0:0:
358,192,167212,1,0,0:0:0:0:
256,192,168150,1,0,0:0:0:0:
51,192,168712,1,0,0:0:0:0:
256,192,169650,1,0,0:0:0:0:
460,192,170212,1,0,0:0:0:0:
256,192,171150,1,0,0:0:0:0:
460,192,171900,1,0,0:0:0:0:
153,192,172650,1,0,0:0:0:0:
51,192,173212,1,0,0:0:0:0:
358,192,174150,128,0,177150:0:0:0:0:
153,192,175650,128,0,177150:0:0:0:0:
256,192,179400,1,0,0:0:0:0:
460,192,180150,5,0,0:0:0:0:
460,192,180900,1,0,0:0:0:0:
51,192,181650,1,0,0:0:0:0:
51,192,182400,1,0,0:0:0:0:
358,192,183150,1,0,0:0:0:0:
153,192,183900,1,0,0:0:0:0:
358,192,184650,1,0,0:0:0:0:
256,192,185775,1,0,0:0:0:0:
51,192,186150,1,0,0:0:0:0:
460,192,186900,1,0,0:0:0:0:
256,192,187650,1,0,0:0:0:0:
256,192,188400,1,0,0:0:0:0:
460,192,189150,1,0,0:0:0:0:
51,192,189900,1,0,0:0:0:0:
460,192,190650,1,0,0:0:0:0:
256,192,191775,5,0,0:0:0:0:
153,192,192712,128,0,193462:0:0:0:0:
358,192,194212,128,0,194962:0:0:0:0:
51,192,195712,128,0,196462:0:0:0:0:
460,192,197212,1,0,0:0:0:0:
153,192,198150,1,0,0:0:0:0:
153,192,198900,1,0,0:0:0:0:
358,192,199650,1,0,0:0:0:0:
358,192,200400,1,0,0:0:0:0:
51,192,201150,1,0,0:0:0:0:
358,192,201900,1,0,0:0:0:0:
153,192,202650,1,0,0:0:0:0:
256,192,203775,1,0,0:0:0:0:
460,192,204150,1,0,0:0:0:0:
460,192,204712,1,0,0:0:0:0:
256,192,205650,1,0,0:0:0:0:
256,192,206212,1,0,0:0:0:0:
153,192,207150,1,0,0:0:0:0:
256,192,207712,1,0,0:0:0:0:
358,192,208275,1,0,0:0:0:0:
51,192,208837,1,0,0:0:0:0:
460,192,209400,1,0,0:0:0:0:
256,192,210150,1,0,0:0:0:0:
256,192,210712,1,0,0:0:0:0:
153,192,211650,1,0,0:0:0:0:
153,192,212212,1,0,0:0:0:0:
460,192,213150,1,0,0:0:0:0:
358,192,213712,1,0,0:0:0:0:
256,192,214275,1,0,0:0:0:0:
51,192,214837,1,0,0:0:0:0:
358,192,215400,1,0,0:0:0:0:
51,192,216150,1,0,0:0:0:0:
153,192,216712,1,0,0:0:0:0:
358,192,217275,1,0,0:0:0:0:
460,192,217837,1,0,0:0:0:0:
358,192,218400,1,0,0:0:0:0:
153,192,219150,1,0,0:0:0:0:
256,192,219712,1,0,0:0:0:0:
358,192,220275,1,0,0:0:0:0:
51,192,220837,1,0,0:0:0:0:
358,192,221400,1,0,0:0:0:0:
460,192,222150,1,0,0:0:0:0:
358,192,222712,1,0,0:0:0:0:
153,192,223275,1,0,0:0:0:0:
51,192,223837,1,0,0:0:0:0:
153,192,224400,1,0,0:0:0:0:
358,192,225150,1,0,0:0:0:0:
256,192,225712,1,0,0:0:0:0:
153,192,226275,1,0,0:0:0:0:
460,192,226837,1,0,0:0:0:0:
51,192,227400,1,0,0:0:0:0:
256,192,228150,1,0,0:0:0:0:
