osu file format v14

[General]
AudioFilename: audio.mp3
AudioLeadIn: 0
PreviewTime: 42150
Countdown: 1
SampleSet: Soft
StackLeniency: 0.7
Mode: 0
LetterboxInBreaks: 0
WidescreenStoryboard: 1

[Editor]
Bookmarks: 9056,23962,41493,84712,120056,132150,149775
DistanceSpacing: 1
BeatDivisor: 4
GridSize: 4
TimelineZoom: 1.1

[Metadata]
Title:BUBBLE TEA (feat. juu & cinders)
TitleUnicode:BUBBLE TEA (feat. juu & cinders)
Artist:dark cat
ArtistUnicode:dark cat
Creator:Regou
Version:pishi's Normal
Source:
Tags:pishifat
BeatmapID:1513231
BeatmapSetID:716213

[Difficulty]
HPDrainRate:4
CircleSize:3.2
OverallDifficulty:4
ApproachRate:5
SliderMultiplier:1
SliderTickRate:2

[Events]
//Background and Video events
0,0,"BG.jpg",0,0
//Break Periods
2,96350,100200
2,102350,106200
//Storyboard Layer 0 (Background)
//Storyboard Layer 1 (Fail)
//Storyboard Layer 2 (Pass)
//Storyboard Layer 3 (Foreground)
//Storyboard Sound Samples

[TimingPoints]
150,375,4,2,1,30,1,0
35400,-100,4,2,1,20,0,0
35775,-100,4,2,1,30,0,0
36150,-100,4,2,1,15,0,0
42525,-100,4,2,1,40,0,0
66525,-100,4,2,1,20,0,0
67087,-100,4,2,1,25,0,0
67837,-100,4,2,1,30,0,0
68400,-100,4,2,1,35,0,0
72150,-90.9090909090909,4,2,2,40,0,1
96150,-90.9090909090909,4,2,1,30,0,0
101400,-90.9090909090909,4,2,1,30,0,0
107306,-100,4,2,1,30,0,0
120150,-100,4,2,1,30,0,0
143400,-100,4,2,1,20,0,0
143775,-100,4,2,1,30,0,0
144150,-100,4,2,1,15,0,0
150525,-100,4,2,1,35,0,0
174525,-100,4,2,1,20,0,0
175087,-100,4,2,1,25,0,0
175837,-100,4,2,1,30,0,0
176400,-100,4,2,1,35,0,0
180150,-90.9090909090909,4,2,2,40,0,1
204150,-90.9090909090909,4,2,1,30,0,0

[Colours]
Combo1 : 196,255,255
Combo2 : 255,255,176
Combo3 : 255,147,201
Combo4 : 234,213,255

[HitObjects]
510,69,9150,6,0,P|443:76|369:121,1,150,2|0,0:0|0:0,0:0:0:0:
225,147,10275,2,0,P|289:165|354:222,1,150,0|0,0:0|0:0,0:0:0:0:
501,220,11400,2,0,P|440:249|386:317,1,150,0|0,0:0|1:0,0:0:0:0:
374,360,12150,6,0,L|274:373,1,100,0|0,1:0|0:0,0:0:0:0:
226,384,12712,1,0,0:0:0:0:
100,302,13275,1,0,0:0:0:0:
13,352,13650,2,0,P|-14:293|-10:197,1,150
17,62,14775,1,0,0:0:0:0:
105,108,15150,6,0,P|178:100|249:61,1,150,0|0,0:0|0:2,0:0:0:0:
387,18,16275,2,0,P|357:85|355:166,1,150,0|0,0:2|0:2,0:0:0:0:
280,291,17400,2,0,P|236:231|199:206,1,100,0|0,0:0|0:0,0:0:0:0:
124,255,18150,6,0,L|20:271,1,100,0|0,0:0|0:0,0:0:0:0:
31,319,18712,2,0,L|129:303,1,100,0|0,0:0|0:0,0:0:0:0:
171,331,19275,1,0,0:0:0:0:
253,273,19650,2,0,L|269:169,1,100,0|0,0:0|0:0,0:0:0:0:
317,180,20212,2,0,L|301:278,1,100,0|0,0:0|0:0,0:0:0:0:
329,320,20775,1,0,0:0:0:0:
414,372,21150,6,0,P|474:353|506:320,1,100,0|0,0:2|0:0,0:0:0:0:
496,278,21712,2,0,P|440:248|414:210,1,100,0|0,0:2|0:0,0:0:0:0:
412,169,22275,2,0,P|461:130|480:88,1,100,0|0,0:2|0:0,0:0:0:0:
461,50,22837,2,0,P|402:25|357:30,1,100,0|0,0:2|0:0,0:0:0:0:
323,54,23400,1,0,0:0:0:0:
231,13,23775,1,0,0:0:0:0:
151,73,24150,6,0,L|134:241,1,150,2|2,0:0|0:0,0:0:0:0:
283,197,25275,2,0,L|383:182,1,100,2|0,0:0|0:0,0:0:0:0:
432,177,25837,1,2,0:0:0:0:
440,327,26400,2,0,L|340:340,1,100,2|0,0:0|0:0,0:0:0:0:
291,350,26962,1,2,0:0:0:0:
241,356,27150,6,0,P|173:342|94:285,1,150,2|2,0:2|0:2,0:0:0:0:
234,219,28275,2,0,P|302:205|381:148,1,150,2|2,0:2|0:2,0:0:0:0:
245,75,29400,2,0,P|195:63|153:30,1,100,2|2,0:0|0:0,0:0:0:0:
57,18,30150,6,0,L|41:123,1,100,2|0,0:0|0:3,0:0:0:0:
79,149,30712,2,0,L|63:247,1,100,2|0,0:2|0:2,0:0:0:0:
40,292,31275,1,2,0:2:0:0:
133,329,31650,1,0,0:2:0:0:
182,321,31837,2,0,L|287:305,1,100,2|0,0:2|0:2,0:0:0:0:
330,299,32400,1,2,0:2:0:0:
337,199,32775,2,0,L|287:206,1,50,0|2,0:2|0:2,0:0:0:0:
249,173,33150,6,0,P|229:124|244:60,1,100,2|0,0:0|0:2,0:0:0:0:
283,65,33712,2,0,P|323:30|388:25,1,100,2|0,0:0|0:2,0:0:0:0:
396,63,34275,2,0,P|440:90|466:151,1,100,2|0,0:0|0:2,0:0:0:0:
432,170,34837,2,0,P|419:221|369:264,1,100,2|0,0:2|0:3,0:0:0:0:
342,238,35400,2,0,L|227:229,1,100,0|0,1:0|0:0,0:0:0:0:
142,220,36150,6,0,L|150:281,2,50,0|0|4,3:0|0:0|0:0,0:0:0:0:
256,192,39243,12,0,41400,0:0:0:0:
118,65,42150,5,0,0:0:0:0:
204,115,42525,1,0,0:0:0:0:
248,136,42712,2,0,P|297:130|343:111,1,100,0|0,0:0|0:0,0:0:0:0:
442,95,43462,2,0,P|422:140|416:189,1,100,0|0,0:0|0:0,0:0:0:0:
382,284,44212,2,0,P|352:244|312:214,1,100,0|0,0:0|0:0,0:0:0:0:
262,222,44775,2,0,L|203:232,1,50,0|0,0:0|0:0,0:0:0:0:
163,239,45150,5,0,0:0:0:0:
15,264,45712,1,0,0:0:0:0:
42,222,45900,2,0,L|51:159,2,50,0|0|0,0:0|0:0|0:0,0:0:0:0:
98,304,46650,2,0,L|105:353,2,50,0|0|0,0:0|0:0|0:0,0:0:0:0:
172,236,47400,2,0,L|179:186,2,50,0|0|0,0:0|0:0|0:0,0:0:0:0:
198,278,47962,1,0,0:0:0:0:
246,292,48150,5,0,0:0:0:0:
320,225,48525,1,0,0:0:0:0:
356,190,48712,2,0,P|405:196|451:215,1,100,0|0,0:0|0:0,0:0:0:0:
475,312,49462,2,0,P|445:351|405:381,1,100,0|0,0:0|0:0,0:0:0:0:
309,353,50212,2,0,P|289:307|283:258,1,100,0|0,0:0|0:0,0:0:0:0:
290,207,50775,2,0,L|298:153,1,50,0|0,0:0|0:0,0:0:0:0:
306,108,51150,5,0,0:0:0:0:
193,9,51712,1,0,0:0:0:0:
154,41,51900,2,0,L|98:53,2,50,0|0|0,0:0|0:0|0:0,0:0:0:0:
119,134,52650,2,0,L|62:126,2,50,0|0|0,0:0|0:0|0:0,0:0:0:0:
57,213,53400,2,0,L|6:186,2,50,0|0|0,0:0|0:0|0:0,0:0:0:0:
85,253,53962,1,0,0:0:0:0:
116,292,54150,5,0,0:0:0:0:
214,277,54525,1,0,0:0:0:0:
262,267,54712,2,0,P|287:224|298:175,2,100,0|0|0,0:0|0:0|0:0,0:0:0:0:
229,361,55837,2,0,P|276:346|326:347,1,100,0|0,0:0|0:0,0:0:0:0:
425,330,56587,2,0,P|388:295|364:252,1,100,0|0,0:0|0:0,0:0:0:0:
358,202,57150,5,0,0:0:0:0:
298,64,57712,1,0,0:0:0:0:
346,75,57900,2,0,L|401:61,2,50,0|0|0,0:0|0:0|0:0,0:0:0:0:
277,147,58650,2,0,L|222:133,2,50,0|0|0,0:0|0:0|0:0,0:0:0:0:
358,202,59400,2,0,L|413:188,2,50,0|0|0,0:0|0:0|0:0,0:0:0:0:
324,238,59962,1,0,0:0:0:0:
314,287,60150,5,0,0:0:0:0:
221,323,60525,1,0,0:0:0:0:
173,339,60712,2,0,P|112:330|69:305,2,100,0|0|0,0:0|0:0|0:0,0:0:0:0:
150,241,61837,2,0,P|115:205|94:159,1,100,0|0,0:0|0:0,0:0:0:0:
194,150,62587,2,0,P|190:100|203:52,1,100,0|0,0:0|0:0,0:0:0:0:
241,18,63150,5,0,0:0:0:0:
318,146,63712,1,0,0:0:0:0:
348,185,63900,2,0,L|412:170,2,50,0|0|0,0:0|0:0|0:0,0:0:0:0:
421,252,64650,2,0,L|483:271,2,50,0|0|0,0:0|0:0|0:0,0:0:0:0:
451,347,65400,2,0,L|495:394,2,50,0|0|0,0:0|0:0|0:0,0:0:0:0:
403,362,65962,1,0,0:0:0:0:
355,377,66150,5,0,0:0:0:0:
256,192,66243,12,0,69150,3:0:0:0:
256,192,69525,12,0,71400,0:0:0:0:
66,322,72150,6,0,P|102:361|155:374,1,110.000003356934,0|0,1:0|0:0,0:0:0:0:
208,360,72712,1,0,1:0:0:0:
260,343,72900,1,8,1:0:0:0:
220,241,73275,1,0,1:0:0:0:
300,166,73650,2,0,L|366:176,2,55.0000016784668,0|0|0,0:0|1:0|1:0,0:0:0:0:
253,67,74400,2,0,L|187:77,2,55.0000016784668,8|2|0,1:0|0:0|0:0,0:0:0:0:
340,0,75150,6,0,P|394:0|441:27,1,110.000003356934,0|2,1:0|0:0,0:0:0:0:
495,34,75712,2,0,P|511:85|500:139,1,110.000003356934,0|2,1:0|0:0,0:0:0:0:
507,193,76275,2,0,P|462:224|408:230,1,110.000003356934,0|2,1:0|0:0,0:0:0:0:
362,259,76837,2,0,P|318:226|296:176,1,110.000003356934,0|2,1:0|0:0,0:0:0:0:
256,138,77400,2,0,P|273:86|288:70,2,55.0000016784668,8|0|0,1:0|0:0|0:0,0:0:0:0:
209,237,78150,6,0,L|90:221,1,110.000003356934,0|0,1:0|0:0,0:0:0:0:
50,245,78712,1,0,1:0:0:0:
0,268,78900,1,8,1:0:0:0:
89,326,79275,1,0,1:0:0:0:
178,384,79650,2,0,L|236:373,2,55.0000016784668,0|0|0,0:0|1:0|1:0,0:0:0:0:
221,282,80400,2,0,L|275:292,1,55.0000016784668,8|2,1:0|0:0,0:0:0:0:
329,300,80775,1,0,0:0:0:0:
420,238,81150,6,0,P|451:185|446:130,1,110.000003356934,0|2,1:0|0:0,0:0:0:0:
395,125,81712,2,0,P|360:166|308:183,1,110.000003356934,0|2,1:0|0:0,0:0:0:0:
270,143,82275,2,0,P|290:92|281:39,1,110.000003356934,0|2,1:0|0:0,0:0:0:0:
228,23,82837,2,0,P|193:64|141:81,1,110.000003356934,0|2,1:0|0:0,0:0:0:0:
87,71,83400,2,0,L|78:13,2,55.0000016784668,8|0|0,1:0|0:0|0:0,0:0:0:0:
41,171,84150,6,0,B|28:280|28:280|73:329,1,165.000005035401,0|0,1:0|1:0,0:0:0:0:
105,358,84900,1,8,0:1:0:0:
170,269,85275,2,0,P|214:238|268:236,1,110.000003356934,0|0,1:0|0:0,0:0:0:0:
319,258,85837,1,0,1:0:0:0:
368,281,86025,2,0,L|382:162,1,110.000003356934,0|8,1:0|1:0,0:0:0:0:
396,62,86775,1,0,0:0:0:0:
291,95,87150,6,0,P|229:87|184:56,1,110.000003356934,0|2,1:0|0:0,0:0:0:0:
154,19,87712,2,0,P|127:75|83:108,1,110.000003356934,0|2,1:0|0:0,0:0:0:0:
40,127,88275,2,0,P|85:169|103:221,1,110.000003356934,0|2,1:0|0:0,0:0:0:0:
117,266,88837,2,0,P|171:236|226:234,1,110.000003356934,0|2,1:0|0:0,0:0:0:0:
272,243,89400,2,0,L|345:255,2,55.0000016784668,8|0|0,1:0|0:0|0:0,0:0:0:0:
313,141,90150,6,0,L|429:123,1,110.000003356934,0|2,1:0|0:0,0:0:0:0:
468,152,90712,1,0,1:0:0:0:
511,186,90900,1,8,0:1:0:0:
413,237,91275,1,0,1:0:0:0:
438,343,91650,2,0,L|383:338,1,55.0000016784668,0|0,0:0|1:0,0:0:0:0:
336,309,92025,2,0,P|282:318|243:354,1,110.000003356934,0|8,1:0|0:1,0:0:0:0:
189,370,92587,1,2,0:0:0:0:
135,382,92775,1,0,0:0:0:0:
73,291,93150,6,0,P|42:239|-18:212,1,110.000003356934,0|2,1:0|0:0,0:0:0:0:
6,161,93712,2,0,P|59:152|110:171,1,110.000003356934,0|0,1:0|0:0,0:0:0:0:
162,152,94275,2,0,P|144:100|103:64,1,110.000003356934,0|2,1:0|0:0,0:0:0:0:
118,12,94837,2,0,P|172:12|219:40,1,110.000003356934,0|2,1:0|0:0,0:0:0:0:
272,54,95400,2,0,L|340:39,2,55.0000016784668,8|0|0,0:1|0:0|0:0,0:0:0:0:
325,150,96150,5,0,1:0:0:0:
37,140,101400,5,0,0:0:0:0:
59,247,101775,1,0,0:0:0:0:
82,354,102150,1,0,0:0:0:0:
417,342,107400,5,0,0:0:0:0:
438,243,107775,1,0,0:0:0:0:
459,143,108150,6,0,L|302:169,1,150,0|0,0:0|0:0,0:0:0:0:
268,200,108900,2,0,P|239:155|244:99,1,100,0|0,0:0|0:0,0:0:0:0:
149,69,109650,2,0,P|107:143|126:225,1,150,0|0,0:0|0:0,0:0:0:0:
147,242,110400,1,0,0:0:0:0:
109,334,110775,2,0,L|180:342,1,50,0|0,0:0|0:0,0:0:0:0:
208,347,111150,6,0,L|366:319,1,150,0|0,0:0|0:0,0:0:0:0:
399,345,111900,1,0,0:0:0:0:
471,276,112275,2,0,P|459:214|418:184,1,100,0|0,0:0|0:0,0:0:0:0:
386,175,112837,1,0,0:0:0:0:
444,36,113400,2,0,L|493:24,2,50,0|0|0,0:0|0:0|0:0,0:0:0:0:
352,77,114150,6,0,L|192:60,1,150,0|0,0:0|0:0,0:0:0:0:
159,36,114900,2,0,P|121:87|128:135,1,100,0|0,0:0|0:0,0:0:0:0:
161,214,115650,2,0,P|96:162|20:157,2,150,0|0|0,0:0|0:0|0:0,0:0:0:0:
188,255,116962,1,0,0:0:0:0:
211,299,117150,6,0,L|231:129,1,150,0|0,0:0|0:0,0:0:0:0:
206,105,117900,1,0,0:0:0:0:
285,44,118275,2,0,P|334:38|378:61,1,100,0|0,0:0|0:0,0:0:0:0:
405,102,118837,2,0,L|393:215,1,100,0|0,0:0|0:0,0:0:0:0:
390,251,119400,1,0,0:0:0:0:
438,338,119775,2,0,L|387:349,1,50,0|0,0:0|0:0,0:0:0:0:
340,360,120150,6,0,P|255:343|195:285,2,150,0|0|0,1:0|0:0|0:0,0:0:0:0:
438,338,121650,1,0,0:0:0:0:
311,256,122212,1,0,0:0:0:0:
445,188,122775,2,0,L|438:136,1,50,0|0,0:0|0:0,0:0:0:0:
431,88,123150,6,0,P|374:139|295:144,1,150,0|0,0:0|0:2,0:0:0:0:
154,163,124275,2,0,P|226:185|270:251,1,150,0|0,0:2|0:2,0:0:0:0:
153,340,125400,2,0,P|106:336|51:310,1,100
83,218,126150,6,0,L|57:47,2,150,0|0|0,0:0|0:0|0:0,0:0:0:0:
59,315,127650,1,0,0:0:0:0:
181,228,128212,1,0,0:0:0:0:
324,272,128775,1,0,0:0:0:0:
421,295,129150,6,0,P|451:246|451:136,1,150,0|0,0:0|0:0,0:0:0:0:
349,52,130275,2,0,P|291:49|195:103,1,150,0|0,0:0|0:0,0:0:0:0:
72,149,131400,2,0,P|122:152|165:177,1,100,0|0,0:0|0:0,0:0:0:0:
217,262,132150,6,0,L|376:277,1,150,2|2,0:0|0:0,0:0:0:0:
448,150,133275,2,0,L|344:167,1,100,2|0,0:0|0:0,0:0:0:0:
300,176,133837,1,2,0:0:0:0:
196,66,134400,2,0,L|94:48,1,100,2|0,0:0|0:0,0:0:0:0:
55,75,134962,1,2,0:0:0:0:
14,104,135150,6,0,P|40:206|91:239,1,150,2|2,0:0|0:0,0:0:0:0:
118,373,136275,2,0,P|144:270|195:237,1,150,2|2,0:0|0:0,0:0:0:0:
313,307,137400,2,0,P|363:308|408:287,1,100,2|2,0:0|0:0,0:0:0:0:
465,206,138150,6,0,L|452:44,1,150,2|2,0:0|0:0,0:0:0:0:
327,138,139275,1,2,0:0:0:0:
250,73,139650,1,0,0:0:0:0:
200,69,139837,2,0,L|88:56,1,100,2|0,0:0|0:0,0:0:0:0:
50,54,140400,1,2,0:0:0:0:
60,153,140775,2,0,L|68:209,1,50,0|2,0:0|0:0,0:0:0:0:
74,252,141150,6,0,P|119:257|171:296,1,100,2|0,0:0|0:0,0:0:0:0:
192,328,141712,2,0,P|229:294|278:281,1,100,2|0,0:0|0:0,0:0:0:0:
324,293,142275,2,0,P|321:246|350:189,1,100,2|0,0:0|0:0,0:0:0:0:
380,166,142837,2,0,P|342:138|317:77,1,100,2|0,0:0|0:0,0:0:0:0:
335,43,143400,2,0,L|220:32,1,100,0|0,1:0|0:0,0:0:0:0:
146,79,144150,6,0,L|155:142,2,50,0|0|4,3:0|0:0|0:0,0:0:0:0:
256,192,147243,12,0,149400,0:0:0:0:
244,19,150150,5,0,0:0:0:0:
177,106,150525,1,0,0:0:0:0:
148,152,150712,2,0,P|154:201|173:247,1,100,0|0,0:0|0:0,0:0:0:0:
192,345,151462,2,0,P|147:325|98:319,1,100,0|0,0:0|0:0,0:0:0:0:
0,290,152212,2,0,P|40:260|70:220,1,100,0|0,0:0|0:0,0:0:0:0:
73,170,152775,2,0,L|64:120,1,50,0|0,0:0|0:0,0:0:0:0:
56,71,153150,5,0,0:0:0:0:
199,115,153712,1,0,0:0:0:0:
245,133,153900,2,0,L|294:125,2,50,0|0|0,0:0|0:0|0:0,0:0:0:0:
204,224,154650,2,0,L|155:217,2,50,0|0|0,0:0|0:0|0:0,0:0:0:0:
270,299,155400,2,0,L|319:291,2,50,0|0|0,0:0|0:0|0:0,0:0:0:0:
229,327,155962,1,0,0:0:0:0:
188,357,156150,5,0,0:0:0:0:
90,333,156525,1,0,0:0:0:0:
42,319,156712,2,0,P|22:273|16:224,1,100,0|0,0:0|0:0,0:0:0:0:
88,155,157462,2,0,P|136:161|182:181,1,100,0|0,0:0|0:0,0:0:0:0:
256,249,158212,2,0,P|304:242|350:222,1,100,0|0,0:0|0:0,0:0:0:0:
388,189,158775,2,0,L|395:118,1,50,0|0,0:0|0:0,0:0:0:0:
395,89,159150,5,0,0:0:0:0:
253,38,159712,1,0,0:0:0:0:
208,60,159900,2,0,L|151:49,2,50,0|0|0,0:0|0:0|0:0,0:0:0:0:
139,132,160650,2,0,L|89:102,2,50,0|0|0,0:0|0:0|0:0,0:0:0:0:
51,181,161400,2,0,L|14:136,2,50,0|0|0,0:0|0:0|0:0,0:0:0:0:
60,229,161962,1,0,0:0:0:0:
71,277,162150,5,0,0:0:0:0:
162,317,162525,1,0,0:0:0:0:
204,290,162712,2,0,P|247:314|280:351,2,100,0|0|0,0:0|0:0|0:0,0:0:0:0:
129,223,163837,2,0,P|177:212|220:186,1,100,0|0,0:0|0:0,0:0:0:0:
314,155,164587,2,0,P|299:202|300:252,1,100,0|0,0:0|0:0,0:0:0:0:
316,300,165150,5,0,0:0:0:0:
443,378,165712,1,0,0:0:0:0:
464,332,165900,2,0,L|512:319,2,50,0|0|0,0:0|0:0|0:0,0:0:0:0:
446,233,166650,2,0,L|397:220,2,50,0|0|0,0:0|0:0|0:0,0:0:0:0:
463,134,167400,2,0,L|511:121,2,50,0|0|0,0:0|0:0|0:0,0:0:0:0:
430,95,167962,1,0,0:0:0:0:
400,54,168150,5,0,0:0:0:0:
310,97,168525,1,0,0:0:0:0:
319,145,168712,2,0,P|310:205|285:249,2,100,0|0|0,0:0|0:0|0:0,0:0:0:0:
222,171,169837,2,0,P|186:206|140:227,1,100,0|0,0:0|0:0,0:0:0:0:
131,127,170587,2,0,P|81:131|33:118,1,100,0|0,0:0|0:0,0:0:0:0:
0,74,171150,5,0,0:0:0:0:
135,8,171712,1,0,0:0:0:0:
182,23,171900,2,0,L|193:71,2,50,0|0|0,0:0|0:0|0:0,0:0:0:0:
275,57,172650,2,0,L|269:106,2,50,0|0|0,0:0|0:0|0:0,0:0:0:0:
350,122,173400,2,0,L|327:166,2,50,0|0|0,0:0|0:0|0:0,0:0:0:0:
396,103,173962,1,0,0:0:0:0:
443,88,174150,5,0,3:0:0:0:
256,192,174243,12,0,177150,3:0:0:0:
256,192,177525,12,0,179400,0:0:0:0:
506,203,180150,6,0,P|470:164|417:151,1,110.000003356934,0|0,1:0|0:0,0:0:0:0:
362,160,180712,1,0,1:0:0:0:
307,170,180900,1,8,1:0:0:0:
235,253,181275,1,0,1:0:0:0:
141,194,181650,2,0,L|131:128,2,55.0000016784668,0|0|0,0:0|1:0|1:0,0:0:0:0:
71,279,182400,2,0,L|5:269,2,55.0000016784668,8|2|0,1:0|0:0|0:0,0:0:0:0:
162,340,183150,6,0,P|209:367|263:367,1,110.000003356934,0|2,1:0|0:0,0:0:0:0:
316,380,183712,2,0,P|356:343|373:292,1,110.000003356934,0|2,1:0|0:0,0:0:0:0:
398,242,184275,2,0,P|376:192|332:160,1,110.000003356934,0|2,1:0|0:0,0:0:0:0:
297,117,184837,2,0,P|242:122|198:154,1,110.000003356934,0|2,1:0|0:0,0:0:0:0:
160,193,185400,2,0,P|159:218|180:260,2,55.0000016784668,8|0|0,1:0|0:0|0:0,0:0:0:0:
61,144,186150,6,0,L|75:34,1,110.000003356934,0|0,1:0|0:0,0:0:0:0:
128,17,186712,1,0,1:0:0:0:
181,4,186900,1,8,1:0:0:0:
259,81,187275,1,0,1:0:0:0:
355,27,187650,2,0,L|409:16,2,55.0000016784668,0|0|0,0:0|1:0|1:0,0:0:0:0:
404,125,188400,2,0,L|458:135,1,55.0000016784668,8|2,1:0|0:0,0:0:0:0:
512,143,188775,1,0,0:0:0:0:
446,231,189150,6,0,P|435:291|396:330,1,110.000003356934,0|2,1:0|0:0,0:0:0:0:
355,302,189712,2,0,P|354:248|325:201,1,110.000003356934,0|2,1:0|0:0,0:0:0:0:
270,208,190275,2,0,P|252:259|211:294,1,110.000003356934,0|2,1:0|0:0,0:0:0:0:
161,273,190837,2,0,P|160:219|131:172,1,110.000003356934,0|2,1:0|0:0,0:0:0:0:
84,145,191400,2,0,L|25:136,2,55.0000016784668,8|0|0,1:0|0:0|0:0,0:0:0:0:
178,88,192150,6,0,B|286:71|286:71|337:114,1,165.000005035401,0|0,1:0|1:0,0:0:0:0:
367,145,192900,1,8,0:1:0:0:
476,133,193275,2,0,P|474:187|443:231,1,110.000003356934,0|0,1:0|0:0,0:0:0:0:
395,258,193837,1,0,1:0:0:0:
343,278,194025,2,0,L|233:265,1,110.000003356934,0|8,1:0|1:0,0:0:0:0:
143,327,194775,1,0,0:0:0:0:
77,245,195150,6,0,P|69:183|38:138,1,110.000003356934,0|2,1:0|0:0,0:0:0:0:
1,108,195712,2,0,P|57:81|90:37,1,110.000003356934,0|2,1:0|0:0,0:0:0:0:
109,0,196275,2,0,P|151:45|203:63,1,110.000003356934,0|2,1:0|0:0,0:0:0:0:
248,71,196837,2,0,P|218:125|216:180,1,110.000003356934,0|2,1:0|0:0,0:0:0:0:
225,226,197400,2,0,L|237:299,2,55.0000016784668,8|0|0,1:0|0:0|0:0,0:0:0:0:
329,192,198150,6,0,L|445:210,1,110.000003356934,0|2,1:0|0:0,0:0:0:0:
474,250,198712,1,0,1:0:0:0:
510,291,198900,1,8,0:1:0:0:
422,357,199275,1,0,1:0:0:0:
330,295,199650,2,0,L|276:303,1,55.0000016784668,0|0,0:0|1:0,0:0:0:0:
228,332,200025,2,0,L|98:316,1,110.000003356934,0|8,1:0|1:0,0:0:0:0:
71,291,200587,1,2,0:0:0:0:
20,267,200775,1,0,0:0:0:0:
98,189,201150,6,0,P|107:129|79:69,1,110.000003356934,0|2,1:0|0:0,0:0:0:0:
130,47,201712,2,0,P|176:74|203:121,1,110.000003356934,0|2,1:0|0:0,0:0:0:0:
256,140,202275,2,0,P|275:88|267:34,1,110.000003356934,0|2,1:0|0:0,0:0:0:0:
317,14,202837,2,0,P|355:52|368:105,1,110.000003356934,0|2,1:0|0:0,0:0:0:0:
403,136,203400,2,0,P|396:160|368:196,2,55.0000016784668,8|0|0,0:1|0:0|0:0,0:0:0:0:
483,60,204150,5,0,1:0:0:0:
