osu file format v14

[General]
AudioFilename: audio.mp3
AudioLeadIn: 0
PreviewTime: 42150
Countdown: 1
SampleSet: Soft
StackLeniency: 0.7
Mode: 0
LetterboxInBreaks: 0
WidescreenStoryboard: 1

[Editor]
DistanceSpacing: 1
BeatDivisor: 8
GridSize: 4
TimelineZoom: 1

[Metadata]
Title:BUBBLE TEA (feat. juu & cinders)
TitleUnicode:BUBBLE TEA (feat. juu & cinders)
Artist:dark cat
ArtistUnicode:dark cat
Creator:Regou
Version:Easy
Source:
Tags:pishifat
BeatmapID:1513229
BeatmapSetID:716213

[Difficulty]
HPDrainRate:3
CircleSize:3
OverallDifficulty:3
ApproachRate:3.3
SliderMultiplier:0.999999999999999
SliderTickRate:2

[Events]
//Background and Video events
0,0,"BG.jpg",0,0
//Break Periods
2,36725,40746
2,96350,99960
2,102350,105960
2,144725,148746
//Storyboard Layer 0 (Background)
//Storyboard Layer 1 (Fail)
//Storyboard Layer 2 (Pass)
//Storyboard Layer 3 (Foreground)
//Storyboard Sound Samples

[TimingPoints]
150,375,4,2,1,30,1,0
15525,-100,4,2,1,20,0,0
15712,-100,4,2,1,30,0,0
27525,-100,4,2,1,20,0,0
27712,-100,4,2,1,30,0,0
35400,-100,4,2,1,20,0,0
35775,-100,4,2,1,30,0,0
36150,-100,4,2,1,15,0,0
42525,-100,4,2,1,40,0,0
47212,-100,4,2,1,20,0,0
47400,-100,4,2,1,40,0,0
53212,-100,4,2,1,20,0,0
53400,-100,4,2,1,40,0,0
66525,-100,4,2,1,20,0,0
67087,-100,4,2,1,25,0,0
67837,-100,4,2,1,30,0,0
68400,-100,4,2,1,35,0,0
72150,-100,4,2,2,40,0,1
96150,-100,4,2,1,30,0,0
120150,-100,4,2,1,30,0,0
123525,-100,4,2,1,20,0,0
123712,-100,4,2,1,30,0,0
135525,-100,4,2,1,20,0,0
135712,-100,4,2,1,30,0,0
143400,-100,4,2,1,20,0,0
143775,-100,4,2,1,30,0,0
144150,-100,4,2,1,15,0,0
150525,-100,4,2,1,40,0,0
155212,-100,4,2,1,20,0,0
155400,-100,4,2,1,40,0,0
161212,-100,4,2,1,20,0,0
161400,-100,4,2,1,40,0,0
167212,-100,4,2,1,20,0,0
167400,-100,4,2,1,40,0,0
174525,-100,4,2,1,20,0,0
175087,-100,4,2,1,25,0,0
175837,-100,4,2,1,30,0,0
176400,-100,4,2,1,35,0,0
180150,-100,4,2,2,40,0,1
204150,-100,4,2,1,30,0,0

[Colours]
Combo1 : 196,255,255
Combo2 : 255,255,176
Combo3 : 255,147,201
Combo4 : 234,213,255

[HitObjects]
40,304,9150,6,0,B|136:292|88:348|200:328,1,150,2|0,0:0|0:0,0:0:0:0:
329,330,10275,2,0,B|424:348|376:292|472:304,2,150,0|0|0,0:0|0:0|0:0,0:0:0:0:
256,200,11962,5,0,1:0:0:0:
256,200,12150,2,0,P|248:116|236:36,2,150,0|0|0,1:0|0:0|0:0,0:0:0:0:
236,300,13650,2,0,B|324:292|292:340|384:328,1,150,0|0,0:0|0:0,0:0:0:0:
504,244,14775,2,0,P|464:208|416:212,1,99.9999999999999,0|0,0:0|0:0,0:0:0:0:
332,331,15712,6,0,P|276:375|196:343,1,150,0|0,0:2|0:2,0:0:0:0:
138,220,16837,2,0,P|130:136|178:92,1,150,0|0,0:2|0:0,0:0:0:0:
272,72,17775,1,0,0:0:0:0:
256,172,18150,6,0,B|252:248|244:332,2,150,0|0|0,0:0|0:0|0:0,0:0:0:0:
272,72,19650,2,0,B|360:80|328:44|420:52,1,150,0|0,0:0|0:0,0:0:0:0:
492,180,20775,1,0,0:0:0:0:
452,272,21150,6,0,P|384:240|336:296,1,150,0|0,0:2|0:2,0:0:0:0:
197,339,22275,2,0,P|129:371|81:315,1,150,0|0,0:2|0:2,0:0:0:0:
10,192,23400,2,0,P|26:140|86:120,1,99.9999999999999,0|0,0:0|0:0,0:0:0:0:
156,157,24150,6,0,P|152:73|140:-15,2,150,2|2|2,0:0|0:0|0:0,0:0:0:0:
296,207,25837,2,0,B|348:223|348:223|376:259|376:259|444:279,1,150,2|2,0:0|0:0,0:0:0:0:
489,197,26775,2,0,P|493:149|501:93,1,99.9999999999999,0|2,0:0|0:2,0:0:0:0:
380,12,27712,6,0,B|328:28|328:28|300:64|300:64|232:84,1,150,2|2,0:2|0:2,0:0:0:0:
112,28,28837,2,0,B|128:80|128:80|164:108|164:108|184:176,1,150,2|2,0:2|0:0,0:0:0:0:
160,256,29775,1,2,0:0:0:0:
252,216,30150,6,0,P|332:212|424:208,2,150,2|2|2,0:0|0:2|0:2,0:0:0:0:
164,264,31650,2,0,P|84:260|-8:256,2,150,2|2|2,0:2|0:2|0:2,0:0:0:0:
248,316,33150,6,0,P|336:344|380:296,1,150,2|2,0:0|0:0,0:0:0:0:
475,202,34275,2,0,P|495:134|439:66,1,150,2|2,0:0|0:2,0:0:0:0:
318,138,35400,2,0,P|266:122|218:124,2,99.9999999999999,0|0|0,1:0|0:0|3:0,0:0:0:0:
310,38,36525,1,4,0:0:0:0:
44,120,42150,6,0,P|56:212|60:280,1,150,0|0,0:0|0:0,0:0:0:0:
180,360,43275,1,0,0:0:0:0:
272,320,43650,2,0,B|364:324|320:280|428:288,2,150,0|0|0,0:0|0:0|0:0,0:0:0:0:
188,268,45150,1,0,0:0:0:0:
148,124,45712,6,0,P|184:44|244:32,1,150,0|0,0:0|0:0,0:0:0:0:
316,92,46650,2,0,P|312:156|312:208,1,99.9999999999999,2|0,0:3|0:0,0:0:0:0:
396,244,47400,1,0,0:0:0:0:
488,204,47775,1,0,0:0:0:0:
484,304,48150,1,0,0:0:0:0:
348,368,48712,6,0,P|264:352|176:344,1,150,0|0,0:0|0:0,0:0:0:0:
132,272,49650,2,0,P|44:288|-32:288,2,150,0|0|0,0:0|0:0|0:0,0:0:0:0:
228,248,51150,1,0,0:0:0:0:
188,104,51712,6,0,P|264:120|320:72,1,150,0|0,0:3|0:3,0:0:0:0:
400,24,52650,2,0,P|452:32|504:48,1,99.9999999999999,2|0,0:3|0:0,0:0:0:0:
488,144,53400,1,0,0:0:0:0:
396,184,53775,1,0,0:0:0:0:
476,244,54150,1,0,3:0:0:0:
360,340,54712,6,0,P|272:344|244:288,1,150,0|0,0:0|0:0,0:0:0:0:
264,200,55650,2,0,P|276:120|280:40,2,150,0|0|0,0:0|0:0|0:0,0:0:0:0:
172,244,57150,1,0,0:0:0:0:
44,168,57712,6,0,B|100:160|100:160|132:128|132:128|196:120,1,150,0|0,0:0|0:0,0:0:0:0:
324,168,58837,2,0,B|268:176|268:176|236:208|236:208|172:216,1,150,0|0,0:0|0:0,0:0:0:0:
100,260,59775,1,0,0:0:0:0:
184,316,60150,1,0,0:0:0:0:
320,368,60712,6,0,P|396:336|468:340,1,150,0|0,0:0|0:0,0:0:0:0:
488,240,61650,2,0,B|508:156|460:184|480:92,2,150,0|0|0,0:0|0:0|0:0,0:0:0:0:
464,336,63150,1,0,0:0:0:0:
340,252,63712,6,0,P|256:272|208:220,1,150,0|0,0:0|0:0,0:0:0:0:
156,96,64837,2,0,P|72:76|24:128,1,150,0|0,0:0|0:0,0:0:0:0:
40,212,65775,2,0,P|44:264|44:316,1,99.9999999999999,0|0,0:0|3:0,0:0:0:0:
256,192,66337,12,0,69150,3:0:0:0:
44,344,72150,6,0,B|92:324|116:280|116:280|144:324|200:336,1,200,0|8,1:0|1:0,0:0:0:0:
208,236,73275,1,0,1:0:0:0:
280,304,73650,2,0,P|304:224|232:144,1,200,0|8,0:0|1:0,0:0:0:0:
132,156,74775,1,0,0:0:0:0:
168,64,75150,6,0,P|244:52|320:32,1,150,0|0,1:0|1:0,0:0:0:0:
428,132,76275,2,0,P|484:188|464:272,1,150,0|0,1:0|1:0,0:0:0:0:
388,372,77400,2,0,P|384:316|380:260,1,99.9999999999999,8|0,1:0|0:0,0:0:0:0:
288,232,78150,6,0,B|228:224|228:224|176:268|176:268|88:256,1,200,0|8,1:0|1:0,0:0:0:0:
92,160,79275,1,0,1:0:0:0:
12,220,79650,2,0,B|-28:164|-4:104|-4:104|80:56,1,200,0|8,0:0|1:0,0:0:0:0:
156,32,80775,1,0,0:0:0:0:
148,132,81150,6,0,P|144:216|132:304,1,150,0|0,1:0|1:0,0:0:0:0:
276,232,82275,2,0,P|272:316|312:368,1,150,0|0,1:0|1:0,0:0:0:0:
448,312,83400,2,0,P|452:256|460:212,2,99.9999999999999,8|0|0,1:0|0:0|1:0,0:0:0:0:
340,208,84712,6,0,P|336:128|320:40,1,150,0|0,1:0|1:0,0:0:0:0:
180,17,85837,2,0,P|134:75|151:148,1,150,0|8,1:0|1:0,0:0:0:0:
238,101,86775,1,0,0:0:0:0:
309,170,87150,6,0,B|293:262|337:234|317:334,1,150,0|0,1:0|1:0,0:0:0:0:
182,377,88275,2,0,P|102:361|34:353,1,150,0|0,1:0|1:0,0:0:0:0:
9,204,89400,2,0,P|53:212|97:248,1,99.9999999999999,8|0,1:0|0:0,0:0:0:0:
194,256,90150,6,0,B|314:244|262:300|386:288,1,200,0|8,1:0|0:1,0:0:0:0:
456,216,91275,2,0,P|384:164|388:56,1,200,0|0,1:0|1:0,0:0:0:0:
292,20,92400,2,0,P|248:56|200:44,1,99.9999999999999,8|0,0:1|0:0,0:0:0:0:
108,36,93150,6,0,B|56:52|56:52|32:104|68:156,1,150,0|0,1:0|1:0,0:0:0:0:
200,200,94275,2,0,B|236:240|236:240|216:352,1,150,0|0,1:0|1:0,0:0:0:0:
76,376,95400,2,0,P|48:328|60:288,1,99.9999999999999,8|0,0:1|0:0,0:0:0:0:
104,196,96150,1,0,1:0:0:0:
164,300,101400,6,0,P|116:312|64:320,2,99.9999999999999,0|0|0,0:0|0:0|0:0,0:0:0:0:
348,300,107400,6,0,P|396:312|448:320,1,99.9999999999999,0|0,0:0|0:0,0:0:0:0:
500,236,108150,6,0,P|440:176|356:180,1,150,0|0,0:0|0:0,0:0:0:0:
248,248,109275,1,0,0:0:0:0:
164,304,109650,2,0,P|88:296|-4:292,2,150,0|0|0,0:0|0:0|0:0,0:0:0:0:
252,348,111150,1,0,0:0:0:0:
400,316,111712,6,0,B|384:228|424:256|408:152,1,150,0|0,0:0|0:0,0:0:0:0:
456,24,112837,2,0,P|384:12|316:64,1,150,0|0,0:0|0:0,0:0:0:0:
300,152,113775,1,0,0:0:0:0:
220,88,114150,6,0,P|144:84|56:72,1,150,0|0,0:0|0:0,0:0:0:0:
112,218,115275,1,0,0:0:0:0:
53,299,115650,2,0,P|129:355|182:345,1,150
250,223,116775,1,0,0:0:0:0:
316,297,117150,1,0,0:0:0:0:
426,195,117712,6,0,P|418:287|414:351,1,150
264,351,118837,2,0,B|180:339|216:387|104:363,1,150
128,266,119775,1,0,0:0:0:0:
34,310,120150,6,0,P|18:230|-2:162,2,150,0|0|0,1:0|0:0|0:0,0:0:0:0:
128,266,121650,2,0,P|128:182|120:106,1,150
233,15,122775,2,0,P|285:15|321:55,1,99.9999999999999
287,187,123712,6,0,P|275:263|323:327,1,150,0|0,0:2|0:2,0:0:0:0:
448,254,124837,2,0,P|440:186|368:130,1,150,0|0,0:2|0:0,0:0:0:0:
294,85,125775,1,0,0:0:0:0:
287,187,126150,6,0,P|203:179|139:155,2,150
354,260,127650,2,0,B|266:264|306:312|202:320,1,150
84,364,128775,1,0,0:0:0:0:
128,276,129150,6,0,P|152:208|100:152,1,150,0|0,0:0|0:0,0:0:0:0:
0,48,130275,2,0,P|68:68|116:12,1,150,0|0,0:0|0:0,0:0:0:0:
244,96,131400,2,0,L|344:104,1,99.9999999999999,0|0,0:0|0:0,0:0:0:0:
436,144,132150,6,0,P|448:72|452:-12,2,150,2|2|2,0:0|0:0|0:0,0:0:0:0:
508,276,133837,2,0,P|442:307|376:280,1,150,2|2,0:0|0:0,0:0:0:0:
304,352,134775,2,0,P|276:304|280:260,1,99.9999999999999,0|2,0:0|0:0,0:0:0:0:
280,112,135712,6,0,B|232:84|232:84|128:100,1,150,2|2,0:0|0:0,0:0:0:0:
24,56,136837,2,0,B|0:104|0:104|28:212,1,150,2|2,0:0|0:0,0:0:0:0:
35,296,137775,1,2,0:0:0:0:
122,247,138150,6,0,P|206:255|274:259,2,150,2|2|2,0:0|0:0|0:0,0:0:0:0:
148,343,139650,2,0,P|76:351|-12:355,2,150,0|0|0,0:0|0:0|0:0,0:0:0:0:
243,371,141150,6,0,P|299:347|395:367,1,150,2|2,0:0|0:0,0:0:0:0:
508,276,142275,2,0,B|492:196|456:228|444:128,1,150,2|2,0:0|0:0,0:0:0:0:
344,31,143400,2,0,P|344:87|336:143,2,99.9999999999999,0|0|0,1:0|0:0|3:0,0:0:0:0:
441,53,144525,1,4,0:0:0:0:
467,286,150150,6,0,B|380:300|412:260|320:272,1,150,0|0,0:0|0:0,0:0:0:0:
180,224,151275,1,0,0:0:0:0:
140,316,151650,2,0,P|76:288|-12:292,2,150,0|0|0,0:0|0:0|0:0,0:0:0:0:
240,312,153150,1,0,0:0:0:0:
320,184,153712,6,0,P|320:120|332:24,1,150,0|0,0:0|0:0,0:0:0:0:
232,12,154650,2,0,P|192:32|184:100,1,99.9999999999999,2|0,0:3|0:0,0:0:0:0:
212,176,155400,1,0,0:0:0:0:
112,156,155775,1,0,0:0:0:0:
144,252,156150,1,0,0:0:0:0:
20,332,156712,6,0,B|112:336|64:380|172:376,1,150,0|0,0:0|0:0,0:0:0:0:
240,316,157650,2,0,P|248:228|260:144,2,150,0|0|0,0:0|0:0|0:0,0:0:0:0:
328,368,159150,1,0,0:0:0:0:
452,284,159712,6,0,P|400:244|388:160,1,150,0|0,0:0|0:0,0:0:0:0:
388,64,160650,2,0,P|336:44|284:32,1,99.9999999999999,2|0,0:3|0:0,0:0:0:0:
208,84,161400,1,0,0:0:0:0:
292,140,161775,1,0,0:0:0:0:
208,192,162150,1,0,3:0:0:0:
76,260,162712,6,0,P|60:344|120:384,1,150,0|0,0:0|0:0,0:0:0:0:
196,344,163650,2,0,P|272:352|352:368,2,150,0|0|0,0:0|0:0|0:0,0:0:0:0:
180,244,165150,1,0,0:0:0:0:
144,100,165712,6,0,B|192:128|192:128|304:112,1,150,0|0,0:0|0:0,0:0:0:0:
384,4,166837,2,0,B|372:60|372:60|392:88|392:88|380:156,1,150,0|0,0:0|0:0,0:0:0:0:
308,216,167775,1,0,0:0:0:0:
404,248,168150,1,0,0:0:0:0:
320,372,168712,6,0,P|260:348|168:356,1,150,0|0,0:0|0:0,0:0:0:0:
124,268,169650,2,0,B|32:280|80:316|-20:328,2,150,0|0|0,0:0|0:0|0:0,0:0:0:0:
220,248,171150,1,0,0:0:0:0:
140,120,171712,6,0,P|196:80|272:108,1,150,0|0,0:0|0:0,0:0:0:0:
396,24,172837,2,0,P|448:72|440:152,1,150,0|0,0:0|0:0,0:0:0:0:
448,248,173775,2,0,P|444:304|444:360,1,99.9999999999999,0|0,0:0|3:0,0:0:0:0:
256,192,174337,12,0,177150,3:0:0:0:
476,88,180150,6,0,B|424:88|388:136|388:136|348:100|280:112,1,200,0|8,1:0|1:0,0:0:0:0:
320,208,181275,1,0,1:0:0:0:
416,240,181650,2,0,P|344:308|248:272,1,200,0|8,0:0|1:0,0:0:0:0:
224,188,182775,1,0,0:0:0:0:
164,268,183150,6,0,P|72:280|12:296,1,150,0|0,1:0|1:0,0:0:0:0:
8,144,184275,2,0,P|-8:68|56:12,1,150,0|0,1:0|1:0,0:0:0:0:
180,56,185400,2,0,P|172:112|160:160,1,99.9999999999999,8|0,1:0|0:0,0:0:0:0:
96,232,186150,6,0,B|172:248|172:248|196:288|196:288|276:300,1,200,0|8,1:0|1:0,0:0:0:0:
344,232,187275,1,0,1:0:0:0:
364,332,187650,2,0,B|412:320|444:280|440:236|440:236|432:168,1,200,0|8,0:0|1:0,0:0:0:0:
436,68,188775,1,0,0:0:0:0:
352,120,189150,6,0,P|276:120|200:108,1,150,0|0,1:0|1:0,0:0:0:0:
236,256,190275,2,0,P|156:236|96:280,1,150,0|0,1:0|1:0,0:0:0:0:
24,144,191400,2,0,P|16:212|8:256,2,99.9999999999999,8|0|0,1:0|0:0|1:0,0:0:0:0:
124,32,192712,6,0,B|224:20|172:72|276:56,1,150,0|0,1:0|1:0,0:0:0:0:
408,106,193837,2,0,P|440:188|402:257,1,150,0|8,1:0|1:0,0:0:0:0:
338,179,194775,1,0,0:0:0:0:
250,228,195150,6,0,P|258:320|258:400,1,150,0|0,1:0|1:0,0:0:0:0:
408,383,196275,2,0,P|476:335|468:255,1,150,0|0,1:0|1:0,0:0:0:0:
385,155,197400,2,0,P|377:219|369:263,1,99.9999999999999,8|0,1:0|0:0,0:0:0:0:
288,304,198150,6,0,B|168:316|224:256|88:272,1,200,0|8,1:0|0:1,0:0:0:0:
24,200,199275,2,0,P|-8:108|72:36,1,200,0|0,1:0|1:0,0:0:0:0:
156,32,200400,2,0,P|200:80|208:116,1,99.9999999999999,8|0,1:0|0:0,0:0:0:0:
280,184,201150,6,0,B|332:192|332:192|360:228|360:228|424:236,1,150,0|0,1:0|1:0,0:0:0:0:
500,356,202275,2,0,B|432:336|432:336|360:380,1,150,0|0,1:0|1:0,0:0:0:0:
228,316,203400,2,0,L|112:308,1,99.9999999999999,8|0,0:1|0:0,0:0:0:0:
28,300,204150,1,0,1:0:0:0:
