osu file format v14

[General]
AudioFilename: audioshort.mp3
AudioLeadIn: 0
PreviewTime: 71401
Countdown: 0
SampleSet: Normal
StackLeniency: 0.5
Mode: 0
LetterboxInBreaks: 0
CountdownOffset: 2
WidescreenStoryboard: 0

[Editor]
Bookmarks: 12191,27713,30151,39244,46838,51526,51713,54526,57151,66151
DistanceSpacing: 1.9
BeatDivisor: 4
GridSize: 4
TimelineZoom: 1.3

[Metadata]
Title:BUBBLE TEA (feat. juu & cinders)
TitleUnicode:BUBBLE TEA (feat. juu & cinders)
Artist:dark cat
ArtistUnicode:dark cat
Creator:PixlPlayz
Version:Insane
Source:
Tags:electronic snails snail snail's house shawn wasabi catstep dubstep chiptune lounge cinders featured artist
BeatmapID:1278617
BeatmapSetID:605183

[Difficulty]
HPDrainRate:6
CircleSize:4.3
OverallDifficulty:7
ApproachRate:9
SliderMultiplier:1.4
SliderTickRate:2

[Events]
//Background and Video events
0,0,"FYExMH7.jpg",0,0
//Break Periods
//Storyboard Layer 0 (Background)
//Storyboard Layer 1 (Fail)
//Storyboard Layer 2 (Pass)
//Storyboard Layer 3 (Foreground)
//Storyboard Sound Samples

[TimingPoints]
191,375,4,1,0,100,1,0
3941,-133.333333333333,4,2,0,40,0,0
6003,-133.333333333333,4,3,0,40,0,0
6566,-133.333333333333,4,3,0,15,0,0
9191,-133.333333333333,4,1,0,50,0,0
12191,-133.333333333333,4,1,0,60,0,0
15753,-66.6666666666667,4,1,0,65,0,0
16128,-100,4,1,0,60,0,0
16503,-133.333333333333,4,1,0,55,0,0
18191,-100,4,1,0,65,0,0
24566,-83.3333333333333,4,1,0,70,0,0
30378,-100,4,1,0,100,0,0
31316,-100,4,1,0,100,0,0
36191,-121.951219512195,4,1,0,100,0,0
42566,-100,4,1,0,100,0,0
44253,-100,4,1,0,100,0,0
51003,-100,4,1,0,100,0,0
54191,-200,4,1,0,100,0,0
54753,-133.333333333333,4,1,0,40,0,0
66566,-133.333333333333,4,1,0,50,0,0
66941,-100,4,1,0,50,0,0
67691,-80,4,1,0,50,0,0
68441,-66.6666666666667,4,1,0,50,0,0
70597,-100,4,1,0,50,0,0
71628,-66.6666666666667,4,1,0,50,0,0
72191,-66.6666666666667,4,1,0,100,0,1
73691,-100,4,1,0,100,0,1
75191,-83.3333333333333,4,1,0,100,0,1
96191,-100,4,1,0,100,0,0

[HitObjects]
392,128,3941,5,2,0:0:0:0:
465,284,4691,2,0,B|394:265|349:319,1,105.000004005432,2|0,0:0|0:0,0:0:0:0:
327,348,5253,1,2,0:0:0:0:
256,192,6003,2,0,P|233:165|251:142,1,52.5000020027161,8|8,3:3|0:0,0:0:0:0:
256,192,6566,12,0,8816,0:0:0:0:
160,64,9191,5,4,0:0:0:0:
360,64,9753,1,8,0:0:0:0:
474,217,10316,1,8,0:0:0:0:
312,216,10878,1,8,0:0:0:0:
213,149,11441,2,0,P|152:136|124:232,1,157.500006008148,4|0,0:0|0:0,0:0:0:0:
242,271,12191,2,0,P|231:295|214:314,2,52.5000020027161,2|0|2,0:0|0:0|0:0,0:0:0:0:
368,248,12753,1,0,0:0:0:0:
413,171,12941,1,2,0:0:0:0:
326,170,13128,1,0,0:0:0:0:
382,26,13316,5,2,0:0:0:0:
382,26,13691,1,0,0:0:0:0:
312,62,13878,1,0,0:0:0:0:
243,91,14066,1,0,0:0:0:0:
175,123,14253,2,0,P|142:140|122:165,2,52.5000020027161
201,220,14816,2,0,P|219:239|222:266,1,52.5000020027161
222,264,15097,1,0,0:0:0:0:
222,264,15191,5,0,0:0:0:0:
197,360,15378,1,0,0:0:0:0:
140,297,15566,1,0,0:0:0:0:
113,154,15753,2,0,P|143:113|194:105,1,105.000004005432
227,176,16128,2,0,B|262:193|262:193|300:167,1,70
345,129,16503,2,0,L|399:86,1,52.5000020027161
424,32,16878,2,0,P|414:16|373:-7,2,52.5000020027161
451,110,17441,1,0,0:0:0:0:
444,188,17628,1,0,0:0:0:0:
385,235,17816,1,0,0:0:0:0:
315,262,18003,1,0,0:0:0:0:
315,262,18097,1,0,0:0:0:0:
315,262,18191,5,0,0:0:0:0:
146,252,18378,1,0,0:0:0:0:
247,128,18566,2,0,P|275:93|307:85,1,70
248,35,18941,2,0,P|216:48|197:77,1,70
170,164,19316,1,0,0:0:0:0:
366,132,19691,5,0,0:0:0:0:
265,256,19878,2,0,P|237:291|205:299,1,70
264,349,20253,2,0,P|296:336|315:307,1,70
341,219,20628,1,0,0:0:0:0:
341,128,20816,1,0,0:0:0:0:
419,173,21003,1,0,0:0:0:0:
417,129,21097,1,0,0:0:0:0:
414,87,21191,5,0,0:0:0:0:
406,0,21378,1,0,0:0:0:0:
334,50,21566,1,0,0:0:0:0:
279,118,21753,5,0,0:0:0:0:
248,35,21941,1,0,0:0:0:0:
191,103,22128,1,0,0:0:0:0:
155,184,22316,5,0,0:3:0:0:
103,111,22503,1,0,0:3:0:0:
65,192,22691,1,0,0:3:0:0:
117,266,22878,5,0,0:3:0:0:
207,257,23066,1,0,0:3:0:0:
170,338,23253,1,0,0:3:0:0:
259,328,23441,2,0,P|279:299|270:257,1,70
253,56,23816,2,0,P|232:84|241:126,1,70
245,154,24097,1,0,0:0:0:0:
256,192,24191,5,0,0:0:0:0:
256,192,24566,2,0,P|299:157|352:160,1,83.9999974365235
193,147,24941,2,0,P|236:160|255:217,1,83.9999974365235
310,156,25316,1,0,0:0:0:0:
310,240,25691,5,0,0:0:0:0:
244,285,25878,1,0,0:0:0:0:
310,240,26066,2,0,P|339:211|390:207,1,83.9999974365235
469,193,26441,1,0,0:0:0:0:
403,267,26816,2,0,P|363:279|339:320,1,83.9999974365235,0|0,0:3|0:0,0:0:0:0:
340,312,27097,2,0,L|303:279,1,41.9999987182618
262,262,27378,1,0,0:0:0:0:
189,209,27566,1,0,0:0:0:0:
101,223,27753,5,0,0:0:0:0:
13,237,27941,1,0,0:0:0:0:
44,153,28128,1,0,0:0:0:0:
132,139,28316,5,0,0:0:0:0:
118,51,28503,1,0,0:0:0:0:
201,82,28691,1,0,0:0:0:0:
237,162,28878,5,0,0:0:0:0:
293,231,29066,1,0,0:0:0:0:
205,245,29253,1,0,0:0:0:0:
293,231,29441,6,0,L|262:309,1,83.9999974365235
352,300,29816,2,0,L|387:209,1,83.9999974365235
435,77,30191,5,0,0:0:0:0:
352,112,30378,2,0,P|344:160|296:168,1,70
253,117,30753,1,0,0:0:0:0:
183,169,30941,2,0,P|158:146|160:111,1,70
253,117,31316,6,0,L|315:51,2,70
180,193,31878,2,0,P|142:188|107:200,2,70
282,228,32441,1,0,0:0:0:0:
390,251,32628,1,0,0:0:0:0:
384,152,32816,1,0,0:0:0:0:
385,118,32909,1,0,0:0:0:0:
370,87,33003,1,0,0:0:0:0:
342,68,33097,1,0,0:0:0:0:
311,64,33191,5,0,0:0:0:0:
279,147,33378,1,0,0:0:0:0:
223,77,33566,1,0,0:0:0:0:
74,145,33753,5,0,0:0:0:0:
88,234,33941,1,0,0:0:0:0:
157,178,34128,1,0,0:0:0:0:
318,233,34316,5,0,0:0:0:0:
286,316,34503,1,0,0:0:0:0:
230,246,34691,1,0,0:0:0:0:
157,192,34878,5,0,0:0:0:0:
84,138,35066,1,0,0:0:0:0:
75,227,35253,1,0,0:0:0:0:
135,53,35441,6,0,L|220:36,1,70
276,93,35816,2,0,L|361:76,1,70
394,214,36191,6,0,B|407:275|407:363|303:371|223:347|228:285|199:331|151:283|143:195|191:155|247:187|255:211|255:211|263:187|319:155|367:195|359:283|311:331|279:283|287:347|207:371|103:363|103:275|116:197,1,947.100014451599
256,192,40316,12,0,42191,0:0:0:0:
46,296,42566,6,0,P|45:335|85:348,1,70
159,343,42941,1,0,0:0:0:0:
234,292,43128,1,0,0:0:0:0:
150,254,43316,1,0,0:0:0:0:
68,214,43503,1,0,0:0:0:0:
43,191,43597,1,0,0:0:0:0:
42,160,43691,1,0,0:0:0:0:
69,80,43878,5,0,0:0:0:0:
155,50,44066,1,0,0:0:0:0:
245,42,44253,2,0,P|321:35|389:54,1,140
451,110,44816,1,0,0:0:0:0:
451,200,45003,1,0,0:0:0:0:
450,244,45097,1,0,0:0:0:0:
447,291,45191,1,0,0:0:0:0:
373,237,45378,2,0,P|338:197|300:189,1,70
231,150,45753,5,0,0:0:0:0:
184,145,45847,1,0,0:0:0:0:
145,166,45941,1,0,0:0:0:0:
58,164,46128,5,0,0:0:0:0:
57,251,46316,1,0,0:0:0:0:
144,253,46503,5,0,0:0:0:0:
157,208,46597,1,0,0:0:0:0:
145,166,46691,1,0,0:0:0:0:
189,17,46878,5,0,0:0:0:0:
314,29,47066,1,0,0:0:0:0:
231,124,47253,2,0,L|276:193,1,70
299,290,47628,1,0,0:0:0:0:
200,328,47816,2,0,L|105:304,1,70
113,297,48097,1,0,0:0:0:0:
90,280,48191,5,0,0:0:0:0:
89,168,48378,1,0,0:0:0:0:
187,115,48566,1,0,0:0:0:0:
92,76,48753,2,0,P|116:42|143:21,1,70
268,52,49128,1,0,0:0:0:0:
353,4,49316,1,0,0:0:0:0:
396,92,49503,1,0,0:0:0:0:
396,110,49597,1,0,0:0:0:0:
397,125,49691,6,0,P|415:153|408:187,2,70
309,166,50253,2,0,P|277:180|252:205,1,70
202,289,50628,1,0,0:0:0:0:
120,343,50816,2,0,P|79:345|28:319,1,70
94,251,51191,2,0,P|80:219|53:197,2,70
255,376,51753,5,0,0:0:0:0:
240,368,51847,1,0,0:0:0:0:
225,354,51941,2,0,P|205:307|210:257,2,70
303,293,52503,1,0,0:0:0:0:
309,276,52597,1,0,0:0:0:0:
308,260,52691,1,0,0:0:0:0:
226,196,52878,2,0,L|178:145,1,70
252,70,53253,1,0,0:0:0:0:
301,122,53441,1,0,0:0:0:0:
361,207,53628,1,0,0:0:0:0:
257,216,53816,1,0,0:0:0:0:
166,268,54003,1,0,0:0:0:0:
143,285,54097,1,0,0:0:0:0:
107,275,54191,6,0,B|79:301|79:301|55:272,1,70
6,200,54753,6,0,P|6:147|36:96,2,105.000004005432
106,172,55691,1,0,0:0:0:0:
174,103,55878,2,0,P|128:79|76:80,2,105.000004005432
106,172,56816,1,0,0:0:0:0:
211,285,57003,1,0,0:0:0:0:
404,295,57191,6,0,P|396:213|372:116,1,157.500006008148
316,55,57941,2,0,L|282:16,1,52.5000020027161
225,63,58316,2,0,L|259:102,1,52.5000020027161
201,148,58691,2,0,L|167:109,2,52.5000020027161
252,199,59253,1,0,0:0:0:0:
304,251,59441,2,0,L|338:290,1,52.5000020027161
391,245,59816,2,0,L|357:206,1,52.5000020027161
331,180,60097,1,0,0:0:0:0:
305,154,60191,5,0,0:0:0:0:
242,70,60378,1,0,0:0:0:0:
201,167,60566,1,0,0:0:0:0:
305,154,60753,2,0,P|358:165|399:221,2,105.000004005432
201,167,61691,1,0,0:0:0:0:
31,250,61878,2,0,P|56:300|116:304,2,105.000004005432
28,146,62816,1,0,0:0:0:0:
121,196,63003,1,0,0:0:0:0:
121,196,63097,1,0,0:0:0:0:
121,196,63191,5,0,0:0:0:0:
145,111,63378,2,0,P|173:125|195:150,1,52.5000020027161
261,213,63753,1,0,0:0:0:0:
336,288,63941,2,0,P|355:305|378:316,2,52.5000020027161
262,214,64503,1,0,0:0:0:0:
158,331,64691,2,0,P|169:307|187:288,1,52.5000020027161
262,214,65066,1,0,0:0:0:0:
336,139,65253,2,0,P|353:119|364:95,1,52.5000020027161
264,54,65628,1,0,0:0:0:0:
278,161,65816,1,0,0:0:0:0:
363,95,66003,1,0,0:0:0:0:
453,224,66191,6,0,L|507:270,3,52.5000020027161,0|0|0|0,0:2|0:2|0:2|0:2,0:2:0:0:
356,148,66941,2,0,L|295:98,3,70,0|0|0|0,0:2|0:2|0:2|0:2,0:2:0:0:
402,298,67691,2,0,L|385:386,3,87.5,0|0|0|0,0:2|0:2|0:2|0:2,0:2:0:0:
491,102,68441,2,0,L|512:-4,3,105.000004005432,0|0|0|0,0:2|0:2|0:2|0:2,0:2:0:0:
392,199,69191,5,0,0:0:0:0:
135,55,69566,1,0,0:0:0:0:
96,176,69753,1,0,0:0:0:0:
313,173,70128,1,0,0:0:0:0:
173,137,70503,1,0,0:0:0:0:
173,137,70597,2,0,P|253:114|313:173,1,175
312,172,71441,5,0,0:0:0:0:
365,261,71628,2,0,L|410:263,4,26.2500010013581
437,336,72003,1,0,0:0:0:0:
485,116,72191,6,0,P|521:106|481:98,1,105.000004005432
347,79,72566,2,0,P|365:44|331:63,1,105.000004005432
194,64,72941,2,0,P|182:26|172:64,1,105.000004005432
57,138,73316,2,0,P|22:119|41:153,1,105.000004005432
485,268,73691,6,0,P|516:282|481:285,1,70
394,339,74066,2,0,P|406:370|379:348,1,70
272,351,74441,2,0,P|257:381|254:347,1,70
138,323,74816,2,0,P|106:335|128:308,1,70
40,136,75191,5,0,0:0:0:0:
182,6,75378,1,0,0:0:0:0:
75,156,75566,1,0,0:0:0:0:
245,131,75753,1,0,0:0:0:0:
403,109,75941,2,0,P|442:108|464:145,1,83.9999974365235
355,257,76316,1,0,0:0:0:0:
183,211,76503,6,0,P|156:160|104:155,1,83.9999974365235
0,323,76878,1,0,0:0:0:0:
133,146,77066,2,0,P|155:118|210:89,1,83.9999974365235
348,64,77441,1,0,0:0:0:0:
412,263,77628,2,0,L|432:250,2,13.9999995727539
404,288,77816,2,0,L|321:312,1,83.9999974365235
86,259,78191,5,0,0:0:0:0:
119,74,78378,1,0,0:0:0:0:
166,235,78566,1,0,0:0:0:0:
39,98,78753,1,0,0:0:0:0:
246,211,78941,1,0,0:0:0:0:
279,26,79128,1,0,0:0:0:0:
326,187,79316,1,0,0:0:0:0:
199,50,79503,1,0,0:0:0:0:
377,69,79691,5,0,0:0:0:0:
211,98,79878,1,0,0:0:0:0:
356,140,80066,1,0,0:0:0:0:
233,26,80253,1,0,0:0:0:0:
334,212,80441,1,0,0:0:0:0:
168,240,80628,1,0,0:0:0:0:
313,284,80816,1,0,0:0:0:0:
190,170,81003,1,0,0:0:0:0:
63,71,81191,6,0,P|107:41|137:41,2,83.9999974365235
66,208,81753,1,0,0:0:0:0:
66,208,81847,1,0,0:0:0:0:
66,208,81941,2,0,P|69:249|96:281,1,83.9999974365235
242,345,82316,2,0,P|286:315|316:315,1,83.9999974365235
