osu file format v14

[General]
AudioFilename: audio.mp3
AudioLeadIn: 0
PreviewTime: 71270
Countdown: 0
SampleSet: Soft
StackLeniency: 0.4
Mode: 0
LetterboxInBreaks: 0
WidescreenStoryboard: 1

[Editor]
DistanceSpacing: 1.6
BeatDivisor: 4
GridSize: 4
TimelineZoom: 1

[Metadata]
Title:BUBBLE TEA (feat. juu & cinders)
TitleUnicode:BUBBLE TEA (feat. juu & cinders)
Artist:dark cat
ArtistUnicode:dark cat
Creator:Hobbes2
Version:Normal
Source:
Tags:ailv Battle Nao Tomori Ascendance Kaifin Catstep Featured Artist
BeatmapID:1618999
BeatmapSetID:769917

[Difficulty]
HPDrainRate:4
CircleSize:3
OverallDifficulty:4
ApproachRate:5
SliderMultiplier:1
SliderTickRate:1

[Events]
//Background and Video events
0,0,"zoop.jpg",0,0
//Break Periods
2,36762,40988
2,96388,100238
2,102388,106238
//Storyboard Layer 0 (Background)
//Storyboard Layer 1 (Fail)
//Storyboard Layer 2 (Pass)
//Storyboard Layer 3 (Foreground)
//Storyboard Sound Samples

[TimingPoints]
188,375,4,2,1,60,1,0
9188,-100,4,2,1,30,0,0
12188,-100,4,2,1,40,0,0
42188,-100,4,2,1,40,0,0
72188,-90.9090909090909,4,2,0,60,0,1
77625,-90.9090909090909,4,2,1,60,0,1
77813,-90.9090909090909,4,2,0,60,0,1
83625,-90.9090909090909,4,2,1,60,0,1
83719,-90.9090909090909,4,2,0,60,0,1
84188,-90.9090909090909,4,2,0,60,0,0
84563,-90.9090909090909,4,2,0,60,0,1
89625,-90.9090909090909,4,2,1,60,0,1
89719,-90.9090909090909,4,2,0,60,0,1
95625,-90.9090909090909,4,2,1,60,0,1
95719,-90.9090909090909,4,2,0,60,0,1
96188,-90.9090909090909,4,2,0,60,0,0
101438,-100,4,2,1,40,0,0

[Colours]
Combo1 : 85,130,132
Combo2 : 115,107,152
Combo3 : 60,163,185
Combo4 : 198,121,123

[HitObjects]
98,262,9188,6,0,P|86:189|118:121,4,150,0|0|0|0|0,0:0|0:0|0:0|0:0|0:0,0:0:0:0:
181,318,11813,2,0,P|214:320|252:317,1,50,0|4,0:0|0:3,0:0:0:0:
278,304,12188,6,0,B|294:261|294:261|261:152,1,150,2|2,0:0|0:0,0:0:0:0:
210,20,13313,1,2,0:0:0:0:
148,98,13688,2,0,P|74:109|48:97,1,100,2|0,0:0|0:0,0:0:0:0:
19,137,14250,2,0,L|10:286,1,150,2|0,0:0|0:0,0:0:0:0:
87,351,15188,6,0,P|142:364|242:330,1,150,2|2,0:0|0:0,0:0:0:0:
264,302,15938,2,0,P|267:232|250:188,1,100,0|2,0:0|0:0,0:0:0:0:
181,139,16688,2,0,P|178:69|195:25,1,100,0|0,0:0|0:0,0:0:0:0:
231,20,17250,1,0,0:0:0:0:
231,20,17438,2,0,L|330:28,1,100,2|2,0:0|0:0,0:0:0:0:
384,112,18188,6,0,P|454:91|511:136,2,150,2|2|2,0:0|0:0|0:0,0:0:0:0:
320,187,19688,2,0,P|314:237|332:283,1,100,2|0,0:0|0:0,0:0:0:0:
362,322,20250,2,0,L|262:313,1,100,2|0,0:0|0:0,0:0:0:0:
212,308,20813,1,2,0:0:0:0:
140,237,21188,5,2,0:0:0:0:
214,170,21563,1,0,0:0:0:0:
214,170,21750,1,2,0:0:0:0:
144,98,22125,1,0,0:0:0:0:
144,98,22313,1,2,0:0:0:0:
47,123,22688,2,0,P|23:194|29:268,1,150,0|0,0:0|0:0,0:0:0:0:
50,314,23438,1,2,0:0:0:0:
138,360,23813,1,2,0:0:0:0:
226,312,24188,6,0,P|229:245|218:190,1,100,10|0,0:0|0:0,0:0:0:0:
200,168,24750,1,8,0:0:0:0:
297,54,25313,1,8,0:0:0:0:
381,119,25688,1,2,0:0:0:0:
381,119,25875,2,0,P|388:159|391:278,1,150,8|8,0:0|0:0,0:0:0:0:
302,313,26813,1,10,0:0:0:0:
220,255,27188,5,10,0:0:0:0:
88,182,27750,2,0,P|36:195|22:207,2,50,8|0|0,0:0|0:0|0:0,0:0:0:0:
127,151,28313,1,10,0:0:0:0:
263,88,28875,2,0,P|325:79|378:100,1,100,10|0,0:0|0:0,0:0:0:0:
399,120,29438,1,10,0:0:0:0:
397,219,29813,1,2,0:0:0:0:
323,286,30188,6,0,L|223:274,1,100,10|0,0:0|0:0,0:0:0:0:
189,310,30750,2,0,L|89:321,1,100,10|0,0:0|0:0,0:0:0:0:
46,295,31313,1,10,0:0:0:0:
29,196,31688,2,0,L|37:140,1,50,2|8,0:0|0:0,0:0:0:0:
127,107,32250,2,0,L|119:51,1,50,2|8,0:0|0:0,0:0:0:0:
207,8,32813,1,10,0:0:0:0:
282,73,33188,6,0,P|290:109|286:178,1,100,10|0,0:0|0:0,0:0:0:0:
265,216,33750,2,0,P|301:208|370:212,1,100,10|0,0:0|0:0,0:0:0:0:
407,234,34313,1,10,0:0:0:0:
363,324,34688,1,0,0:0:0:0:
363,324,34875,1,10,0:0:0:0:
268,357,35250,2,0,P|210:364|202:362,1,50,0|4,0:0|0:3,0:0:0:0:
129,320,35813,1,2,0:0:0:0:
93,226,36188,6,0,L|98:174,2,50,4|0|2,0:3|0:0|0:3,0:0:0:0:
112,74,42188,5,2,0:0:0:0:
200,27,42563,1,0,0:0:0:0:
200,27,42750,2,0,P|252:22|316:43,2,100,2|0|0,0:0|0:0|0:0,0:0:0:0:
198,126,43875,1,0,0:0:0:0:
260,203,44250,2,0,P|271:256|264:307,1,100,2|0,0:0|0:0,0:0:0:0:
231,337,44813,1,2,0:0:0:0:
231,337,45000,1,2,0:3:0:0:
430,335,45750,6,0,P|430:269|448:226,1,100,2|0,0:0|0:0,0:0:0:0:
476,201,46313,1,2,0:0:0:0:
402,132,46688,2,0,L|408:12,2,100,0|0|2,0:0|0:0|0:0,0:0:0:0:
311,175,47813,1,2,0:0:0:0:
231,114,48188,5,2,0:0:0:0:
147,169,48563,1,0,0:0:0:0:
147,169,48750,2,0,P|86:143|44:149,2,100,2|0|0,0:0|0:0|0:0,0:0:0:0:
143,269,49875,1,0,0:0:0:0:
76,343,50250,1,2,0:0:0:0:
8,268,50625,2,0,P|10:226|14:197,1,50,0|0,0:0|0:0,0:0:0:0:
25,170,51000,1,2,0:3:0:0:
194,63,51750,6,0,P|221:107|224:158,1,100,2|0,0:0|0:0,0:0:0:0:
213,203,52313,1,2,0:0:0:0:
284,273,52688,2,0,B|272:315|272:315|285:386,2,100,0|0|2,0:0|0:0|0:0,0:0:0:0:
340,190,53813,1,2,0:0:0:0:
419,129,54188,5,4,0:3:0:0:
481,207,54563,2,0,P|489:230|493:254,1,50,0|2,0:0|0:0,0:0:0:0:
440,338,55125,2,0,P|390:344|342:332,1,100,0|0,0:0|0:0,0:0:0:0:
255,282,55875,2,0,P|205:276|157:288,1,100,0|2,0:0|0:0,0:0:0:0:
75,346,56625,1,0,0:0:0:0:
21,261,57000,1,2,0:3:0:0:
21,261,57188,5,2,0:0:0:0:
79,123,57750,2,0,P|153:105|178:114,1,100,2|0,0:0|0:0,0:0:0:0:
214,140,58313,1,2,0:0:0:0:
178,233,58688,2,0,L|185:332,2,100,0|0|2,0:0|0:0|0:0,0:0:0:0:
277,222,59813,1,2,0:0:0:0:
345,148,60188,5,2,0:0:0:0:
274,77,60563,2,0,P|237:75|217:80,1,50,0|2,0:0|0:0,0:0:0:0:
137,126,61125,2,0,P|80:56|56:41,2,100,0|0|0,0:0|0:0|0:0,0:0:0:0:
184,214,62250,2,0,P|146:247|119:289,1,100,2|0,0:0|0:0,0:0:0:0:
63,371,63000,1,2,0:3:0:0:
63,371,63188,5,2,0:0:0:0:
18,227,63750,2,0,L|24:127,1,100,2|0,0:0|0:0,0:0:0:0:
48,83,64313,1,2,0:0:0:0:
144,109,64688,2,0,P|219:99|245:74,2,100,0|0|2,0:0|0:0|0:0,0:0:0:0:
74,181,65813,1,2,0:0:0:0:
125,266,66188,5,4,0:3:0:0:
256,192,66563,12,4,69188,0:3:0:0:
319,337,72188,6,0,P|373:343|428:338,2,110.000003356934,4|0|8,0:3|0:0|0:0,0:0:0:0:
249,252,73314,1,4,0:3:0:0:
334,183,73689,2,0,P|338:128|330:74,1,110.000003356934
222,51,74438,2,0,P|167:47|113:54,1,110.000003356934,8|2,0:0|0:0,0:0:0:0:
77,96,75000,1,2,0:3:0:0:
77,96,75188,6,0,L|85:205,1,110.000003356934,4|0,0:3|0:0,0:0:0:0:
64,256,75750,2,0,P|116:239|169:254,1,110.000003356934,4|0,0:3|0:0,0:0:0:0:
213,284,76313,1,4,0:3:0:0:
292,208,76688,1,0,0:0:0:0:
336,240,76875,2,0,P|349:284|348:362,1,110.000003356934,4|0,0:3|0:0,0:0:0:0:
303,376,77438,1,8,0:0:0:0:
194,355,77813,1,2,0:3:0:0:
128,266,78188,6,0,P|92:311|85:382,2,110.000003356934,4|0|8,0:3|0:0|0:0,0:0:0:0:
230,225,79313,1,4,0:3:0:0:
308,148,79688,2,0,P|303:120|297:93,1,55.0000016784668,0|4,0:0|0:3,0:0:0:0:
269,46,80063,1,4,0:3:0:0:
170,95,80438,2,0,P|139:102|56:81,1,110.000003356934,8|2,0:0|0:0,0:0:0:0:
18,54,81000,1,2,0:3:0:0:
18,54,81188,6,0,L|10:163,1,110.000003356934,4|0,0:3|0:0,0:0:0:0:
42,208,81750,2,0,L|34:317,1,110.000003356934,4|0,0:3|0:0,0:0:0:0:
66,362,82313,1,4,0:3:0:0:
168,321,82688,1,0,0:0:0:0:
168,321,82875,2,0,P|210:323|274:351,1,110.000003356934,4|0,0:3|0:0,0:0:0:0:
316,382,83438,1,8,0:0:0:0:
353,278,83813,1,2,0:3:0:0:
293,185,84188,6,0,P|290:136|307:75,1,110.000003356934,4|0,0:3|0:0,0:0:0:0:
347,42,84750,2,0,L|456:51,2,110.000003356934,4|0|0,0:3|0:0|0:0,0:0:0:0:
240,14,85875,2,0,P|205:11|173:16,1,55.0000016784668,4|4,0:3|0:3,0:0:0:0:
140,45,86250,1,0,0:0:0:0:
72,131,86625,1,2,0:0:0:0:
72,131,86813,1,2,0:0:0:0:
138,218,87188,6,0,B|179:237|179:237|264:222,1,110.000003356934,4|0,0:3|0:0,0:0:0:0:
288,195,87750,2,0,P|280:244|294:325,1,110.000003356934,4|0,0:3|0:0,0:0:0:0:
323,344,88313,1,4,0:3:0:0:
428,313,88688,1,0,0:0:0:0:
428,313,88875,2,0,P|436:264|422:183,1,110.000003356934,4|0,0:3|0:0,0:0:0:0:
398,158,89438,1,8,0:0:0:0:
299,108,89813,1,2,0:3:0:0:
233,196,90188,6,0,P|166:208|110:187,1,110.000003356934,4|0,0:3|0:0,0:0:0:0:
84,161,90750,1,4,0:3:0:0:
18,249,91125,1,0,0:0:0:0:
18,249,91313,2,0,P|54:292|64:306,1,55.0000016784668,4|0,0:3|0:0,0:0:0:0:
104,311,91688,2,0,P|33:342|4:380,2,110.000003356934,0|4|8,0:0|0:3|0:0,0:0:0:0:
209,341,92813,2,0,B|220:338|235:335|274:344,1,55.0000016784668,2|2,0:0|0:3,0:0:0:0:
309,311,93188,6,0,P|294:259|260:195,1,110.000003356934,4|0,0:3|0:0,0:0:0:0:
302,164,93750,2,0,P|264:126|202:88,1,110.000003356934,4|0,0:3|0:0,0:0:0:0:
223,40,94313,1,4,0:3:0:0:
115,24,94688,1,0,0:0:0:0:
115,24,94875,2,0,P|82:66|67:122,1,110.000003356934,4|0,0:3|0:0,0:0:0:0:
77,173,95438,1,8,0:0:0:0:
153,252,95813,1,2,0:3:0:0:
259,219,96188,5,4,0:3:0:0:
186,91,101438,6,0,P|181:139|185:159,1,50,2|0,0:0|0:0,0:0:0:0:
217,175,101813,2,0,P|222:223|218:243,1,50,2|0,0:0|0:0,0:0:0:0:
200,269,102188,1,10,0:0:0:0:
124,109,107438,6,0,L|194:111,1,50,2|0,0:0|0:0,0:0:0:0:
210,76,107813,2,0,L|280:74,1,50,2|2,0:0|0:3,0:0:0:0:
301,100,108188,6,0,P|315:174|304:248,2,150,4|2|2,0:3|0:0|0:3,0:0:0:0:
163,41,109688,2,0,P|121:63|85:120,1,100,2|0,0:0|0:0,0:0:0:0:
69,150,110250,2,0,L|83:299,1,150,0|0,0:0|0:0,0:0:0:0:
116,336,111000,1,2,0:3:0:0:
116,336,111188,5,2,0:0:0:0:
256,283,111750,2,0,P|257:215|248:178,1,100,2|0,0:3|0:0,0:0:0:0:
216,146,112313,1,2,0:3:0:0:
296,87,112688,2,0,P|335:88|357:92,1,50,0|2,0:0|0:3,0:0:0:0:
418,158,113250,1,0,0:0:0:0:
418,158,113438,2,0,P|426:221|419:274,1,100,10|2,0:0|0:0,0:0:0:0:
344,319,114188,6,0,P|272:331|195:317,1,150,2|2,0:3|0:3,0:0:0:0:
100,202,115313,1,2,0:3:0:0:
189,156,115688,2,0,P|192:114|192:97,1,50,2|2,0:0|0:3,0:0:0:0:
105,56,116250,2,0,P|102:14|102:-3,1,50,2|8,0:0|0:0,0:0:0:0:
202,6,116813,1,0,0:0:0:0:
300,23,117188,5,2,0:0:0:0:
368,154,117750,2,0,P|379:229|370:303,1,150,2|2,0:3|0:3,0:0:0:0:
275,336,118688,1,0,0:0:0:0:
182,297,119063,1,0,0:0:0:0:
101,355,119438,5,10,0:0:0:0:
46,271,119813,2,0,L|36:221,1,50,2|2,0:0|0:0,0:0:0:0:
36,171,120188,6,0,P|103:146|143:71,2,150,4|2|2,0:3|0:0|0:0,0:0:0:0:
79,261,121688,2,0,P|146:286|186:361,2,150,2|2|2,0:0|0:0|0:0,0:0:0:0:
12,186,123188,6,0,P|44:139|102:119,1,100,2|0,0:0|0:0,0:0:0:0:
131,113,123750,2,0,L|280:126,1,150,2|2,0:0|0:0,0:0:0:0:
334,210,124688,2,0,P|329:253|328:269,1,50,0|2,0:0|0:0,0:0:0:0:
414,322,125250,1,0,0:0:0:0:
414,322,125438,1,2,0:0:0:0:
487,253,125813,1,2,0:0:0:0:
414,184,126188,6,0,P|341:176|246:191,1,150,2|2,0:0|0:0,0:0:0:0:
218,203,126938,2,0,P|204:258|203:315,1,100,0|2,0:0|0:0,0:0:0:0:
102,312,127688,2,0,P|84:241|31:189,1,150,2|2,0:0|0:0,0:0:0:0:
146,92,128813,2,0,P|200:81|206:78,1,50,2|0,0:0|0:0,0:0:0:0:
240,61,129188,6,0,P|232:124|225:175,1,100,2|0,0:0|0:0,0:0:0:0:
265,191,129750,2,0,P|273:254|280:305,1,100,2|0,0:0|0:0,0:0:0:0:
265,338,130313,1,2,0:0:0:0:
411,306,130875,2,0,P|421:252|441:197,1,100,2|0,0:0|0:0,0:0:0:0:
469,172,131438,1,2,0:0:0:0:
392,107,131813,1,2,0:0:0:0:
303,154,132188,6,0,P|199:146|154:177,2,150,10|10|10,0:0|0:0|0:0,0:0:0:0:
354,239,133688,2,0,P|358:274|359:292,1,50,2|8,0:0|0:0,0:0:0:0:
281,352,134250,2,0,P|246:356|228:357,1,50,2|8,0:0|0:0,0:0:0:0:
138,319,134813,1,10,0:0:0:0:
45,356,135188,5,10,0:0:0:0:
103,217,135750,2,0,P|155:194|219:199,1,100,10|0,0:0|0:0,0:0:0:0:
244,212,136313,1,10,0:0:0:0:
330,272,136688,1,0,0:0:0:0:
330,272,136875,1,10,0:0:0:0:
368,179,137250,2,0,P|369:139|369:117,1,50,0|10,0:0|0:0,0:0:0:0:
441,59,137813,1,2,0:0:0:0:
499,139,138188,6,0,P|506:209|505:257,1,100,10|2,0:0|0:3,0:0:0:0:
478,280,138750,2,0,L|363:272,1,100,10|2,0:0|0:3,0:0:0:0:
329,263,139313,1,10,0:0:0:0:
261,337,139688,2,0,P|217:333|192:333,1,50,2|8,0:3|0:0,0:0:0:0:
132,271,140250,2,0,P|88:275|63:275,1,50,2|8,0:3|0:0,0:0:0:0:
8,206,140813,1,10,0:0:0:0:
59,120,141188,6,0,P|134:88|163:93,1,100,10|2,0:0|0:3,0:0:0:0:
195,110,141750,2,0,L|189:231,1,100,10|2,0:0|0:3,0:0:0:0:
187,259,142313,1,10,0:0:0:0:
275,305,142688,2,0,P|324:312|337:308,1,50,2|10,0:3|0:0,0:0:0:0:
418,195,143438,1,4,0:3:0:0:
368,108,143813,1,2,0:0:0:0:
448,48,144188,6,0,P|490:49|506:45,2,50,4|0|2,0:3|0:0|0:3,0:0:0:0:
