osu file format v14

[General]
AudioFilename: audio.mp3
AudioLeadIn: 0
PreviewTime: 42383
Countdown: 0
SampleSet: Soft
StackLeniency: 0.6
Mode: 1
LetterboxInBreaks: 0
WidescreenStoryboard: 1

[Editor]
DistanceSpacing: 1.3
BeatDivisor: 4
GridSize: 4
TimelineZoom: 1.6

[Metadata]
Title:BUBBLE TEA (feat. juu & cinders)
TitleUnicode:BUBBLE TEA (feat. juu & cinders)
Artist:dark cat
ArtistUnicode:dark cat
Creator:-Rmdy
Version:Muzukashii
Source:
Tags:catstep happy fun cute pop cut short size edit IceCalt Cappu Moonl1ght
BeatmapID:1609893
BeatmapSetID:619164

[Difficulty]
HPDrainRate:5
CircleSize:3
OverallDifficulty:7
ApproachRate:9
SliderMultiplier:1.4
SliderTickRate:1

[Events]
//Background and Video events
0,0,"BG.jpg",0,0
//Break Periods
2,36580,41405
//Storyboard Layer 0 (Background)
//Storyboard Layer 1 (Fail)
//Storyboard Layer 2 (Pass)
//Storyboard Layer 3 (Foreground)
//Storyboard Sound Samples

[TimingPoints]
5,375,4,2,1,30,1,0
9005,-100,4,2,1,30,0,0
12005,-100,4,2,1,30,0,0
42005,-100,4,2,1,30,0,0
72005,-100,4,2,2,70,0,1
96005,-100,4,2,1,30,0,0

[HitObjects]
256,192,3755,5,0,0:0:0:0:
256,192,4505,1,0,0:0:0:0:
256,192,5067,1,0,0:0:0:0:
256,192,5817,1,8,0:0:0:0:
256,192,6005,1,0,0:0:0:0:
256,192,9005,1,0,0:0:0:0:
256,192,9567,1,0,0:0:0:0:
256,192,10130,1,0,0:0:0:0:
256,192,10692,1,2,0:0:0:0:
256,192,11255,1,0,0:0:0:0:
256,192,11817,1,8,0:0:0:0:
256,192,12005,1,8,0:0:0:0:
256,192,12380,1,0,0:0:0:0:
256,192,12567,1,2,0:0:0:0:
256,192,13130,1,0,0:0:0:0:
256,192,13505,1,2,0:0:0:0:
256,192,13880,1,0,0:0:0:0:
256,192,14067,1,2,0:0:0:0:
256,192,14630,1,0,0:0:0:0:
256,192,14817,1,0,0:0:0:0:
256,192,15567,1,0,0:0:0:0:
256,192,15755,1,0,0:0:0:0:
256,192,15942,1,2,0:0:0:0:
256,192,16317,1,0,0:0:0:0:
256,192,16505,1,0,0:0:0:0:
256,192,16692,1,0,0:0:0:0:
256,192,17067,1,0,0:0:0:0:
256,192,17255,1,0,0:0:0:0:
256,192,17442,1,2,0:0:0:0:
256,192,17817,1,0,0:0:0:0:
256,192,18005,1,2,0:0:0:0:
256,192,18192,1,2,0:0:0:0:
256,192,18380,1,0,0:0:0:0:
256,192,18755,1,2,0:0:0:0:
256,192,18942,1,2,0:0:0:0:
256,192,19317,1,2,0:0:0:0:
256,192,19505,1,0,0:0:0:0:
256,192,19692,1,2,0:0:0:0:
256,192,20067,1,0,0:0:0:0:
256,192,20442,1,0,0:0:0:0:
256,192,20630,1,0,0:0:0:0:
256,192,21005,1,4,0:0:0:0:
256,192,21380,1,2,0:0:0:0:
256,192,21567,1,4,0:0:0:0:
256,192,21942,1,2,0:0:0:0:
256,192,22130,1,4,0:0:0:0:
256,192,22505,1,2,0:0:0:0:
256,192,22692,1,0,0:0:0:0:
256,192,22880,1,0,0:0:0:0:
256,192,23255,1,0,0:0:0:0:
256,192,23630,1,6,0:0:0:0:
256,192,23817,1,8,0:0:0:0:
256,192,23911,1,8,0:0:0:0:
256,192,24005,1,8,0:0:0:0:
256,192,24380,1,2,0:0:0:0:
256,192,24567,1,2,0:0:0:0:
256,192,25130,1,8,0:0:0:0:
256,192,25692,1,8,0:0:0:0:
256,192,25880,1,0,0:0:0:0:
256,192,26067,1,0,0:0:0:0:
256,192,26255,1,8,0:0:0:0:
256,192,26630,1,8,0:0:0:0:
256,192,26723,1,8,0:0:0:0:
256,192,26817,1,8,0:0:0:0:
256,192,27005,1,0,0:0:0:0:
256,192,27567,1,8,0:0:0:0:
256,192,27755,1,0,0:0:0:0:
256,192,27942,1,0,0:0:0:0:
256,192,28317,1,0,0:0:0:0:
256,192,28505,1,0,0:0:0:0:
256,192,28692,1,8,0:0:0:0:
256,192,29067,1,0,0:0:0:0:
256,192,29255,1,8,0:0:0:0:
256,192,29442,1,0,0:0:0:0:
256,192,29817,1,0,0:0:0:0:
256,192,30005,1,8,0:0:0:0:
256,192,30380,1,0,0:0:0:0:
256,192,30567,1,8,0:0:0:0:
256,192,30942,1,0,0:0:0:0:
256,192,31130,1,8,0:0:0:0:
256,192,31505,1,0,0:0:0:0:
256,192,31692,1,8,0:0:0:0:
256,192,31880,1,0,0:0:0:0:
256,192,32067,1,0,0:0:0:0:
256,192,32255,1,8,0:0:0:0:
256,192,32630,1,8,0:0:0:0:
256,192,32817,1,8,0:0:0:0:
256,192,33005,1,4,0:0:0:0:
256,192,33380,1,0,0:0:0:0:
256,192,33567,1,12,0:0:0:0:
256,192,33942,1,2,0:0:0:0:
256,192,34130,1,4,0:0:0:0:
256,192,34505,1,8,0:0:0:0:
256,192,34692,1,8,0:0:0:0:
256,192,34880,1,0,0:0:0:0:
256,192,35255,1,4,0:0:0:0:
256,192,35630,1,2,0:0:0:0:
256,192,36005,1,6,0:0:0:0:
256,192,36380,1,4,0:0:0:0:
256,192,42005,5,2,0:0:0:0:
256,192,42567,1,2,0:0:0:0:
256,192,43130,1,2,0:0:0:0:
256,192,43505,1,0,0:0:0:0:
256,192,44067,1,0,0:0:0:0:
256,192,44630,1,2,0:0:0:0:
256,192,45005,1,0,0:0:0:0:
256,192,45567,1,2,0:0:0:0:
256,192,45755,1,0,0:0:0:0:
256,192,46130,1,2,0:0:0:0:
256,192,46317,1,0,0:0:0:0:
256,192,46692,1,2,0:0:0:0:
256,192,47067,1,0,0:0:0:0:
256,192,47255,1,2,0:0:0:0:
256,192,47630,1,2,0:0:0:0:
256,192,48005,1,0,0:0:0:0:
256,192,48567,1,0,0:0:0:0:
256,192,49130,1,0,0:0:0:0:
256,192,49505,1,2,0:0:0:0:
256,192,50067,1,0,0:0:0:0:
256,192,50630,1,2,0:0:0:0:
256,192,51005,1,0,0:0:0:0:
256,192,51567,1,2,0:0:0:0:
256,192,51755,1,0,0:0:0:0:
256,192,52130,1,2,0:0:0:0:
256,192,52317,1,0,0:0:0:0:
256,192,52692,1,2,0:0:0:0:
256,192,53067,1,0,0:0:0:0:
256,192,53255,1,2,0:0:0:0:
256,192,53630,1,0,0:0:0:0:
256,192,54005,1,4,0:0:0:0:
256,192,54567,1,0,0:0:0:0:
256,192,55130,1,0,0:0:0:0:
256,192,55505,1,2,0:0:0:0:
256,192,56067,1,2,0:0:0:0:
256,192,56630,1,2,0:0:0:0:
256,192,57005,1,0,0:0:0:0:
256,192,57567,1,0,0:0:0:0:
256,192,57755,1,2,0:0:0:0:
256,192,58130,1,0,0:0:0:0:
256,192,58317,1,2,0:0:0:0:
256,192,58505,1,0,0:0:0:0:
256,192,58880,1,2,0:0:0:0:
256,192,59067,1,2,0:0:0:0:
256,192,59255,1,0,0:0:0:0:
256,192,59630,1,2,0:0:0:0:
256,192,60005,1,0,0:0:0:0:
256,192,60567,1,0,0:0:0:0:
256,192,61130,1,0,0:0:0:0:
256,192,61505,1,2,0:0:0:0:
256,192,62067,1,2,0:0:0:0:
256,192,62630,1,2,0:0:0:0:
256,192,63005,1,0,0:0:0:0:
248,188,63567,1,0,0:0:0:0:
248,188,63755,1,2,0:0:0:0:
248,188,64130,1,0,0:0:0:0:
248,188,64317,1,0,0:0:0:0:
248,188,64505,1,2,0:0:0:0:
248,188,64880,1,0,0:0:0:0:
248,188,65067,1,2,0:0:0:0:
248,188,65255,1,0,0:0:0:0:
248,188,65630,1,0,0:0:0:0:
248,188,65817,1,0,0:0:0:0:
248,188,66005,1,4,0:0:0:0:
248,188,66567,1,6,0:0:0:0:
248,188,67317,1,6,0:0:0:0:
248,188,68067,1,4,0:0:0:0:
248,188,68817,1,0,0:0:0:0:
248,188,69005,1,12,0:0:0:0:
248,188,69567,1,0,0:0:0:0:
248,188,70317,1,2,0:0:0:0:
248,188,71442,1,8,0:0:0:0:
248,188,71536,1,8,0:0:0:0:
248,188,71630,1,8,0:0:0:0:
248,188,72005,1,4,0:0:0:0:
248,188,72380,1,0,0:0:0:0:
248,188,72567,1,8,0:0:0:0:
248,188,72942,1,0,0:0:0:0:
248,188,73130,1,8,0:0:0:0:
248,188,73317,1,0,0:0:0:0:
248,188,73692,1,8,0:0:0:0:
248,188,73880,1,8,0:0:0:0:
248,188,74255,1,12,0:0:0:0:
248,188,74630,1,0,0:0:0:0:
248,188,74817,1,0,0:0:0:0:
248,188,75005,1,12,0:0:0:0:
248,188,75380,1,0,0:0:0:0:
248,188,75567,1,12,0:0:0:0:
248,188,75942,1,0,0:0:0:0:
248,188,76130,1,12,0:0:0:0:
248,188,76505,1,0,0:0:0:0:
248,188,76692,1,12,0:0:0:0:
248,188,76880,1,12,0:0:0:0:
248,188,77255,1,0,0:0:0:0:
248,188,77442,1,8,0:0:0:0:
248,188,77536,1,8,0:0:0:0:
248,188,77630,1,8,0:0:0:0:
248,188,78005,1,0,0:0:0:0:
248,188,78380,1,0,0:0:0:0:
248,188,78567,1,8,0:0:0:0:
248,188,78942,1,0,0:0:0:0:
248,188,79130,1,8,0:0:0:0:
248,188,79317,1,0,0:0:0:0:
248,188,79692,1,8,0:0:0:0:
248,188,79880,1,8,0:0:0:0:
248,188,80255,1,12,0:0:0:0:
248,188,80630,1,0,0:0:0:0:
248,188,80817,1,0,0:0:0:0:
248,188,81005,1,12,0:0:0:0:
248,188,81380,1,0,0:0:0:0:
248,188,81567,1,12,0:0:0:0:
248,188,81942,1,0,0:0:0:0:
248,188,82130,1,12,0:0:0:0:
248,188,82505,1,0,0:0:0:0:
248,188,82692,1,12,0:0:0:0:
248,188,82880,1,12,0:0:0:0:
248,188,83255,1,0,0:0:0:0:
248,188,83442,1,8,0:0:0:0:
248,188,83536,1,0,0:0:0:0:
248,188,83630,1,8,0:0:0:0:
248,188,84005,1,4,0:0:0:0:
248,188,84380,1,0,0:0:0:0:
248,188,84567,1,8,0:0:0:0:
248,188,84942,1,0,0:0:0:0:
248,188,85130,1,8,0:0:0:0:
248,188,85317,1,0,0:0:0:0:
248,188,85692,1,8,0:0:0:0:
248,188,85880,1,8,0:0:0:0:
248,188,86255,1,12,0:0:0:0:
248,188,86630,1,0,0:0:0:0:
248,188,86817,1,0,0:0:0:0:
248,188,87005,1,12,0:0:0:0:
248,188,87380,1,0,0:0:0:0:
248,188,87567,1,12,0:0:0:0:
248,188,87942,1,0,0:0:0:0:
248,188,88130,1,12,0:0:0:0:
248,188,88505,1,0,0:0:0:0:
248,188,88692,1,12,0:0:0:0:
248,188,88880,1,12,0:0:0:0:
248,188,89255,1,0,0:0:0:0:
248,188,89442,1,0,0:0:0:0:
248,188,89536,1,0,0:0:0:0:
248,188,89630,1,8,0:0:0:0:
248,188,90005,1,0,0:0:0:0:
248,188,90380,1,0,0:0:0:0:
248,188,90567,1,8,0:0:0:0:
248,188,90942,1,0,0:0:0:0:
248,188,91130,1,8,0:0:0:0:
248,188,91317,1,0,0:0:0:0:
248,188,91692,1,8,0:0:0:0:
248,188,91880,1,8,0:0:0:0:
248,188,92255,1,12,0:0:0:0:
248,188,92630,1,0,0:0:0:0:
248,188,92817,1,0,0:0:0:0:
248,188,93005,1,12,0:0:0:0:
248,188,93380,1,0,0:0:0:0:
248,188,93567,1,12,0:0:0:0:
248,188,93942,1,0,0:0:0:0:
248,188,94130,1,12,0:0:0:0:
248,188,94505,1,0,0:0:0:0:
248,188,94692,1,12,0:0:0:0:
248,188,94880,1,12,0:0:0:0:
248,188,95255,1,0,0:0:0:0:
248,188,95442,1,8,0:0:0:0:
248,188,95536,1,0,0:0:0:0:
248,188,95630,1,8,0:0:0:0:
248,188,96005,1,0,0:0:0:0:
248,188,96380,1,2,0:0:0:0:
248,188,96567,1,2,0:0:0:0:
248,188,97130,1,2,0:0:0:0:
248,188,97505,1,0,0:0:0:0:
248,188,97880,1,2,0:0:0:0:
248,188,98067,1,0,0:0:0:0:
248,188,98630,1,0,0:0:0:0:
248,188,98817,1,2,0:0:0:0:
248,188,99567,1,0,0:0:0:0:
248,188,99755,1,0,0:0:0:0:
248,188,99942,1,2,0:0:0:0:
248,188,100317,1,0,0:0:0:0:
248,188,100505,1,2,0:0:0:0:
248,188,100692,1,0,0:0:0:0:
248,188,101067,1,2,0:0:0:0:
248,188,101255,1,2,0:0:0:0:
248,188,101442,1,2,0:0:0:0:
248,188,101817,1,0,0:0:0:0:
248,188,102005,1,0,0:0:0:0:
248,188,102192,1,2,0:0:0:0:
248,188,102380,1,2,0:0:0:0:
248,188,102755,1,2,0:0:0:0:
248,188,102942,1,2,0:0:0:0:
248,188,103130,1,0,0:0:0:0:
248,188,103505,1,2,0:0:0:0:
248,188,103880,1,2,0:0:0:0:
248,188,104067,1,0,0:0:0:0:
248,188,104442,1,2,0:0:0:0:
248,188,104630,1,0,0:0:0:0:
248,188,105005,1,4,0:0:0:0:
248,188,105380,1,2,0:0:0:0:
248,188,105567,1,4,0:0:0:0:
248,188,105942,1,2,0:0:0:0:
248,188,106130,1,4,0:0:0:0:
248,188,106505,1,2,0:0:0:0:
248,188,106692,1,2,0:0:0:0:
248,188,106880,1,0,0:0:0:0:
248,188,107255,1,2,0:0:0:0:
248,188,107630,1,2,0:0:0:0:
248,188,108005,1,4,0:0:0:0:
248,188,108380,1,0,0:0:0:0:
248,188,108567,1,8,0:0:0:0:
248,188,109130,1,8,0:0:0:0:
248,188,109505,1,0,0:0:0:0:
248,188,109692,1,8,0:0:0:0:
248,188,110067,1,0,0:0:0:0:
248,188,110255,1,8,0:0:0:0:
248,188,110630,1,8,0:0:0:0:
248,188,110723,1,8,0:0:0:0:
248,188,110817,1,8,0:0:0:0:
248,188,111005,1,0,0:0:0:0:
248,188,111567,1,8,0:0:0:0:
248,188,111755,1,0,0:0:0:0:
248,188,111942,1,0,0:0:0:0:
248,188,112317,1,0,0:0:0:0:
248,188,112505,1,0,0:0:0:0:
248,188,112692,1,8,0:0:0:0:
248,188,113067,1,0,0:0:0:0:
248,188,113255,1,8,0:0:0:0:
248,188,113442,1,0,0:0:0:0:
248,188,113817,1,0,0:0:0:0:
248,188,114005,1,8,0:0:0:0:
248,188,114192,1,0,0:0:0:0:
248,188,114380,1,8,0:0:0:0:
248,188,114755,1,0,0:0:0:0:
248,188,114942,1,8,0:0:0:0:
248,188,115130,1,8,0:0:0:0:
248,188,115505,1,0,0:0:0:0:
248,188,115692,1,8,0:0:0:0:
248,188,116067,1,8,0:0:0:0:
248,188,116255,1,0,0:0:0:0:
248,188,116630,1,8,0:0:0:0:
248,188,116817,1,8,0:0:0:0:
248,188,117005,1,4,0:0:0:0:
248,188,117380,1,0,0:0:0:0:
248,188,117567,1,12,0:0:0:0:
248,188,117942,1,0,0:0:0:0:
248,188,118130,1,12,0:0:0:0:
248,188,118505,1,0,0:0:0:0:
248,188,118692,1,8,0:0:0:0:
248,188,118880,1,8,0:0:0:0:
248,188,119255,1,0,0:0:0:0:
248,188,119630,1,0,0:0:0:0:
248,188,120005,1,8,0:0:0:0:
248,188,120380,1,4,0:0:0:0:
