osu file format v14

[General]
AudioFilename: banana.mp3
AudioLeadIn: 0
PreviewTime: 26523
Countdown: 0
SampleSet: Soft
StackLeniency: 0.5
Mode: 0
LetterboxInBreaks: 0
WidescreenStoryboard: 0

[Editor]
Bookmarks: 75614
DistanceSpacing: 1
BeatDivisor: 4
GridSize: 8
TimelineZoom: 2.1

[Metadata]
Title:BANANA STREET
TitleUnicode:BANANA STREET
Artist:dark cat
ArtistUnicode:dark cat
Creator:Ora
Version:Lilyanna's Normal
Source:
Tags:-vanilla lilyanna firetruck catstep future drum and bass featured artist
BeatmapID:1200758
BeatmapSetID:560047

[Difficulty]
HPDrainRate:4
CircleSize:4
OverallDifficulty:5
ApproachRate:6
SliderMultiplier:1.5
SliderTickRate:1

[Events]
//Background and Video events
0,0,"swo12bR.jpg",0,0
//Break Periods
2,51658,56492
//Storyboard Layer 0 (Background)
//Storyboard Layer 1 (Fail)
//Storyboard Layer 2 (Pass)
//Storyboard Layer 3 (Foreground)
//Storyboard Sound Samples

[TimingPoints]
30,389.61038961039,4,2,3,30,1,0
12497,-100,4,2,3,30,0,0
12887,-100,4,2,1,30,0,0
18731,-100,4,2,3,30,0,0
19120,-100,4,2,1,30,0,0
26523,-100,4,2,3,70,0,1
38211,-100,4,2,3,70,0,0
38991,-100,4,2,3,70,0,1
51458,-100,4,2,3,60,0,0
58081,-100,4,2,1,60,0,0
63536,-100,4,2,3,60,0,0
64315,-100,4,2,1,60,0,0
70159,-100,4,2,3,60,0,0
70549,-100,4,2,1,60,0,0
73276,-100,4,2,1,65,0,0
74055,-100,4,2,1,70,0,0
74835,-100,4,2,1,75,0,0
75614,-100,4,2,1,35,0,0

[Colours]
Combo1 : 32,223,95
Combo2 : 30,172,169
Combo3 : 223,187,102

[HitObjects]
49,217,12497,6,0,P|29:281|57:361,1,150,6|2,0:0|0:0,0:0:0:0:
204,358,13276,2,0,P|229:288|209:217,1,150,2|2,0:0|0:0,0:0:0:0:
158,161,13861,1,2,0:0:0:0:
82,31,14250,6,0,P|42:38|3:28,1,75,2|2,0:0|0:0,0:0:0:0:
159,30,14835,2,0,P|201:24|238:33,1,75,2|2,0:0|0:0,0:0:0:0:
265,98,15224,2,0,P|304:104|339:96,1,75,0|2,0:0|0:0,0:0:0:0:
407,128,15614,6,0,B|398:246|398:246|433:206,1,150,2|2,0:0|0:0,0:0:0:0:
292,304,16393,2,0,B|301:186|301:186|266:226,1,150,2|2,0:0|0:0,0:0:0:0:
217,252,16978,1,2,0:0:0:0:
68,235,17367,5,2,0:0:0:0:
16,94,17757,1,2,0:0:0:0:
78,52,17952,2,0,P|152:40|250:68,1,150,0|2,0:0|0:0,0:0:0:0:
335,157,18731,5,6,0:0:0:0:
342,312,19120,2,0,P|288:315|267:311,2,75,2|0|10,0:0|0:0|0:0,0:0:0:0:
331,237,19705,2,0,P|385:234|406:238,1,75,0|2,0:0|0:0,0:0:0:0:
463,190,20094,6,0,P|481:109|443:45,1,150,2|2,0:0|0:0,0:0:0:0:
376,62,20679,2,0,P|322:65|301:61,1,75,2|0,0:0|0:0,0:0:0:0:
231,33,21068,2,0,P|177:30|156:34,2,75,10|2|0,0:0|0:0|0:0,0:0:0:0:
243,107,21653,1,2,0:0:0:0:
175,139,21848,6,0,P|157:220|221:271,1,150,2|2,0:0|0:0,0:0:0:0:
227,195,22432,1,0,0:0:0:0:
279,249,22627,2,0,P|306:242|376:255,2,75,10|0|2,0:0|0:0|0:0,0:0:0:0:
261,321,23211,6,0,P|185:342|117:297,2,150,2|2|2,0:0|0:0|0:0,0:0:0:0:
335,325,24185,2,0,L|421:335,1,75,8|0,0:0|0:0,0:0:0:0:
401,258,24575,2,0,L|487:268,1,75,8|0,0:0|0:0,0:0:0:0:
487,192,24965,5,2,0:0:0:0:
277,51,26523,6,0,B|351:37|351:37|442:60,1,150,6|0,0:0|0:0,0:0:0:0:
460,120,27107,1,2,0:0:0:0:
418,182,27302,2,0,B|344:196|344:196|253:173,1,150,8|0,0:0|0:0,0:0:0:0:
221,120,27887,1,2,0:0:0:0:
171,175,28081,6,0,P|179:208|159:273,1,75,0|2,0:0|0:0,0:0:0:0:
107,286,28471,1,2,0:0:0:0:
247,342,28861,2,0,P|280:350|345:330,1,75,8|2,0:0|0:0,0:0:0:0:
290,274,29251,2,0,P|323:266|386:290,1,75,0|0,0:0|0:0,0:0:0:0:
425,315,29640,6,0,B|449:243|409:243|425:163,1,150,2|0,0:0|0:0,0:0:0:0:
393,98,30224,1,2,0:0:0:0:
317,96,30419,2,0,P|247:107|153:88,1,150,8|2,0:0|0:0,0:0:0:0:
149,21,31004,6,0,P|100:63|114:150,1,150,2|2,0:0|0:0,0:0:0:0:
173,179,31588,1,2,0:0:0:0:
322,188,31978,2,0,L|332:274,1,75,8|2,0:0|0:0,0:0:0:0:
405,271,32368,2,0,L|415:357,1,75,0|0,0:0|0:0,0:0:0:0:
338,351,32757,6,0,P|260:329|188:354,1,150,2|0,0:0|0:0,0:0:0:0:
122,364,33341,1,2,0:0:0:0:
109,290,33536,2,0,P|131:212|106:140,1,150,8|0,0:0|0:0,0:0:0:0:
61,92,34120,1,2,0:0:0:0:
129,62,34315,6,0,L|226:76,1,75,0|2,0:0|0:0,0:0:0:0:
276,92,34705,1,2,0:0:0:0:
278,247,35094,2,0,L|181:261,1,75,8|2,0:0|0:0,0:0:0:0:
191,331,35484,2,0,L|94:345,1,75,0|0,0:0|0:0,0:0:0:0:
41,348,35874,6,0,B|16:175,1,150,2|0,0:0|0:0,0:0:0:0:
3,126,36458,1,2,0:0:0:0:
77,118,36653,2,0,P|135:138|230:119,1,150,8|2,0:0|0:0,0:0:0:0:
279,77,37237,1,2,0:0:0:0:
336,125,37432,6,0,L|350:222,1,75,0|2,0:0|0:0,0:0:0:0:
327,272,37822,2,0,L|341:369,2,75,2|0|8,0:0|0:0|0:0,0:0:0:0:
47,161,38991,6,0,P|19:226|80:293,1,150,6|0,0:0|0:0,0:0:0:0:
94,219,39575,1,2,0:0:0:0:
140,277,39770,2,0,P|168:212|107:145,1,150,8|0,0:0|0:0,0:0:0:0:
117,77,40354,6,0,B|198:54|198:94|278:78,1,150,2|2,0:0|0:0,0:0:0:0:
330,121,40939,2,0,P|319:188|330:217,1,75,2|0,0:0|0:0,0:0:0:0:
391,168,41328,2,0,P|403:100|336:44,1,150,8|0,0:0|0:0,0:0:0:0:
199,54,42107,6,0,B|131:67|131:27|50:50,1,150,2|0,0:0|0:0,0:0:0:0:
83,119,42692,1,2,0:0:0:0:
141,169,42887,2,0,P|157:264|134:327,1,150,8|2,0:0|0:0,0:0:0:0:
206,350,43471,6,0,P|301:334|364:357,1,150,2|2,0:0|0:0,0:0:0:0:
423,332,44055,2,0,L|434:253,1,75,2|0,0:0|0:0,0:0:0:0:
358,248,44445,2,0,L|369:169,1,75,8|2,0:0|0:0,0:0:0:0:
385,100,44835,1,0,0:0:0:0:
247,39,45224,6,0,P|175:54|97:32,1,150,6|0,0:0|0:0,0:0:0:0:
27,29,45809,1,2,0:0:0:0:
56,98,46004,2,0,P|71:170|49:248,1,150,8|0,0:0|0:0,0:0:0:0:
108,297,46588,6,0,P|180:282|258:304,1,150,2|2,0:0|0:0,0:0:0:0:
310,348,47172,2,0,P|284:295|313:202,1,150,2|8,0:0|0:0,0:0:0:0:
359,156,47757,2,0,L|353:68,1,75,2|0,0:0|0:0,0:0:0:0:
222,154,48341,6,0,P|146:172|61:146,1,150,2|0,0:0|0:0,0:0:0:0:
28,97,48926,1,2,0:0:0:0:
76,40,49120,2,0,P|152:22|236:51,1,150,8|2,0:0|0:0,0:0:0:0:
272,95,49705,1,2,0:0:0:0:
337,131,49900,6,0,P|389:134|440:121,2,75,0|2|2,0:0|0:0|0:0,0:0:0:0:
272,95,50484,1,0,0:0:0:0:
222,154,50679,1,8,0:0:0:0:
321,266,51068,1,0,0:0:0:0:
186,331,51458,5,6,0:0:0:0:
118,111,57692,5,6,0:0:0:0:
111,260,58081,2,0,P|57:263|36:259,2,75,2|0|2,0:0|0:0|0:0,0:0:0:0:
182,237,58666,2,0,P|236:234|257:238,1,75,0|2,0:0|0:0,0:0:0:0:
299,176,59055,6,0,P|331:236|291:307,1,150,2|2,0:0|0:0,0:0:0:0:
229,339,59640,1,2,0:0:0:0:
79,325,60029,2,0,P|25:322|4:326,2,75,2|2|0,0:0|0:0|0:0,0:0:0:0:
154,317,60614,1,2,0:0:0:0:
130,245,60809,6,0,P|90:171|141:104,1,150,2|2,0:0|0:0,0:0:0:0:
164,178,61393,1,0,0:0:0:0:
223,132,61588,2,0,P|250:139|320:126,2,75,2|0|2,0:0|0:0|0:0,0:0:0:0:
179,70,62172,6,0,P|125:40|42:91,2,150,2|2|2,0:0|0:0|0:0,0:0:0:0:
223,132,63146,2,0,P|250:139|320:126,1,75
316,62,63536,2,0,P|353:57|389:65,1,75,2|0,0:0|0:0,0:0:0:0:
459,102,63926,6,0,P|480:172|456:242,1,150,6|2,0:0|0:0,0:0:0:0:
339,337,64705,2,0,P|268:315|198:339,1,150,10|2,0:0|0:0,0:0:0:0:
126,357,65289,6,0,L|48:367,2,75,2|2|2,0:0|0:0|0:0,0:0:0:0:
147,284,65874,1,2,0:0:0:0:
8,227,66263,2,0,L|82:217,1,75,10|2,0:0|0:0,0:0:0:0:
93,142,66653,2,0,L|18:151,1,75,2|2,0:0|0:0,0:0:0:0:
27,75,67042,6,0,L|194:54,1,150,2|2,0:0|0:0,0:0:0:0:
323,54,67822,2,0,L|349:224,1,150,10|2,0:0|0:0,0:0:0:0:
273,225,68406,6,0,L|259:144,2,75,2|2|2,0:0|0:0|0:0,0:0:0:0:
287,299,68991,1,2,0:0:0:0:
140,265,69380,2,0,B|112:293|110:350|110:350|80:323|42:322,1,150,10|2,0:0|0:0,0:0:0:0:
36,176,70159,6,0,P|121:136|148:70,1,150,6|2,0:0|0:0,0:0:0:0:
295,92,70939,2,0,P|334:154|404:178,1,150,10|2,0:0|0:0,0:0:0:0:
435,246,71523,6,0,L|445:324,2,75,2|2|2,0:0|0:0|0:0,0:0:0:0:
477,183,72107,1,2,0:0:0:0:
330,148,72497,2,0,L|320:74,1,75,8|0,0:0|0:0,0:0:0:0:
245,84,72887,2,0,L|254:159,1,75,0|0,0:0|0:0,0:0:0:0:
256,192,73276,12,8,75614,0:0:0:0:
