osu file format v14

[General]
AudioFilename: banana.mp3
AudioLeadIn: 0
PreviewTime: 26523
Countdown: 0
SampleSet: Soft
StackLeniency: 0.7
Mode: 0
LetterboxInBreaks: 0
WidescreenStoryboard: 0

[Editor]
DistanceSpacing: 2
BeatDivisor: 4
GridSize: 4
TimelineZoom: 2

[Metadata]
Title:BANANA STREET
TitleUnicode:BANANA STREET
Artist:dark cat
ArtistUnicode:dark cat
Creator:Ora
Version:Insane
Source:
Tags:-vanilla lilyanna firetruck catstep future drum and bass featured artist
BeatmapID:1184359
BeatmapSetID:560047

[Difficulty]
HPDrainRate:5.5
CircleSize:4
OverallDifficulty:8
ApproachRate:9
SliderMultiplier:1.7
SliderTickRate:1

[Events]
//Background and Video events
0,0,"swo12bR.jpg",0,0
//Break Periods
//Storyboard Layer 0 (Background)
//Storyboard Layer 1 (Fail)
//Storyboard Layer 2 (Pass)
//Storyboard Layer 3 (Foreground)
//Storyboard Sound Samples

[TimingPoints]
30,389.61038961039,4,2,1,30,1,0
10939,-133.333333333333,4,2,1,40,0,0
11328,-133.333333333333,4,2,1,45,0,0
11718,-133.333333333333,4,2,1,50,0,0
12107,-133.333333333333,4,2,1,5,0,0
12497,-133.333333333333,4,2,3,60,0,0
12887,-133.333333333333,4,2,1,60,0,0
14835,-100,4,2,1,65,0,0
15614,-133.333333333333,4,2,1,60,0,0
17952,-125,4,2,1,65,0,0
18731,-100,4,2,1,70,0,0
20094,-117.647058823529,4,2,1,70,0,0
20484,-100,4,2,1,70,0,0
21848,-117.647058823529,4,2,1,70,0,0
22237,-100,4,2,1,70,0,0
24575,-100,4,2,1,35,0,0
24965,-100,4,2,1,50,0,0
25549,-100,4,2,1,40,0,0
26133,-100,4,2,1,65,0,0
26523,-90.9090909090909,4,2,3,70,0,1
38211,-90.9090909090909,4,2,3,70,0,0
38991,-90.9090909090909,4,2,3,70,0,1
51458,-133.333333333333,4,2,3,60,0,0
51848,-133.333333333333,4,2,1,60,0,0
56523,-133.333333333333,4,2,1,65,0,0
56913,-125,4,2,1,65,0,0
57692,-100,4,2,3,70,0,0
58081,-100,4,2,1,60,0,0
59055,-117.647058823529,4,2,1,70,0,0
59445,-100,4,2,1,70,0,0
60809,-117.647058823529,4,2,1,70,0,0
61198,-100,4,2,1,70,0,0
63146,-100,4,2,1,65,0,0
63536,-100,4,2,3,65,0,0
64315,-100,4,2,1,65,0,0
72497,-100,4,2,2,60,0,0
73276,-100,4,2,2,65,0,0
74055,-100,4,2,2,70,0,0
74835,-100,4,2,2,75,0,0
75614,-142.857142857143,4,2,1,35,0,0
75809,-142.857142857143,4,2,1,25,0,0
76004,-142.857142857143,4,2,1,15,0,0
76198,-142.857142857143,4,2,1,5,0,0

[Colours]
Combo1 : 32,223,95
Combo2 : 30,172,169
Combo3 : 223,187,102

[HitObjects]
256,192,10939,12,0,12107,0:0:0:0:
256,192,12497,5,6,0:0:0:0:
291,205,12887,1,2,0:0:0:0:
320,229,13276,1,2,0:0:0:0:
340,262,13666,1,2,0:0:0:0:
340,262,13861,2,0,P|324:207|338:104,1,127.500004863739,2|2,0:0|0:0,0:0:0:0:
337,105,14445,1,2,0:0:0:0:
337,105,14835,1,2,0:0:0:0:
399,164,15030,1,2,0:0:0:0:
481,143,15224,1,0,0:0:0:0:
503,60,15419,1,2,0:0:0:0:
443,0,15614,5,2,0:0:0:0:
407,13,16004,1,2,0:0:0:0:
378,37,16393,1,2,0:0:0:0:
358,70,16783,1,2,0:0:0:0:
358,70,16978,2,0,P|307:86|234:84,1,127.500004863739,2|2,0:0|0:0,0:0:0:0:
65,48,17757,1,2,0:0:0:0:
65,48,17952,2,0,P|83:100|82:188,1,136,0|2,0:0|0:0,0:0:0:0:
83,180,18731,5,6,0:0:0:0:
361,242,19120,2,0,P|331:211|286:195,1,85,2|0,0:0|0:0,0:0:0:0:
207,184,19510,1,10,0:0:0:0:
145,242,19705,1,0,0:0:0:0:
169,323,19900,1,2,0:0:0:0:
207,184,20094,6,0,P|213:140|147:62,1,144.500002756119,2|2,0:0|0:0,0:0:0:0:
207,184,20679,2,0,P|254:174|351:173,1,85,2|0,0:0|0:0,0:0:0:0:
375,181,21068,1,10,0:0:0:0:
323,248,21263,1,2,0:0:0:0:
290,170,21458,1,0,0:0:0:0:
342,101,21653,1,2,0:0:0:0:
323,248,21848,6,0,P|274:277|189:255,1,144.500002756119,2|2,0:0|0:0,0:0:0:0:
142,188,22432,1,0,0:0:0:0:
188,116,22627,2,0,P|182:73|171:32,2,85,10|0|2,0:0|0:0|0:0,0:0:0:0:
95,258,23211,6,0,P|189:243|240:298,1,170,2|2,0:0|0:0,0:0:0:0:
237,290,23991,1,2,0:0:0:0:
402,325,24185,2,0,P|438:294|451:251,1,85,8|0,0:0|0:0,0:0:0:0:
327,223,24575,2,0,P|291:192|278:149,1,85,8|0,0:0|0:0,0:0:0:0:
401,120,24965,5,2,0:0:0:0:
423,109,25549,1,2,0:0:0:0:
445,98,26133,1,0,3:3:0:0:
480,264,26328,1,0,3:3:0:0:
322,131,26523,6,0,P|314:81|327:36,1,93.5000028533936,6|0,0:0|0:0,0:0:0:0:
436,185,26913,1,0,0:0:0:0:
399,329,27107,1,2,0:0:0:0:
268,209,27302,2,0,B|221:189|175:211|175:211|133:228|81:209,1,187.000005706787,8|0,0:0|0:0,0:0:0:0:
19,71,27887,6,0,P|79:45|126:145,1,187.000005706787,2|2,0:0|0:0,0:0:0:0:
68,289,28471,1,2,0:0:0:0:
240,208,28666,1,0,0:0:0:0:
46,208,28860,1,8,0:0:0:0:
288,276,29055,1,2,0:0:0:0:
127,230,29250,1,0,0:0:0:0:
323,200,29444,1,0,0:0:0:0:
198,362,29640,6,0,P|192:295|194:263,1,93.5000028533936,2|0,0:0|0:0,0:0:0:0:
281,82,30030,1,0,0:0:0:0:
250,218,30224,1,2,0:0:0:0:
68,128,30419,2,0,P|143:95|166:176,1,187.000005706787,8|2,0:0|0:0,0:0:0:0:
303,298,31004,6,0,P|415:270|443:192,1,187.000005706787,2|2,0:0|0:0,0:0:0:0:
290,59,31588,1,2,0:0:0:0:
339,199,31783,1,0,0:0:0:0:
202,106,31978,1,8,0:0:0:0:
314,202,32173,1,2,0:0:0:0:
142,178,32367,1,0,0:0:0:0:
286,205,32562,1,0,0:0:0:0:
108,264,32757,6,0,P|62:222|53:153,1,93.5000028533936,2|0,0:0|0:0,0:0:0:0:
181,33,33146,1,0,0:0:0:0:
142,178,33341,1,2,0:0:0:0:
288,92,33536,2,0,B|356:63|437:75|437:75|407:104,1,187.000005706787,8|0,0:0|0:0,0:0:0:0:
336,272,34120,6,0,P|395:322|416:232,1,187.000005706787,2|2,0:0|0:0,0:0:0:0:
223,177,34705,1,2,0:0:0:0:
246,296,34900,1,0,0:0:0:0:
83,141,35094,1,8,0:0:0:0:
106,260,35289,1,2,0:0:0:0:
200,58,35484,1,0,0:0:0:0:
223,177,35679,1,0,0:0:0:0:
343,59,35874,6,0,P|424:68|491:126,1,93.5000028533936,2|0,0:0|0:0,0:0:0:0:
508,202,36263,1,0,0:0:0:0:
433,72,36458,1,2,0:0:0:0:
451,266,36653,2,0,P|381:240|302:312,1,187.000005706787,8|2,0:0|0:0,0:0:0:0:
389,331,37237,1,2,0:0:0:0:
449,146,37432,6,0,P|457:102|463:47,1,93.5000028533936,0|2,0:0|0:0,0:0:0:0:
325,25,37822,2,0,P|315:67|309:122,1,93.5000028533936,2|0,0:0|0:0,0:0:0:0:
309,143,38114,2,0,L|312:176,2,23.3750007133484,0|0|8,0:0|0:0|0:0,0:0:0:0:
318,195,38991,6,0,P|276:186|221:187,1,93.5000028533936,6|0,0:0|0:0,0:0:0:0:
47,244,39380,1,0,0:0:0:0:
168,314,39575,1,2,0:0:0:0:
131,130,39770,1,8,0:0:0:0:
262,263,39965,2,0,P|260:312|250:371,1,93.5000028533936
200,195,40354,6,0,P|258:171|352:249,1,187.000005706787,2|2,0:0|0:0,0:0:0:0:
225,63,40939,1,2,0:0:0:0:
262,263,41133,1,0,0:0:0:0:
343,73,41328,1,8,0:0:0:0:
240,182,41523,1,2,0:0:0:0:
410,130,41718,1,0,0:0:0:0:
206,73,41913,1,0,0:0:0:0:
354,206,42107,6,0,P|394:223|447:218,1,93.5000028533936,2|0,0:0|0:0,0:0:0:0:
466,54,42497,2,0,P|426:37|373:42,1,93.5000028533936,0|2,0:0|0:0,0:0:0:0:
510,148,42887,1,8,0:0:0:0:
510,148,43276,1,2,0:0:0:0:
361,277,43471,6,0,P|307:244|205:313,1,187.000005706787,2|2,0:0|0:0,0:0:0:0:
30,235,44055,1,2,0:0:0:0:
95,358,44250,1,0,0:0:0:0:
211,144,44445,1,8,0:0:0:0:
209,300,44640,1,2,0:0:0:0:
109,145,44835,1,0,0:0:0:0:
293,98,45030,1,0,0:0:0:0:
146,239,45224,6,0,P|90:236|52:228,1,93.5000028533936,6|0,0:0|0:0,0:0:0:0:
264,183,45614,2,0,P|309:174|356:172,1,93.5000028533936,0|2,0:0|0:0,0:0:0:0:
146,239,46004,1,8,0:0:0:0:
146,239,46198,2,0,B|132:176|132:176|138:117|138:117|122:51,1,187.000005706787,0|2,0:0|0:0,0:0:0:0:
250,206,46783,5,0,0:0:0:0:
45,138,46978,1,2,0:0:0:0:
195,28,47172,1,2,0:0:0:0:
146,239,47367,1,0,0:0:0:0:
93,10,47562,1,8,0:0:0:0:
147,118,47757,1,2,0:0:0:0:
267,137,47952,1,0,0:0:0:0:
341,41,48146,1,0,0:0:0:0:
445,238,48341,5,2,0:0:0:0:
324,243,48535,1,0,0:0:0:0:
267,137,48731,1,0,0:0:0:0:
341,41,48926,1,2,0:0:0:0:
324,243,49120,2,0,P|231:251|159:183,1,187.000005706787,8|2,0:0|0:0,0:0:0:0:
118,24,49705,1,2,0:0:0:0:
267,137,49900,5,0,0:0:0:0:
52,108,50094,1,2,0:0:0:0:
224,36,50289,1,2,0:0:0:0:
92,208,50484,1,0,0:0:0:0:
118,24,50679,2,0,P|147:61|159:118,1,93.5000028533936,8|0,0:0|0:0,0:0:0:0:
134,289,51068,2,0,P|104:251|92:194,1,93.5000028533936
224,36,51458,5,6,0:0:0:0:
261,38,51848,1,2,0:0:0:0:
296,53,52237,1,2,0:0:0:0:
324,78,52627,1,2,0:0:0:0:
324,78,52822,2,0,P|322:150|314:212,1,127.500004863739,2|2,0:0|0:0,0:0:0:0:
305,242,53406,1,2,0:0:0:0:
56,101,53796,1,2,0:0:0:0:
23,224,53991,1,2,0:0:0:0:
23,224,54380,1,2,0:0:0:0:
158,233,54575,5,2,0:0:0:0:
194,227,54965,1,2,0:0:0:0:
227,208,55354,1,2,0:0:0:0:
252,179,55744,1,2,0:0:0:0:
252,179,55939,2,0,P|200:181|117:165,1,127.500004863739,2|2,0:0|0:0,0:0:0:0:
267,89,56523,1,0,0:0:0:0:
332,139,56718,1,2,0:0:0:0:
337,220,56913,2,0,P|333:289|314:370,1,136,0|2,0:0|0:0,0:0:0:0:
318,354,57692,5,6,0:0:0:0:
76,292,58081,2,0,P|117:291|162:270,1,85,2|0,0:0|0:0,0:0:0:0:
202,202,58471,1,2,0:0:0:0:
183,120,58666,1,0,0:0:0:0:
101,100,58861,1,2,0:0:0:0:
202,202,59055,6,0,P|249:170|255:76,1,144.500002756119,2|2,0:0|0:0,0:0:0:0:
202,202,59640,2,0,P|206:253|217:298,1,85,2|0,0:0|0:0,0:0:0:0:
236,368,60030,1,2,0:0:0:0:
295,307,60224,1,2,0:0:0:0:
213,285,60419,1,0,0:0:0:0:
153,346,60614,1,2,0:0:0:0:
295,307,60809,6,0,P|366:309|441:341,1,144.500002756119,2|2,0:0|0:0,0:0:0:0:
504,288,61393,1,0,0:0:0:0:
499,203,61588,2,0,P|506:160|508:104,2,85,2|0|2,0:0|0:0|0:0,0:0:0:0:
371,214,62172,6,0,P|315:202|291:90,1,170,2|2,0:0|0:0,0:0:0:0:
405,23,62757,1,0,0:0:0:0:
360,133,62952,1,2,0:0:0:0:
201,122,63146,2,0,P|250:109|303:103,1,85
137,211,63536,2,0,P|186:224|239:230,1,85,2|0,0:0|0:0,0:0:0:0:
106,116,63926,5,6,0:0:0:0:
392,178,64315,1,2,0:0:0:0:
134,344,64705,2,0,P|189:308|310:321,1,170,10|2,0:0|0:0,0:0:0:0:
386,365,65289,1,2,0:0:0:0:
458,281,65484,1,2,0:0:0:0:
290,310,65679,1,2,0:0:0:0:
453,255,65874,1,2,0:0:0:0:
285,284,66069,1,2,0:0:0:0:
423,160,66263,5,10,0:0:0:0:
376,287,66458,1,2,0:0:0:0:
288,182,66653,1,2,0:0:0:0:
423,160,66848,1,2,0:0:0:0:
221,242,67042,6,0,B|181:260|139:242|139:242|97:226|52:241,2,170,2|2|10,0:0|0:0|0:0,0:0:0:0:
300,164,68017,1,0,0:0:0:0:
277,56,68211,2,0,P|234:42|189:39,1,85,2|2,0:0|0:0,0:0:0:0:
59,63,68601,1,2,0:0:0:0:
88,231,68796,1,2,0:0:0:0:
33,68,68991,1,2,0:0:0:0:
62,236,69186,1,2,0:0:0:0:
218,171,69380,5,10,0:0:0:0:
74,157,69575,1,2,0:0:0:0:
135,291,69770,1,2,0:0:0:0:
218,171,69965,1,2,0:0:0:0:
63,315,70159,6,0,P|109:363|202:329,2,170,6|2|10,0:0|0:0|0:0,0:0:0:0:
49,205,71133,1,0,0:0:0:0:
99,106,71328,2,0,P|146:97|188:94,1,85,2|2,0:0|0:0,0:0:0:0:
351,99,71718,1,2,0:0:0:0:
316,254,71913,1,2,0:0:0:0:
270,108,72107,1,2,0:0:0:0:
425,143,72302,1,2,0:0:0:0:
316,254,72497,5,8,0:0:0:0:
231,237,72692,1,0,0:0:0:0:
157,273,72887,1,0,0:0:0:0:
124,348,73081,1,0,0:0:0:0:
231,237,73276,5,0,0:0:0:0:
257,138,73471,1,0,0:0:0:0:
196,55,73666,1,0,0:0:0:0:
94,57,73861,1,0,0:0:0:0:
257,138,74056,5,8,0:0:0:0:
49,149,74251,1,0,0:0:0:0:
231,237,74446,1,0,0:0:0:0:
94,57,74640,1,0,0:0:0:0:
330,209,74835,5,0,0:0:0:0:
122,228,75030,1,0,0:0:0:0:
355,114,75225,1,0,0:0:0:0:
210,256,75419,1,0,0:0:0:0:
61,60,75614,6,0,P|156:73|80:128,1,237.999992736817,8|0,0:0|0:0,0:0:0:0:
