osu file format v14

[General]
AudioFilename: banana.mp3
AudioLeadIn: 0
PreviewTime: 26523
Countdown: 0
SampleSet: Soft
StackLeniency: 0.7
Mode: 0
LetterboxInBreaks: 0
WidescreenStoryboard: 1

[Editor]
DistanceSpacing: 1.3
BeatDivisor: 4
GridSize: 4
TimelineZoom: 2.1

[Metadata]
Title:BANANA STREET
TitleUnicode:BANANA STREET
Artist:dark cat
ArtistUnicode:dark cat
Creator:Ora
Version:Hard
Source:
Tags:-vanilla lilyanna firetruck catstep future drum and bass featured artist
BeatmapID:1185267
BeatmapSetID:560047

[Difficulty]
HPDrainRate:5.5
CircleSize:3.8
OverallDifficulty:7.5
ApproachRate:8
SliderMultiplier:1.6
SliderTickRate:1

[Events]
//Background and Video events
0,0,"swo12bR.jpg",0,0
//Break Periods
//Storyboard Layer 0 (Background)
//Storyboard Layer 1 (Fail)
//Storyboard Layer 2 (Pass)
//Storyboard Layer 3 (Foreground)
//Storyboard Sound Samples

[TimingPoints]
30,389.61038961039,4,2,1,30,1,0
10939,-133.333333333333,4,2,1,40,0,0
11328,-133.333333333333,4,2,1,45,0,0
11718,-133.333333333333,4,2,1,50,0,0
12107,-133.333333333333,4,2,1,55,0,0
12497,-133.333333333333,4,2,3,60,0,0
12887,-133.333333333333,4,2,1,60,0,0
14835,-100,4,2,1,65,0,0
15614,-133.333333333333,4,2,1,60,0,0
17952,-125,4,2,1,65,0,0
18731,-100,4,2,1,70,0,0
20094,-117.647058823529,4,2,1,70,0,0
20484,-100,4,2,1,70,0,0
21848,-117.647058823529,4,2,1,70,0,0
22237,-100,4,2,1,70,0,0
24575,-100,4,2,1,35,0,0
24965,-111.111111111111,4,2,1,50,0,0
25549,-100,4,2,1,40,0,0
26133,-100,4,2,1,65,0,0
26523,-90.9090909090909,4,2,3,70,0,1
38211,-125,4,2,3,70,0,0
38893,-125,4,2,3,5,0,0
38991,-90.9090909090909,4,2,3,70,0,1
51458,-133.333333333333,4,2,3,60,0,0
51848,-133.333333333333,4,2,1,60,0,0
56523,-133.333333333333,4,2,1,65,0,0
56913,-125,4,2,1,65,0,0
57692,-100,4,2,3,70,0,0
58081,-100,4,2,1,70,0,0
59055,-117.647058823529,4,2,1,70,0,0
59445,-100,4,2,1,70,0,0
60809,-117.647058823529,4,2,1,70,0,0
61198,-100,4,2,1,70,0,0
63146,-100,4,2,1,65,0,0
63536,-100,4,2,3,65,0,0
63926,-100,4,2,3,70,0,0
64315,-100,4,2,1,70,0,0
70159,-100,4,2,3,70,0,0
70549,-100,4,2,1,70,0,0
72497,-100,4,2,2,60,0,0
73276,-100,4,2,2,65,0,0
74055,-100,4,2,2,70,0,0
74835,-100,4,2,2,75,0,0
75614,-142.857142857143,4,2,1,35,0,0
75809,-142.857142857143,4,2,1,25,0,0
76004,-142.857142857143,4,2,1,15,0,0
76198,-142.857142857143,4,2,1,5,0,0

[Colours]
Combo1 : 32,223,95
Combo2 : 30,172,169
Combo3 : 223,187,102

[HitObjects]
256,192,10939,12,0,12107,0:0:0:0:
320,183,12497,5,6,0:0:0:0:
348,191,12887,1,2,0:0:0:0:
377,199,13276,1,2,0:0:0:0:
406,207,13666,1,2,0:0:0:0:
406,207,13861,2,0,P|348:221|285:222,1,120.000004577637,2|2,0:0|0:0,0:0:0:0:
212,209,14445,1,2,0:0:0:0:
25,117,14835,2,0,L|31:203,1,80,2|2,0:0|0:0,0:0:0:0:
106,267,15224,2,0,L|111:187,1,80,0|2,0:0|0:0,0:0:0:0:
123,97,15614,5,2,0:0:0:0:
151,92,16004,1,2,0:0:0:0:
181,85,16393,1,2,0:0:0:0:
211,81,16783,1,2,0:0:0:0:
211,81,16978,2,0,B|275:65|343:92,1,120.000004577637,2|2,0:0|0:0,0:0:0:0:
436,204,17757,1,2,0:0:0:0:
436,204,17952,2,0,P|408:244|384:267,1,64,0|0,0:0|0:0,0:0:0:0:
321,244,18341,2,0,P|309:213|303:182,1,64,2|0,0:0|0:0,0:0:0:0:
361,98,18731,5,6,0:0:0:0:
361,98,19120,2,0,P|401:90|447:85,2,80,2|0|10,0:0|0:0|0:0,0:0:0:0:
266,115,19705,2,0,P|226:115|179:110,1,80,0|2,0:0|0:0,0:0:0:0:
125,56,20094,6,0,P|151:113|141:212,1,136.000002593994,2|2,0:0|0:0,0:0:0:0:
117,276,20679,1,2,0:0:0:0:
53,204,20874,1,0,0:0:0:0:
150,185,21068,2,0,P|191:217|207:252,1,80,10|2,0:0|0:0,0:0:0:0:
232,333,21458,2,0,P|252:299|285:276,1,80,0|2,0:0|0:0,0:0:0:0:
362,250,21848,5,2,0:0:0:0:
362,250,22237,1,2,0:0:0:0:
413,169,22432,1,0,0:0:0:0:
438,79,22627,2,0,P|421:40|414:4,2,80,10|0|2,0:0|0:0|0:0,0:0:0:0:
492,159,23211,6,0,P|452:170|407:169,1,80,2|0,0:0|0:0,0:0:0:0:
351,96,23601,2,0,P|311:85|266:86,1,80,2|0,0:0|0:0,0:0:0:0:
178,108,23991,1,2,0:0:0:0:
121,185,24185,1,8,0:0:0:0:
281,182,24575,1,8,0:0:0:0:
415,234,24965,6,0,B|393:283|405:340|405:340|349:318|290:327,2,215.999993408203,2|2|0,0:0|0:0|3:3,0:0:0:0:
465,152,26328,1,0,3:3:0:0:
343,173,26523,6,0,B|298:180|255:159|255:159|216:137|164:148,1,176.000005371094,6|0,0:0|0:0,0:0:0:0:
68,162,27107,1,2,0:0:0:0:
88,49,27302,2,0,P|137:53|178:48,1,88.000002685547,8|0,0:0|0:0,0:0:0:0:
286,21,27692,1,0,0:0:0:0:
326,118,27887,6,0,P|400:114|376:27,1,176.000005371094,2|2,0:0|0:0,0:0:0:0:
326,118,28471,2,0,P|329:180|337:207,1,88.000002685547,2|0,0:0|0:0,0:0:0:0:
396,291,28861,1,8,0:0:0:0:
483,205,29055,1,2,0:0:0:0:
380,274,29250,1,0,0:0:0:0:
467,188,29444,1,0,0:0:0:0:
361,252,29640,6,0,B|308:267|271:252|271:252|231:233|186:246,1,176.000005371094,2|0,0:0|0:0,0:0:0:0:
96,296,30224,1,2,0:0:0:0:
24,195,30419,2,0,P|9:153|11:110,1,88.000002685547,8|0,0:0|0:0,0:0:0:0:
105,62,30809,1,2,0:0:0:0:
200,108,31004,6,0,P|288:115|376:70,1,176.000005371094,2|2,0:0|0:0,0:0:0:0:
457,26,31588,2,0,P|450:74|456:125,1,88.000002685547,2|0,0:0|0:0,0:0:0:0:
475,225,31978,1,8,0:0:0:0:
357,188,32172,1,2,0:0:0:0:
464,250,32367,1,0,0:0:0:0:
347,209,32562,1,0,0:0:0:0:
453,275,32757,6,0,B|422:297|370:288|370:288|369:342|332:373,1,176.000005371094,2|0,0:0|0:0,0:0:0:0:
265,291,33341,1,2,0:0:0:0:
251,169,33536,2,0,P|255:124|265:75,1,88.000002685547,8|0,0:0|0:0,0:0:0:0:
167,36,33926,1,0,0:0:0:0:
67,69,34120,6,0,B|76:99|77:134|77:134|66:172|66:172|67:207|74:242,1,176.000005371094,2|2,0:0|0:0,0:0:0:0:
84,347,34705,2,0,P|131:330|163:299,1,88.000002685547,2|0,0:0|0:0,0:0:0:0:
204,209,35094,1,8,0:0:0:0:
299,163,35289,1,2,0:0:0:0:
386,222,35484,1,0,0:0:0:0:
364,325,35679,1,0,0:0:0:0:
263,358,35874,6,0,P|332:288|263:233,1,176.000005371094,2|0,0:0|0:0,0:0:0:0:
204,209,36458,1,2,0:0:0:0:
98,217,36653,2,0,P|131:132|208:102,1,176.000005371094,8|2,0:0|0:0,0:0:0:0:
307,130,37237,1,2,0:0:0:0:
401,178,37432,6,0,P|451:181|494:175,1,88.000002685547,0|2,0:0|0:0,0:0:0:0:
483,70,37822,2,0,P|433:67|390:73,1,88.000002685547,2|0,0:0|0:0,0:0:0:0:
307,130,38211,6,0,P|292:232|396:300,1,224,8|0,0:0|0:0,0:0:0:0:
412,308,38991,6,0,P|310:313|251:379,1,176.000005371094,6|0,0:0|0:0,0:0:0:0:
148,332,39575,1,2,0:0:0:0:
93,237,39770,1,8,0:0:0:0:
93,237,39965,2,0,P|90:191|67:146,1,88.000002685547,0|0,0:0|0:0,0:0:0:0:
174,125,40354,6,0,P|176:168|194:208,1,88.000002685547,2|0,0:0|0:0,0:0:0:0:
292,248,40744,1,2,0:0:0:0:
267,145,40939,1,2,0:0:0:0:
369,167,41133,1,0,0:0:0:0:
342,68,41328,2,0,P|391:68|434:87,1,88.000002685547,8|2,0:0|0:0,0:0:0:0:
454,182,41718,2,0,P|410:182|369:167,1,88.000002685547,0|0,0:0|0:0,0:0:0:0:
267,145,42107,6,0,P|241:227|324:249,1,176.000005371094,2|0,0:0|0:0,0:0:0:0:
369,167,42692,1,2,0:0:0:0:
318,74,42887,2,0,B|276:51|228:67|228:67|188:83|141:68,1,176.000005371094,8|2,0:0|0:0,0:0:0:0:
54,120,43471,1,2,0:0:0:0:
80,18,43666,6,0,P|122:36|148:73,1,88.000002685547,0|2,0:0|0:0,0:0:0:0:
142,173,44055,2,0,P|111:209|69:224,1,88.000002685547,2|0,0:0|0:0,0:0:0:0:
54,120,44445,1,8,0:0:0:0:
145,69,44640,1,2,0:0:0:0:
234,125,44835,1,0,0:0:0:0:
229,230,45030,1,0,0:0:0:0:
138,300,45224,6,0,P|202:246|306:273,1,176.000005371094,6|0,0:0|0:0,0:0:0:0:
365,330,45809,1,2,0:0:0:0:
490,309,46004,1,8,0:0:0:0:
490,309,46198,2,0,P|504:263|490:198,1,88.000002685547,0|0,0:0|0:0,0:0:0:0:
418,156,46588,6,0,P|371:166|321:211,1,88.000002685547,2|0,0:0|0:0,0:0:0:0:
267,267,46978,1,2,0:0:0:0:
169,307,47172,2,0,P|120:304|63:268,1,88.000002685547,2|0,0:0|0:0,0:0:0:0:
15,207,47562,1,8,0:0:0:0:
6,101,47757,1,2,0:0:0:0:
89,36,47952,1,0,0:0:0:0:
190,64,48147,1,0,0:0:0:0:
288,100,48341,6,0,L|394:89,1,88.000002685547,2|0,0:0|0:0,0:0:0:0:
475,127,48731,2,0,L|369:138,1,88.000002685547,0|2,0:0|0:0,0:0:0:0:
294,187,49120,2,0,L|400:176,1,88.000002685547,8|0,0:0|0:0,0:0:0:0:
481,214,49510,2,0,L|375:225,1,88.000002685547,2|2,0:0|0:0,0:0:0:0:
294,187,49900,5,0,0:0:0:0:
196,226,50094,1,2,0:0:0:0:
210,330,50289,1,2,0:0:0:0:
313,353,50484,1,0,0:0:0:0:
396,261,50679,2,0,P|462:280|496:375,1,176.000005371094,8|0,0:0|0:0,0:0:0:0:
313,353,51458,5,6,0:0:0:0:
284,342,51848,1,2,0:0:0:0:
256,331,52237,1,2,0:0:0:0:
228,321,52627,1,2,0:0:0:0:
228,321,52822,2,0,P|198:264|181:210,1,120.000004577637,2|2,0:0|0:0,0:0:0:0:
172,139,53406,1,2,0:0:0:0:
303,79,53796,1,2,0:0:0:0:
303,79,53991,1,2,0:0:0:0:
435,136,54380,1,2,0:0:0:0:
431,219,54575,5,2,0:0:0:0:
420,248,54965,1,2,0:0:0:0:
409,276,55354,1,2,0:0:0:0:
399,304,55744,1,2,0:0:0:0:
399,304,55939,2,0,P|334:298|276:286,1,120.000004577637,2|2,0:0|0:0,0:0:0:0:
217,252,56523,2,0,P|174:257|145:266,1,60.0000022888184,0|2,0:0|0:0,0:0:0:0:
106,203,56913,2,0,P|82:257|110:324,2,128,0|2|6,0:0|0:0|0:0,0:0:0:0:
106,203,58081,6,0,P|132:170|142:132,1,80,2|0,0:0|0:0,0:0:0:0:
45,126,58471,2,0,P|20:95|9:55,1,80,2|0,0:0|0:0,0:0:0:0:
105,48,58861,1,2,0:0:0:0:
105,48,59055,6,0,P|162:41|224:89,1,136.000002593994,2|2,0:0|0:0,0:0:0:0:
300,142,59640,1,2,0:0:0:0:
377,85,59835,1,0,0:0:0:0:
290,48,60030,2,0,P|239:68|214:98,1,80,2|2,0:0|0:0,0:0:0:0:
218,181,60419,2,0,P|242:211|278:230,1,80,0|2,0:0|0:0,0:0:0:0:
383,200,60809,6,0,P|336:234|325:313,1,136.000002593994,2|2,0:0|0:0,0:0:0:0:
246,365,61393,1,0,0:0:0:0:
163,316,61588,2,0,P|123:310|75:328,2,80,2|0|2,0:0|0:0|0:0,0:0:0:0:
246,365,62172,6,0,P|258:304|249:268,1,80,2|0,0:0|0:0,0:0:0:0:
339,240,62562,2,0,P|292:199|256:188,1,80,2|0,0:0|0:0,0:0:0:0:
180,182,62952,1,2,0:0:0:0:
91,217,63146,1,0,0:0:0:0:
269,146,63536,1,2,0:0:0:0:
118,2,63926,5,6,0:0:0:0:
131,36,64315,1,2,0:0:0:0:
145,74,64705,1,10,0:0:0:0:
158,111,65094,1,2,0:0:0:0:
253,123,65289,1,2,0:0:0:0:
305,203,65484,6,0,P|305:249|296:304,1,80,2|2,0:0|0:0,0:0:0:0:
204,284,65874,2,0,P|203:244|208:204,1,80,2|2,0:0|0:0,0:0:0:0:
253,123,66263,1,10,0:0:0:0:
347,105,66458,1,2,0:0:0:0:
283,32,66653,1,2,0:0:0:0:
253,123,66848,1,2,0:0:0:0:
314,195,67042,6,0,P|388:194|442:113,2,160,2|2|10,0:0|0:0|0:0,0:0:0:0:
196,43,68211,1,2,0:0:0:0:
107,80,68406,1,2,0:0:0:0:
49,156,68601,6,0,P|49:198|56:246,1,80,2|2,0:0|0:0,0:0:0:0:
150,229,68991,2,0,P|149:275|143:319,1,80,2|2,0:0|0:0,0:0:0:0:
232,349,69380,1,10,0:0:0:0:
293,275,69575,1,2,0:0:0:0:
348,353,69770,1,2,0:0:0:0:
409,279,69965,1,2,0:0:0:0:
485,360,70159,6,0,P|501:289|492:187,1,160,6|2,0:0|0:0,0:0:0:0:
450,116,70744,1,0,0:0:0:0:
343,149,70939,2,0,B|302:148|270:123|270:123|247:164|205:172,1,160,10|2,0:0|0:0,0:0:0:0:
147,246,71523,1,2,0:0:0:0:
211,319,71718,6,0,P|254:320|310:348,2,80,2|2|2,0:0|0:0|0:0,0:0:0:0:
115,332,72302,1,2,0:0:0:0:
46,243,72497,2,0,P|37:200|40:154,1,80,8|0,0:0|0:0,0:0:0:0:
73,74,72887,1,0,0:0:0:0:
163,42,73081,1,0,0:0:0:0:
249,83,73276,6,0,P|305:88|346:79,1,80,0|0,0:0|0:0,0:0:0:0:
421,60,73666,2,0,P|416:116|425:157,1,80,0|0,0:0|0:0,0:0:0:0:
449,255,74055,2,0,P|393:250|352:259,1,80,8|0,0:0|0:0,0:0:0:0:
277,278,74445,2,0,P|282:222|273:181,1,80,0|0,0:0|0:0,0:0:0:0:
245,107,74835,5,0,0:0:0:0:
154,83,75029,1,0,0:0:0:0:
77,135,75224,1,0,0:0:0:0:
65,227,75419,1,0,0:0:0:0:
130,310,75614,6,0,P|217:282|303:369,1,223.999993164063,8|0,0:0|0:0,0:0:0:0:
