osu file format v14

[General]
AudioFilename: audio.mp3
AudioLeadIn: 0
PreviewTime: 26426
Countdown: 0
SampleSet: Soft
StackLeniency: 0.7
Mode: 0
LetterboxInBreaks: 0
WidescreenStoryboard: 1

[Editor]
Bookmarks: 30,12497,26523,38211,38991,51458,57692,63926,70159,75614
DistanceSpacing: 0.8
BeatDivisor: 4
GridSize: 32
TimelineZoom: 1

[Metadata]
Title:BANANA STREET (Cut Ver.)
TitleUnicode:BANANA STREET (Cut Ver.)
Artist:dark cat
ArtistUnicode:dark cat
Creator:Stompy_
Version:TACHI'S NORMAL
Source:
Tags:rison daycore ryxliee tachi tachibana_ electronic dnb drum and bass catstep instrumental featured artist fa short version d'n'b
BeatmapID:3831980
BeatmapSetID:1862663

[Difficulty]
HPDrainRate:3
CircleSize:3
OverallDifficulty:4
ApproachRate:5
SliderMultiplier:1.22
SliderTickRate:1

[Events]
//Background and Video events
0,0,"bg.jpg",0,0
//Break Periods
//Storyboard Layer 0 (Background)
//Storyboard Layer 1 (Fail)
//Storyboard Layer 2 (Pass)
//Storyboard Layer 3 (Foreground)
//Storyboard Layer 4 (Overlay)
//Storyboard Sound Samples

[TimingPoints]
30,389.61038961039,4,2,2,50,1,0
12497,-98.0392156862745,4,2,2,55,0,0
26523,-89.2857142857143,4,2,2,70,0,1
38211,-98.0392156862745,4,2,2,70,0,0
38991,-89.2857142857143,4,2,2,70,0,1
49900,-98.0392156862745,4,2,2,75,0,1
51068,-98.0392156862745,4,2,2,80,0,1
51458,-98.0392156862745,4,2,2,50,0,0
63926,-98.0392156862745,4,2,2,55,0,0
73276,-98.0392156862745,4,2,2,60,0,0
73666,-98.0392156862745,4,2,2,64,0,0
74055,-98.0392156862745,4,2,2,68,0,0
74445,-98.0392156862745,4,2,2,72,0,0
74835,-98.0392156862745,4,2,2,76,0,0
75224,-98.0392156862745,4,2,2,78,0,0
76393,-98.0392156862745,4,2,2,50,0,0

[Colours]
Combo1 : 192,130,255
Combo2 : 81,81,255
Combo3 : 119,181,255
Combo4 : 245,92,116

[HitObjects]
352,64,12497,6,0,P|410:71|476:84,1,124.440000759521,2|2,1:2|0:0,0:0:0:0:
459,182,13276,2,0,P|397:169|336:162,1,124.440000759521,2|2,0:3|0:0,0:0:0:0:
290,183,13861,1,2,0:0:0:0:
228,112,14250,1,2,0:0:0:0:
228,112,14445,2,0,P|193:118|162:198,1,124.440000759521,2|2,0:0|0:3,0:0:0:0:
121,222,15030,1,2,0:0:0:0:
121,222,15224,2,0,P|131:254|141:287,1,62.2200003797607,2|2,0:0|0:0,0:0:0:0:
158,327,15614,6,0,B|230:350|195:365|271:385,1,124.440000759521,2|2,0:3|0:0,0:0:0:0:
329,306,16393,2,0,B|256:287|291:272|219:249,1,124.440000759521,2|2,0:3|0:0,0:0:0:0:
200,202,16978,1,2,0:0:0:0:
176,105,17367,1,2,0:0:0:0:
248,36,17757,1,2,0:0:0:0:
248,36,17952,2,0,P|293:42|380:60,1,124.440000759521,2|2,0:3|0:0,0:0:0:0:
455,6,18731,6,0,P|489:25|493:109,1,124.440000759521,2|2,1:3|0:0,0:0:0:0:
470,147,19315,1,2,0:0:0:0:
470,147,19510,2,0,P|457:183|464:210,1,62.2200003797607,8|2,0:0|0:0,0:0:0:0:
447,255,19900,1,2,0:0:0:0:
447,255,20094,1,2,0:0:0:0:
359,218,20484,1,2,0:0:0:0:
359,218,20679,2,0,L|287:238,1,62.2200003797607,2|2,0:0|0:0,0:0:0:0:
269,274,21068,2,0,P|232:265|214:243,1,62.2200003797607,10|2,3:2|3:2,0:0:0:0:
165,241,21458,2,0,P|155:204|166:177,1,62.2200003797607,2|2,3:2|3:2,0:0:0:0:
142,136,21848,6,0,P|184:93|244:99,1,124.440000759521,2|2,0:3|0:0,0:0:0:0:
327,153,22627,2,0,P|359:166|397:157,1,62.2200003797607,10|2,3:2|3:2,0:0:0:0:
427,135,23017,1,2,3:2:0:0:
427,135,23211,1,2,3:2:0:0:
498,203,23601,1,2,0:0:0:0:
479,300,23991,1,2,0:0:0:0:
479,300,24185,2,0,P|422:308|357:340,2,124.440000759521,10|2|2,0:0|0:0|0:0,0:0:0:0:
479,300,26523,6,0,P|493:235|450:184,1,136.640001667969,6|2,1:2|0:0,0:0:0:0:
420,146,27107,1,2,1:3:0:0:
420,146,27302,2,0,P|366:162|292:200,1,136.640001667969,10|2,0:2|0:0,0:0:0:0:
250,230,27887,1,0,1:2:0:0:
147,249,28276,1,2,1:2:0:0:
147,249,28471,2,0,P|130:215|133:185,1,68.3200008339844,2|2,1:2|0:3,0:0:0:0:
95,154,28861,1,10,0:2:0:0:
95,154,29055,2,0,P|108:117|146:25,1,136.640001667969,2|2,1:2|0:0,0:0:0:0:
194,3,29640,5,2,1:2:0:0:
355,68,30224,1,2,1:3:0:0:
355,68,30419,2,0,P|328:124|303:195,1,136.640001667969,10|2,0:2|1:2,0:0:0:0:
300,249,31004,1,0,1:2:0:0:
228,331,31393,1,2,1:2:0:0:
228,331,31588,2,0,B|142:312|188:287|106:268,1,136.640001667969,2|10,1:2|0:2,0:0:0:0:
56,254,32172,1,0,1:2:0:0:
1,99,32757,6,0,P|2:35|60:1,1,136.640001667969,2|2,1:2|0:0,0:0:0:0:
118,7,33341,1,2,1:3:0:0:
118,7,33536,2,0,B|197:27|154:48|241:72,1,136.640001667969,10|2,0:2|1:2,0:0:0:0:
281,101,34120,1,0,1:2:0:0:
382,55,34509,1,2,1:2:0:0:
382,55,34704,2,0,P|399:89|394:120,1,68.3200008339844,2|2,1:2|0:3,0:0:0:0:
438,159,35094,1,10,0:2:0:0:
438,159,35288,2,0,P|415:200|383:284,1,136.640001667969,2|2,1:2|0:0,0:0:0:0:
336,312,35873,5,2,1:2:0:0:
190,384,36457,1,2,1:3:0:0:
190,384,36652,2,0,P|168:325|127:251,1,136.640001667969,10|2,0:2|1:2,0:0:0:0:
91,223,37237,1,0,1:2:0:0:
129,123,37626,1,2,1:2:0:0:
129,123,37821,2,0,P|152:103|191:99,1,68.3200008339844,2|2,1:2|0:3,0:0:0:0:
237,110,38211,1,10,0:2:0:0:
430,8,38991,6,0,B|449:85|473:48|495:131,1,136.640001667969,6|2,1:2|0:0,0:0:0:0:
512,182,39575,1,2,1:3:0:0:
512,182,39770,2,0,B|489:269|469:228|449:308,1,136.640001667969,10|2,0:2|0:0,0:0:0:0:
435,354,40355,1,0,1:2:0:0:
336,384,40744,1,2,1:2:0:0:
336,384,40939,2,0,P|305:383|274:363,1,68.3200008339844,2|2,1:2|0:3,0:0:0:0:
222,373,41329,1,10,0:2:0:0:
222,373,41523,2,0,P|193:343|198:250,1,136.640001667969,2|2,1:2|0:0,0:0:0:0:
232,212,42108,5,2,1:2:0:0:
203,55,42692,1,2,1:3:0:0:
203,55,42887,2,0,P|157:25|79:47,1,136.640001667969,10|2,0:2|1:2,0:0:0:0:
44,84,43472,1,0,1:2:0:0:
138,152,43861,1,2,1:2:0:0:
138,152,44056,2,0,B|118:235|92:193|76:272,1,136.640001667969,2|10,1:2|0:2,0:0:0:0:
32,304,44640,1,0,1:2:0:0:
178,375,45225,6,0,P|242:374|279:318,1,136.640001667969,2|2,1:2|0:0,0:0:0:0:
292,269,45809,1,2,1:3:0:0:
292,269,46004,2,0,B|364:251|323:221|418:209,1,136.640001667969,10|2,0:2|1:2,0:0:0:0:
462,229,46588,1,0,1:2:0:0:
512,136,46977,1,2,1:2:0:0:
512,136,47172,2,0,P|511:105|492:70,1,68.3200008339844,2|2,1:2|0:3,0:0:0:0:
453,44,47562,1,10,0:2:0:0:
453,44,47757,2,0,B|370:64|410:90|328:107,1,136.640001667969,0|2,1:2|0:0,0:0:0:0:
302,150,48341,5,2,1:2:0:0:
206,287,48925,1,2,1:3:0:0:
206,287,49120,2,0,B|123:266|170:239|78:222,1,136.640001667969,10|2,0:2|1:2,0:0:0:0:
33,215,49705,1,2,1:2:0:0:
12,122,50094,1,2,1:2:0:0:
12,122,50289,2,0,P|26:88|41:57,1,62.2200003797607,2|2,1:2|0:3,0:0:0:0:
71,28,50679,1,10,0:0:0:0:
166,1,51068,1,2,0:0:0:0:
230,74,51458,6,0,P|247:118|217:188,1,124.440000759521,2|2,1:2|0:0,0:0:0:0:
136,242,52237,1,0,0:0:0:0:
192,321,52627,2,0,P|220:330|252:342,1,62.2200003797607
347,381,53211,1,2,0:0:0:0:
347,381,53406,2,0,P|382:375|491:356,1,124.440000759521,2|2,0:0|0:0,0:0:0:0:
511,332,53991,1,2,0:0:0:0:
450,260,54380,1,2,0:0:0:0:
450,260,54575,6,0,P|458:200|512:173,2,124.440000759521,2|2|0,0:0|0:0|0:0,0:0:0:0:
412,352,55744,2,0,P|377:367|345:368,1,62.2200003797607
256,344,56328,1,2,0:0:0:0:
203,266,56718,1,2,0:0:0:0:
203,266,56913,2,0,P|164:311|169:385,1,124.440000759521,2|2,0:0|0:0,0:0:0:0:
66,349,57692,6,0,P|75:283|104:232,1,124.440000759521,2|2,1:2|0:0,0:0:0:0:
131,194,58276,1,2,0:0:0:0:
131,194,58471,2,0,P|166:188|197:178,1,62.2200003797607,2|2,0:0|0:0,0:0:0:0:
244,193,58861,1,2,0:0:0:0:
244,193,59055,1,2,0:0:0:0:
341,161,59445,1,2,0:0:0:0:
341,161,59640,2,0,P|353:132|349:102,1,62.2200003797607,2|2,0:0|0:0,0:0:0:0:
338,53,60029,2,0,P|300:44|263:36,1,62.2200003797607,2|2,0:0|0:0,0:0:0:0:
245,1,60419,2,0,P|207:10|170:18,1,62.2200003797607,2|2,0:0|0:0,0:0:0:0:
180,64,60809,6,0,B|107:45|142:19|75:3,1,124.440000759521,2|2,0:0|0:0,0:0:0:0:
10,80,61588,2,0,P|-3:112|6:150,1,62.2200003797607,2|2,0:0|0:0,0:0:0:0:
25,188,61978,1,2,0:0:0:0:
25,188,62172,1,2,0:0:0:0:
112,139,62562,1,2,0:0:0:0:
178,221,62952,1,2,0:0:0:0:
178,221,63146,2,0,P|150:276|141:338,2,124.440000759521,2|2|6,0:0|1:2|1:2,0:0:0:0:
256,159,64315,1,2,0:0:0:0:
320,234,64705,6,0,B|387:218|352:192|425:173,1,124.440000759521,10|2,0:2|0:0,0:0:0:0:
452,133,65289,1,2,0:0:0:0:
452,133,65484,2,0,P|494:144|516:153,2,62.2200003797607,2|2|2,0:0|0:0|0:0,0:0:0:0:
436,91,66068,1,2,0:0:0:0:
436,91,66263,2,0,P|406:80|376:73,1,62.2200003797607,10|2,0:2|0:0,0:0:0:0:
339,38,66653,2,0,P|309:48|279:55,1,62.2200003797607,2|2,0:0|0:0,0:0:0:0:
229,55,67042,1,2,0:0:0:0:
175,139,67432,1,2,0:0:0:0:
240,213,67822,6,0,P|297:197|371:184,1,124.440000759521,10|2,0:2|0:0,0:0:0:0:
460,188,68601,2,0,P|460:155|442:125,2,62.2200003797607,2|2|2,0:0|0:0|0:0,0:0:0:0:
487,235,69185,1,2,0:0:0:0:
487,235,69380,2,0,P|473:264|439:281,1,62.2200003797607,10|0,0:2|3:2,0:0:0:0:
429,325,69770,2,0,P|396:326|365:304,1,62.2200003797607,2|0,0:0|3:2,0:0:0:0:
323,300,70159,1,2,1:2:0:0:
252,229,70549,1,2,0:0:0:0:
195,311,70939,6,0,P|151:328|81:298,1,124.440000759521,10|2,0:2|0:2,0:0:0:0:
73,255,71523,1,2,3:2:0:0:
73,255,71718,2,0,P|46:239|15:239,2,62.2200003797607,2|2|2,0:0|0:0|0:0,0:0:0:0:
119,232,72302,1,2,0:0:0:0:
119,232,72497,2,0,P|130:202|137:172,1,62.2200003797607,10|2,3:2|3:2,0:0:0:0:
175,140,72887,2,0,P|165:110|158:80,1,62.2200003797607,2|2,3:2|3:2,0:0:0:0:
176,33,73276,6,0,P|152:15|116:15,2,62.2200003797607,2|2|2,3:2|3:2|3:2,0:0:0:0:
228,49,73861,1,2,3:2:0:0:
228,49,74055,1,10,3:2:0:0:
287,128,74445,1,2,3:2:0:0:
368,69,74835,2,0,P|385:91|388:136,1,62.2200003797607,2|2,3:2|3:2,0:0:0:0:
422,162,75224,2,0,P|410:187|371:212,1,62.2200003797607,2|2,3:2|3:2,0:0:0:0:
361,253,75614,5,8,0:2:0:0:
