osu file format v14

[General]
AudioFilename: audio.mp3
AudioLeadIn: 0
PreviewTime: 26426
Countdown: 0
SampleSet: Soft
StackLeniency: 0.7
Mode: 0
LetterboxInBreaks: 0
WidescreenStoryboard: 1

[Editor]
Bookmarks: 12497,32757,38991,45224,51458,63926,70159,75614
DistanceSpacing: 1.2
BeatDivisor: 4
GridSize: 16
TimelineZoom: 1

[Metadata]
Title:BANANA STREET (Cut Ver.)
TitleUnicode:BANANA STREET (Cut Ver.)
Artist:dark cat
ArtistUnicode:dark cat
Creator:Stompy_
Version:RYXLIEE'S HARD
Source:
Tags:rison daycore ryxliee tachi tachibana_ electronic dnb drum and bass catstep instrumental featured artist fa short version d'n'b
BeatmapID:3830087
BeatmapSetID:1862663

[Difficulty]
HPDrainRate:4
CircleSize:3.5
OverallDifficulty:6.5
ApproachRate:8
SliderMultiplier:1.3
SliderTickRate:1

[Events]
//Background and Video events
0,0,"bg.jpg",0,0
//Break Periods
2,51848,56133
//Storyboard Layer 0 (Background)
//Storyboard Layer 1 (Fail)
//Storyboard Layer 2 (Pass)
//Storyboard Layer 3 (Foreground)
//Storyboard Layer 4 (Overlay)
//Storyboard Sound Samples

[TimingPoints]
30,389.61038961039,4,2,2,50,1,0
12497,-111.111111111111,4,2,2,55,0,0
18731,-99.9999999999999,4,2,2,55,0,0
26523,-83.3333333333333,4,2,2,70,0,1
38211,-83.3333333333333,4,2,2,70,0,0
38991,-83.3333333333333,4,2,2,70,0,1
49900,-83.3333333333333,4,2,2,75,0,1
51068,-83.3333333333333,4,2,2,80,0,1
51458,-83.3333333333333,4,2,2,50,0,0
57692,-99.9999999999999,4,2,2,50,0,0
63926,-90.9090909090909,4,2,2,55,0,0
73276,-90.9090909090909,4,2,2,60,0,0
73666,-90.9090909090909,4,2,2,64,0,0
74055,-90.9090909090909,4,2,2,68,0,0
74445,-90.9090909090909,4,2,2,72,0,0
74835,-90.9090909090909,4,2,2,76,0,0
75224,-90.9090909090909,4,2,2,78,0,0
75614,-166.666666666667,4,2,2,78,0,0
76393,-166.666666666667,4,2,2,50,0,0

[Colours]
Combo1 : 192,130,255
Combo2 : 81,81,255
Combo3 : 119,181,255
Combo4 : 245,92,116

[HitObjects]
401,48,12497,6,0,P|415:115|430:187,1,116.999996429443,2|2,1:2|0:0,0:0:0:0:
308,64,13276,2,0,P|319:121|331:178,1,116.999996429443,2|2,0:3|0:0,0:0:0:0:
385,233,13861,2,0,P|418:242|445:254,2,58.4999982147217,2|2|2,0:0|0:3|0:0,0:0:0:0:
327,283,14445,1,2,0:0:0:0:
223,171,14835,2,0,P|218:142|228:115,1,58.4999982147217,2|2,0:3|0:0,0:0:0:0:
303,128,15224,2,0,P|307:156|297:183,1,58.4999982147217,2|2,0:0|0:0,0:0:0:0:
252,245,15614,6,0,P|185:231|113:216,1,116.999996429443,2|2,0:3|0:0,0:0:0:0:
236,338,16393,2,0,P|178:326|121:314,1,116.999996429443,2|2,0:3|0:0,0:0:0:0:
50,335,16978,1,2,0:0:0:0:
50,335,17172,2,0,P|32:297|35:268,1,58.4999982147217,2|2,0:3|0:0,0:0:0:0:
125,161,17757,1,2,0:0:0:0:
125,161,17952,1,2,0:3:0:0:
42,33,18341,1,2,0:0:0:0:
44,202,18731,6,0,P|91:244|154:243,1,130,2|2,1:3|0:0,0:0:0:0:
224,194,19315,1,2,0:0:0:0:
224,194,19510,1,8,0:0:0:0:
284,253,19705,2,0,P|274:290|267:329,2,65,2|2|2,0:0|0:0|0:0,0:0:0:0:
432,169,20484,5,2,0:0:0:0:
432,169,20679,2,0,P|426:132|415:88,1,65,2|2,0:0|0:0,0:0:0:0:
369,43,21068,1,10,3:2:0:0:
369,43,21263,1,2,3:2:0:0:
305,98,21458,1,2,3:2:0:0:
305,98,21653,1,2,3:2:0:0:
246,36,21848,6,0,B|177:42|201:82|134:95,1,130,2|2,0:3|0:0,0:0:0:0:
77,157,22432,1,2,0:0:0:0:
5,109,22627,2,0,P|0:78|13:49,2,65,2|2|2,3:2|3:2|3:2,0:0:0:0:
77,157,23211,1,10,3:2:0:0:
103,248,23601,6,0,P|166:233|236:220,1,130,2|2,0:0|0:0,0:0:0:0:
289,161,24185,1,10,0:0:0:0:
205,307,24575,1,2,0:0:0:0:
199,318,24965,5,2,0:0:0:0:
492,103,26133,5,8,0:3:0:0:
492,103,26328,1,8,0:3:0:0:
436,27,26523,6,0,B|399:7|348:49|381:46|344:93|297:88,1,155.999995239258,6|2,1:2|0:0,0:0:0:0:
203,165,27107,1,2,1:3:0:0:
203,165,27205,1,2,0:3:0:0:
203,165,27302,2,0,P|164:138|104:144,1,77.999997619629,10|0,0:2|0:0,0:0:0:0:
82,57,27692,1,2,0:0:0:0:
17,124,27887,6,0,P|36:185|57:265,1,116.999996429443,0|0,1:2|0:0,0:0:0:0:
64,244,28276,1,2,1:2:0:0:
14,323,28471,2,0,B|52:316|52:316|84:337,1,77.999997619629,2|2,1:2|0:3,0:0:0:0:
99,358,28763,1,2,0:3:0:0:
99,358,28861,1,10,0:2:0:0:
171,299,29055,1,2,1:2:0:0:
250,358,29250,1,2,0:0:0:0:
250,358,29445,1,2,0:0:0:0:
335,320,29640,6,0,B|352:288|375:265|375:265|350:231|328:184,1,155.999995239258,2|2,1:2|0:0,0:0:0:0:
244,115,30224,1,2,1:3:0:0:
244,115,30322,1,2,0:3:0:0:
244,115,30419,2,0,P|229:155|216:191,1,77.999997619629,10|0,0:2|0:0,0:0:0:0:
130,225,30809,1,2,1:2:0:0:
51,173,31004,6,0,P|39:127|84:62,1,116.999996429443,0|0,1:2|0:0,0:0:0:0:
68,55,31393,1,2,1:2:0:0:
150,11,31588,2,0,P|190:26|226:39,1,77.999997619629,2|2,1:2|0:3,0:0:0:0:
234,56,31880,1,2,0:3:0:0:
234,56,31978,1,10,0:2:0:0:
320,20,32172,1,0,1:2:0:0:
384,87,32367,1,2,0:0:0:0:
263,230,32757,6,0,B|227:263|183:245|183:245|163:210|129:204,1,155.999995239258,2|2,1:2|0:0,0:0:0:0:
27,275,33341,1,2,1:3:0:0:
27,275,33439,1,2,0:3:0:0:
27,275,33536,2,0,P|49:329|97:337,1,77.999997619629,10|0,0:2|0:0,0:0:0:0:
145,384,33926,1,2,1:2:0:0:
207,315,34120,6,0,B|234:311|255:301|255:301|280:320|331:339,1,116.999996429443,0|0,1:2|0:0,0:0:0:0:
320,347,34510,1,2,1:2:0:0:
407,312,34705,2,0,P|420:274|400:235,1,77.999997619629,2|2,1:2|0:3,0:0:0:0:
391,228,34997,1,2,0:3:0:0:
391,228,35094,1,10,0:2:0:0:
311,178,35289,1,2,1:2:0:0:
364,102,35484,1,2,0:0:0:0:
364,102,35679,1,2,0:0:0:0:
296,38,35874,6,0,B|233:53|233:53|212:80|212:80|157:97,1,155.999995239258,2|2,1:2|0:0,0:0:0:0:
45,65,36458,1,2,1:3:0:0:
45,65,36556,1,2,0:3:0:0:
45,65,36653,2,0,P|18:94|26:146,1,77.999997619629,10|0,0:2|0:0,0:0:0:0:
63,212,37043,1,2,1:2:0:0:
153,190,37237,6,0,P|192:201|250:214,1,77.999997619629,0|2,1:2|0:0,0:0:0:0:
305,264,37627,1,2,1:2:0:0:
381,209,37822,1,2,1:2:0:0:
357,128,38017,1,2,0:3:0:0:
357,128,38114,1,2,0:3:0:0:
357,128,38211,1,10,0:2:0:0:
20,347,38991,6,0,B|61:361|103:335|82:311|115:285|166:282,1,155.999995239258,6|2,1:2|0:0,0:0:0:0:
255,210,39575,1,2,1:3:0:0:
255,210,39673,1,2,0:3:0:0:
255,210,39770,2,0,P|289:239|334:244,1,77.999997619629,10|2,0:2|0:0,0:0:0:0:
375,322,40160,1,2,0:0:0:0:
461,287,40354,6,0,P|469:239|484:163,1,116.999996429443,0|0,1:2|0:0,0:0:0:0:
501,161,40744,1,2,1:2:0:0:
419,114,40939,2,0,P|410:76|400:38,1,77.999997619629,2|2,1:2|0:3,0:0:0:0:
383,32,41231,1,2,0:3:0:0:
383,32,41328,1,10,0:2:0:0:
305,85,41523,1,2,1:2:0:0:
233,33,41718,1,2,0:0:0:0:
233,33,41913,1,2,0:0:0:0:
144,60,42107,6,0,P|120:131|166:190,1,155.999995239258,2|2,1:2|0:0,0:0:0:0:
280,265,42691,1,2,1:3:0:0:
280,265,42789,1,2,0:3:0:0:
280,265,42886,2,0,P|311:253|359:237,1,77.999997619629,10|0,0:2|0:0,0:0:0:0:
409,163,43276,1,2,1:2:0:0:
484,217,43470,6,0,B|499:238|517:258|517:258|505:289|497:341,1,116.999996429443,0|0,1:2|0:0,0:0:0:0:
484,322,43860,1,2,1:2:0:0:
375,384,44055,2,0,P|366:340|353:284,1,77.999997619629,2|2,1:2|0:3,0:0:0:0:
345,303,44347,1,2,0:3:0:0:
345,303,44444,1,10,0:2:0:0:
389,220,44639,1,0,1:2:0:0:
319,165,44834,1,2,0:0:0:0:
319,165,45029,1,2,0:0:0:0:
254,232,45224,6,0,B|228:263|188:260|188:260|170:221|125:214,1,155.999995239258,2|2,1:2|0:0,0:0:0:0:
11,248,45808,1,2,1:3:0:0:
11,248,45906,1,2,0:3:0:0:
11,248,46003,2,0,P|20:206|29:168,1,77.999997619629,10|2,0:2|0:0,0:0:0:0:
101,112,46393,1,2,1:2:0:0:
30,50,46587,6,0,P|78:18|135:22,1,116.999996429443,0|0,1:2|0:0,0:0:0:0:
151,24,46977,1,2,1:2:0:0:
200,103,47172,2,0,P|233:122|271:120,1,77.999997619629,2|2,1:2|0:3,0:0:0:0:
291,132,47464,1,2,0:3:0:0:
291,132,47561,1,10,0:2:0:0:
350,59,47756,1,0,1:2:0:0:
443,90,47951,1,2,0:0:0:0:
443,90,48146,1,2,0:0:0:0:
498,165,48341,6,0,P|481:242|466:324,1,155.999995239258,2|2,1:2|0:0,0:0:0:0:
358,370,48925,1,2,1:3:0:0:
358,370,49023,1,2,0:3:0:0:
358,370,49120,2,0,P|349:332|339:288,1,77.999997619629,10|2,0:2|0:0,0:0:0:0:
287,215,49510,1,2,1:2:0:0:
367,168,49704,6,0,B|402:187|402:187|438:178,1,77.999997619629,2|2,1:2|0:0,0:0:0:0:
503,109,50094,1,2,1:2:0:0:
463,23,50289,1,2,1:2:0:0:
377,43,50484,1,2,0:3:0:0:
377,43,50581,1,2,0:3:0:0:
377,43,50678,1,10,0:0:0:0:
486,194,51068,1,2,0:0:0:0:
493,202,51458,5,2,1:2:0:0:
284,31,57692,6,0,B|215:37|239:77|172:90,1,130,2|2,1:2|0:0,0:0:0:0:
109,146,58276,1,2,0:0:0:0:
109,146,58471,1,2,0:0:0:0:
41,94,58666,2,0,P|51:57|58:18,2,65,2|2|2,0:0|0:0|0:0,0:0:0:0:
13,264,59445,5,2,0:0:0:0:
13,264,59640,2,0,P|19:301|30:345,1,65,2|2,0:0|0:0,0:0:0:0:
98,380,60029,1,2,0:0:0:0:
98,380,60224,1,2,0:0:0:0:
162,325,60419,1,2,0:0:0:0:
162,325,60614,1,2,0:0:0:0:
241,355,60809,6,0,P|283:286|252:230,1,130,2|2,0:0|0:0,0:0:0:0:
189,228,61393,1,2,0:0:0:0:
128,166,61588,2,0,P|123:135|136:106,2,65,2|2|2,0:0|0:0|0:0,0:0:0:0:
189,228,62172,1,2,0:0:0:0:
287,108,62562,6,0,P|350:120|414:135,1,130,2|2,0:0|0:0,0:0:0:0:
466,201,63146,1,2,0:0:0:0:
397,46,63536,1,2,1:2:0:0:
281,192,63926,6,0,P|296:262|311:342,1,143.000004364014,6|2,1:2|0:0,0:0:0:0:
239,380,64510,1,2,0:0:0:0:
239,380,64705,2,0,B|163:373|189:329|116:315,1,143.000004364014,10|2,0:2|0:0,0:0:0:0:
35,344,65289,1,2,0:0:0:0:
1,264,65484,6,0,P|14:226|26:176,1,71.5000021820069,2|2,0:0|0:0,0:0:0:0:
94,148,65874,2,0,P|103:182|114:216,1,71.5000021820069,2|2,0:0|0:0,0:0:0:0:
170,288,66263,1,10,0:2:0:0:
170,288,66458,1,2,0:0:0:0:
243,242,66653,1,2,0:0:0:0:
243,242,66848,1,2,0:0:0:0:
298,307,67042,6,0,P|366:320|420:278,1,143.000004364014,2|2,0:0|0:0,0:0:0:0:
447,199,67626,1,2,0:0:0:0:
447,199,67822,2,0,P|476:179|511:179,2,71.5000021820069,10|0|2,0:2|0:0|0:0,0:0:0:0:
370,159,68405,1,2,0:0:0:0:
314,224,68600,6,0,P|323:258|335:311,1,71.5000021820069,2|2,0:0|0:0,0:0:0:0:
246,311,68991,2,0,P|237:276|228:241,1,71.5000021820069,2|2,0:0|0:0,0:0:0:0:
163,195,69379,1,10,0:2:0:0:
163,195,69574,1,0,3:2:0:0:
218,129,69769,1,2,0:0:0:0:
84,20,70159,6,0,B|68:48|48:69|48:69|70:100|90:142,1,143.000004364014,2|2,1:2|0:0,0:0:0:0:
163,195,70743,1,2,0:0:0:0:
163,195,70939,2,0,P|152:239|143:286,1,71.5000021820069,10|0,0:2|3:2,0:0:0:0:
87,326,71328,1,2,0:2:0:0:
87,326,71522,1,2,3:2:0:0:
160,370,71717,6,0,P|195:371|226:354,1,71.5000021820069,2|2,0:0|0:0,0:0:0:0:
265,277,72107,2,0,P|296:260|331:261,1,71.5000021820069,2|2,0:0|0:0,0:0:0:0:
408,311,72496,1,10,3:2:0:0:
408,311,72691,1,2,3:2:0:0:
481,263,72886,1,2,3:2:0:0:
481,263,73081,1,2,3:2:0:0:
434,190,73276,6,0,P|439:162|446:119,1,71.5000021820069,2|2,3:2|3:2,0:0:0:0:
363,97,73666,2,0,P|356:132|350:167,1,71.5000021820069,2|2,3:2|3:2,0:0:0:0:
282,218,74055,1,10,3:2:0:0:
282,218,74250,1,2,3:2:0:0:
334,292,74445,1,2,3:2:0:0:
334,292,74640,1,2,3:2:0:0:
272,351,74835,5,2,3:2:0:0:
204,298,75030,1,2,3:2:0:0:
131,343,75224,1,2,3:2:0:0:
59,294,75419,1,2,3:2:0:0:
101,219,75614,6,0,P|187:238|255:256,1,155.999995239258,8|2,0:2|0:0,0:0:0:0:
