osu file format v14

[General]
AudioFilename: audio.mp3
AudioLeadIn: 0
PreviewTime: 26426
Countdown: 0
SampleSet: Soft
StackLeniency: 0.7
Mode: 0
LetterboxInBreaks: 0
WidescreenStoryboard: 0

[Editor]
DistanceSpacing: 0.8
BeatDivisor: 4
GridSize: 4
TimelineZoom: 1

[Metadata]
Title:BANANA STREET (Cut Ver.)
TitleUnicode:BANANA STREET (Cut Ver.)
Artist:dark cat
ArtistUnicode:dark cat
Creator:Stompy_
Version:BANANA SPECIAL
Source:
Tags:rison daycore ryxliee tachi tachibana_ electronic dnb drum and bass catstep instrumental featured artist fa short version d'n'b
BeatmapID:3830088
BeatmapSetID:1862663

[Difficulty]
HPDrainRate:5
CircleSize:5
OverallDifficulty:8.5
ApproachRate:8.8
SliderMultiplier:2.2
SliderTickRate:1

[Events]
//Background and Video events
0,0,"bg.jpg",0,0
//Break Periods
//Storyboard Layer 0 (Background)
//Storyboard Layer 1 (Fail)
//Storyboard Layer 2 (Pass)
//Storyboard Layer 3 (Foreground)
//Storyboard Layer 4 (Overlay)
//Storyboard Sound Samples

[TimingPoints]
30,389.61038961039,4,2,2,50,1,0
12497,-166.666666666667,4,2,2,55,0,0
17952,-142.857142857143,4,2,2,55,0,0
18244,-142.857142857143,4,2,2,5,0,0
18341,-125,4,2,2,55,0,0
18633,-125,4,2,2,5,0,0
18731,-125,4,2,2,55,0,0
19413,-125,4,2,2,5,0,0
19510,-125,4,2,2,55,0,0
24185,-142.857142857143,4,2,2,55,0,0
24478,-142.857142857143,4,2,2,5,0,0
24575,-142.857142857143,4,2,2,55,0,0
24867,-142.857142857143,4,2,2,5,0,0
24965,-142.857142857143,4,2,2,55,0,0
26231,-142.857142857143,4,2,2,5,0,0
26328,-142.857142857143,4,2,2,55,0,0
26426,-142.857142857143,4,2,2,5,0,0
26523,-100,4,2,2,70,0,1
26815,-100,4,2,2,5,0,1
26913,-100,4,2,2,70,0,1
27594,-100,4,2,2,5,0,1
27692,-100,4,2,2,70,0,1
27789,-100,4,2,2,5,0,1
27887,-100,4,2,2,70,0,1
28081,-142.857142857143,4,2,2,70,0,1
28179,-142.857142857143,4,2,2,5,0,1
28276,-142.857142857143,4,2,2,70,0,1
28374,-142.857142857143,4,2,2,5,0,1
28471,-142.857142857143,4,2,2,70,0,1
28568,-142.857142857143,4,2,2,5,0,1
28666,-142.857142857143,4,2,2,70,0,1
28763,-142.857142857143,4,2,2,70,0,1
28861,-142.857142857143,4,2,2,70,0,1
29640,-100,4,2,2,70,0,1
29932,-100,4,2,2,5,0,1
30030,-100,4,2,2,70,0,1
30711,-100,4,2,2,5,0,1
30809,-100,4,2,2,70,0,1
30906,-100,4,2,2,5,0,1
31004,-100,4,2,2,70,0,1
31198,-142.857142857143,4,2,2,70,0,1
31296,-142.857142857143,4,2,2,5,0,1
31393,-142.857142857143,4,2,2,70,0,1
31491,-142.857142857143,4,2,2,5,0,1
31588,-142.857142857143,4,2,2,70,0,1
31685,-142.857142857143,4,2,2,5,0,1
31783,-142.857142857143,4,2,2,70,0,1
31880,-142.857142857143,4,2,2,70,0,1
31978,-142.857142857143,4,2,2,70,0,1
32757,-100,4,2,2,70,0,1
33049,-100,4,2,2,5,0,1
33146,-100,4,2,2,70,0,1
33828,-100,4,2,2,5,0,1
33926,-100,4,2,2,70,0,1
34023,-100,4,2,2,5,0,1
34120,-100,4,2,2,70,0,1
34315,-142.857142857143,4,2,2,70,0,1
34413,-142.857142857143,4,2,2,5,0,1
34510,-142.857142857143,4,2,2,70,0,1
34607,-142.857142857143,4,2,2,5,0,1
34705,-142.857142857143,4,2,2,70,0,1
34802,-142.857142857143,4,2,2,5,0,1
34900,-142.857142857143,4,2,2,70,0,1
34997,-142.857142857143,4,2,2,70,0,1
35094,-142.857142857143,4,2,2,70,0,1
35874,-100,4,2,2,70,0,1
36166,-100,4,2,2,5,0,1
36263,-100,4,2,2,70,0,1
36945,-100,4,2,2,5,0,1
37042,-100,4,2,2,70,0,1
37140,-100,4,2,2,5,0,1
37237,-100,4,2,2,70,0,1
37432,-142.857142857143,4,2,2,70,0,1
37530,-142.857142857143,4,2,2,5,0,1
37627,-142.857142857143,4,2,2,70,0,1
37724,-142.857142857143,4,2,2,5,0,1
37822,-142.857142857143,4,2,2,70,0,1
37919,-142.857142857143,4,2,2,5,0,1
38017,-142.857142857143,4,2,2,70,0,1
38114,-142.857142857143,4,2,2,70,0,1
38211,-142.857142857143,4,2,2,70,0,0
38991,-100,4,2,2,70,0,1
39283,-100,4,2,2,5,0,1
39380,-100,4,2,2,70,0,1
40062,-100,4,2,2,5,0,1
40159,-100,4,2,2,70,0,1
40257,-100,4,2,2,5,0,1
40354,-100,4,2,2,70,0,1
42107,-90.9090909090909,4,2,2,70,0,1
42400,-90.9090909090909,4,2,2,5,0,1
42497,-90.9090909090909,4,2,2,70,0,1
43179,-90.9090909090909,4,2,2,5,0,1
43276,-90.9090909090909,4,2,2,70,0,1
43374,-90.9090909090909,4,2,2,5,0,1
43471,-90.9090909090909,4,2,2,70,0,1
45517,-90.9090909090909,4,2,2,5,0,1
45614,-90.9090909090909,4,2,2,70,0,1
46296,-90.9090909090909,4,2,2,5,0,1
46393,-90.9090909090909,4,2,2,70,0,1
46491,-90.9090909090909,4,2,2,5,0,1
46588,-90.9090909090909,4,2,2,70,0,1
49900,-90.9090909090909,4,2,2,75,0,1
51068,-90.9090909090909,4,2,2,80,0,1
51458,-142.857142857143,4,2,2,50,0,0
58374,-142.857142857143,4,2,2,5,0,0
58471,-142.857142857143,4,2,2,50,0,0
63439,-142.857142857143,4,2,2,5,0,0
63536,-125,4,2,2,50,0,0
63828,-125,4,2,2,5,0,0
63926,-125,4,2,2,55,0,0
73276,-125,4,2,2,60,0,0
73666,-125,4,2,2,64,0,0
74055,-125,4,2,2,68,0,0
74445,-125,4,2,2,72,0,0
74835,-125,4,2,2,76,0,0
75224,-125,4,2,2,78,0,0
76393,-125,4,2,2,50,0,0

[Colours]
Combo1 : 192,130,255
Combo2 : 81,81,255
Combo3 : 119,181,255
Combo4 : 245,92,116

[HitObjects]
36,114,12497,6,0,P|103:104|156:65,1,131.99999597168,2|2,1:2|0:0,0:0:0:0:
274,113,13276,6,0,P|207:103|151:64,1,131.99999597168,2|2,0:3|0:0,0:0:0:0:
274,113,14055,6,0,P|341:103|397:64,1,131.99999597168,2|2,0:3|0:0,0:0:0:0:
393,67,14835,5,2,0:3:0:0:
350,254,15030,1,2,0:0:0:0:
370,179,15224,1,2,0:0:0:0:
331,327,15419,1,2,0:0:0:0:
498,179,15614,6,0,P|425:192|365:176,1,131.99999597168,2|2,0:3|0:0,0:0:0:0:
247,213,16393,6,0,P|318:208|374:173,1,131.99999597168,2|2,0:3|0:0,0:0:0:0:
247,213,16978,2,0,P|217:192|173:190,1,65.9999979858399,2|0,0:0|0:0,0:0:0:0:
121,188,17367,1,2,0:0:0:0:
251,321,17757,1,2,0:0:0:0:
251,321,17952,6,0,B|228:280|228:280|250:197,1,115.49999647522,2|0,0:3|0:0,0:0:0:0:
383,213,18341,2,0,B|406:254|406:254|380:341,1,132,2|0,0:0|0:0,0:0:0:0:
381,335,18731,1,2,1:3:0:0:
381,335,19120,5,2,0:0:0:0:
236,202,19315,2,0,L|243:248,1,44,2|0,0:0|0:0,0:0:0:0:
257,318,19510,1,8,0:0:0:0:
285,48,19705,1,2,0:0:0:0:
236,201,19900,1,2,0:0:0:0:
264,130,20094,1,2,0:0:0:0:
264,130,20484,5,2,0:0:0:0:
346,159,20679,1,2,0:0:0:0:
423,114,20874,1,2,0:0:0:0:
423,21,21068,5,10,3:2:0:0:
335,7,21263,1,2,3:2:0:0:
253,40,21458,1,2,3:2:0:0:
348,171,21653,1,2,3:2:0:0:
188,153,21848,1,2,0:3:0:0:
188,153,22237,5,2,0:0:0:0:
277,190,22432,1,2,0:0:0:0:
239,279,22627,1,10,3:2:0:0:
150,242,22822,1,2,3:2:0:0:
188,153,23017,1,2,3:2:0:0:
149,69,23211,1,2,3:2:0:0:
149,69,23601,5,2,0:0:0:0:
149,69,23991,1,2,0:0:0:0:
149,69,24185,6,0,P|201:81|265:66,1,115.49999647522,10|0,0:0|0:0,0:0:0:0:
372,67,24575,6,0,P|319:55|256:70,1,115.49999647522,2|0,0:0|0:0,0:0:0:0:
260,67,24965,1,2,0:0:0:0:
439,351,26133,6,0,L|446:301,1,38.4999988250733,8|0,0:3|0:0,0:0:0:0:
368,338,26328,2,0,L|377:285,1,38.4999988250733,8|0,0:3|0:0,0:0:0:0:
462,187,26523,6,0,L|438:352,1,165,6|0,1:2|0:0,0:0:0:0:
369,338,26913,2,0,P|321:352|272:303,1,110,2|2,0:0|1:3,0:0:0:0:
304,151,27205,1,2,0:3:0:0:
304,151,27302,2,0,B|400:139|369:194|461:182,1,165,10|0,0:2|0:0,0:0:0:0:
441,60,27692,6,0,L|431:122,1,55,2|0,0:0|0:0,0:0:0:0:
404,249,27887,1,0,1:2:0:0:
239,135,28081,6,0,B|240:134|227:190,1,38.4999988250733,2|0,0:0|0:0,0:0:0:0:
304,151,28276,2,0,L|293:202,1,38.4999988250733,2|0,1:2|0:0,0:0:0:0:
164,151,28471,6,0,L|180:98,1,38.4999988250733,2|0,1:2|0:0,0:0:0:0:
239,135,28666,2,0,L|228:186,1,38.4999988250733,2|2,0:3|0:3,0:0:0:0:
188,352,28861,5,10,0:2:0:0:
209,262,29055,1,2,1:2:0:0:
230,172,29250,1,2,0:0:0:0:
188,352,29445,1,2,0:0:0:0:
76,67,29640,6,0,B|40:75|29:104|29:104|76:226,1,165,2|0,1:2|0:0,0:0:0:0:
108,251,30030,2,0,P|162:269|212:248,1,110,2|2,0:0|1:3,0:0:0:0:
299,97,30322,1,2,0:3:0:0:
299,97,30419,2,0,B|194:78|242:144|130:121,1,165,10|0,0:2|0:0,0:0:0:0:
167,2,30809,6,0,L|180:99,1,55,2|0,1:2|0:0,0:0:0:0:
197,198,31004,1,0,1:2:0:0:
367,104,31198,6,0,B|366:101|360:158,1,38.4999988250733,2|0,0:0|0:0,0:0:0:0:
299,97,31393,2,0,L|292:147,1,38.4999988250733,2|0,1:2|0:0,0:0:0:0:
431,149,31588,6,0,L|436:102,1,38.4999988250733,2|0,1:2|0:0,0:0:0:0:
367,104,31783,2,0,L|360:154,1,38.4999988250733,2|2,0:3|0:3,0:0:0:0:
327,335,31978,5,10,0:2:0:0:
345,234,32172,1,0,1:2:0:0:
361,142,32367,1,2,0:0:0:0:
327,335,32562,1,0,0:0:0:0:
271,60,32757,6,1,B|244:117|309:151|309:151|351:128|400:156,1,165,2|0,1:2|0:0,0:0:0:0:
464,192,33146,2,0,P|473:132|482:74,1,110,2|2,0:0|1:3,0:0:0:0:
360,141,33439,1,2,0:3:0:0:
360,141,33536,2,0,B|348:220|348:220|344:224|344:224|329:317,1,165,10|0,0:2|0:0,0:0:0:0:
265,341,33926,6,0,B|236:347|236:347|192:335,1,55,2|0,1:2|0:0,0:0:0:0:
89,305,34120,1,0,1:2:0:0:
196,236,34315,6,0,B|196:237|204:180,1,38.4999988250733,2|0,0:0|0:0,0:0:0:0:
263,245,34510,2,0,L|271:193,1,38.4999988250733,2|0,1:2|0:0,0:0:0:0:
132,191,34705,6,0,L|126:241,1,38.4999988250733,2|0,1:2|0:0,0:0:0:0:
196,236,34900,2,0,L|204:184,1,38.4999988250733,2|2,0:3|0:3,0:0:0:0:
227,14,35094,5,10,0:2:0:0:
217,106,35289,1,2,1:2:0:0:
201,197,35484,1,2,0:0:0:0:
227,14,35679,1,2,0:0:0:0:
45,206,35874,6,0,B|4:245|4:245|26:291|26:291|26:297|26:297|53:353,1,165,2|0,1:2|0:0,0:0:0:0:
180,328,36263,2,0,L|202:203,1,110,2|2,0:0|1:3,0:0:0:0:
222,102,36555,1,2,0:3:0:0:
222,102,36653,2,0,B|318:90|287:145|379:133,1,165,10|0,0:2|0:0,0:0:0:0:
363,7,37042,6,0,L|354:69,1,55,2|0,1:2|0:0,0:0:0:0:
331,207,37237,1,0,1:2:0:0:
154,109,37432,6,0,B|155:106|161:163,1,38.4999988250733,2|0,0:0|0:0,0:0:0:0:
222,102,37627,2,0,L|229:152,1,38.4999988250733,2|0,1:2|0:0,0:0:0:0:
90,154,37822,6,0,L|85:107,1,38.4999988250733,2|0,1:2|0:0,0:0:0:0:
154,109,38017,2,0,L|161:159,1,38.4999988250733,2|2,0:3|0:3,0:0:0:0:
182,328,38211,5,10,0:2:0:0:
182,328,38991,6,0,B|239:360|280:351|280:351|299:327|339:314,1,165,6|0,1:2|0:0,0:0:0:0:
483,351,39380,2,0,P|426:347|402:298,1,110,2|2,0:0|1:3,0:0:0:0:
347,131,39672,1,2,0:3:0:0:
347,131,39770,2,0,B|235:116|290:179|181:160,1,165,10|0,0:2|0:0,0:0:0:0:
200,34,40159,6,0,L|211:104,1,55,2|0,0:0|0:0,0:0:0:0:
237,246,40354,1,0,1:2:0:0:
347,131,40549,5,2,0:0:0:0:
388,72,40744,1,2,1:2:0:0:
317,62,40939,1,2,1:2:0:0:
347,131,41133,1,2,0:3:0:0:
424,294,41328,5,10,0:2:0:0:
379,216,41523,1,2,1:2:0:0:
332,291,41718,1,2,0:0:0:0:
287,366,41913,1,2,0:0:0:0:
211,188,42107,6,0,B|137:192|137:192|112:212|112:212|30:218,1,181.500005538941,2|0,1:2|0:0,0:0:0:0:
47,129,42497,2,0,P|30:68|70:22,1,121.000003692627,2|2,0:0|1:3,0:0:0:0:
223,25,42789,1,2,0:3:0:0:
223,25,42887,2,0,B|257:78|257:78|205:200,1,181.500005538941,10|0,0:2|0:0,0:0:0:0:
68,338,43276,6,0,P|61:273|57:231,1,60.5000018463135,2|0,1:2|0:0,0:0:0:0:
47,129,43471,1,0,1:2:0:0:
240,257,43666,5,2,0:0:0:0:
165,241,43861,1,2,1:2:0:0:
210,187,44055,1,2,1:2:0:0:
315,39,44250,5,2,0:3:0:0:
262,119,44445,1,10,0:2:0:0:
358,115,44640,1,0,1:2:0:0:
454,111,44835,1,2,0:0:0:0:
401,198,45030,1,2,0:0:0:0:
237,46,45224,6,0,B|178:20|178:20|132:45|132:45|126:45|126:45|64:79,1,181.500005538941,2|0,1:2|0:0,0:0:0:0:
163,219,45614,2,0,L|178:87,1,121.000003692627,2|2,0:0|1:3,0:0:0:0:
3,23,45906,1,2,0:3:0:0:
3,23,46004,2,0,P|10:103|20:217,1,181.500005538941,10|0,0:2|0:0,0:0:0:0:
131,279,46393,6,0,B|163:288|163:288|209:274,1,60.5000018463135,2|0,1:2|0:0,0:0:0:0:
352,219,46588,1,0,1:2:0:0:
238,80,46783,5,2,0:0:0:0:
181,30,46978,1,2,1:2:0:0:
165,101,47172,1,2,1:2:0:0:
257,339,47367,5,2,0:3:0:0:
222,248,47562,1,10,0:2:0:0:
316,269,47757,1,0,1:2:0:0:
413,293,47952,1,2,0:0:0:0:
413,293,48146,1,2,0:0:0:0:
391,91,48341,5,2,1:2:0:0:
365,159,48536,1,2,0:0:0:0:
317,104,48731,1,2,0:0:0:0:
201,21,48926,1,2,1:3:0:0:
201,21,49023,1,2,0:3:0:0:
201,21,49120,6,0,B|207:74|207:74|204:83|204:83|215:169,1,121.000003692627,10|2,0:2|0:0,0:0:0:0:
225,257,49510,1,2,1:2:0:0:
239,338,49705,1,2,1:2:0:0:
301,281,49900,5,2,0:0:0:0:
166,307,50094,1,2,1:2:0:0:
88,328,50289,1,2,1:2:0:0:
88,328,50484,1,2,0:3:0:0:
26,112,50679,5,10,0:0:0:0:
26,112,51068,1,2,0:0:0:0:
26,112,51458,6,0,P|95:136|180:134,1,153.999995300293,2|2,1:2|0:0,0:0:0:0:
303,57,52237,6,0,P|246:106|167:136,1,153.999995300293,2|2,0:0|0:0,0:0:0:0:
303,57,53017,6,0,P|371:83|456:85,1,153.999995300293,0|2,0:0|0:0,0:0:0:0:
451,85,53796,1,2,0:0:0:0:
451,85,53991,2,0,P|441:151|426:245,1,153.999995300293,2|2,0:0|0:0,0:0:0:0:
322,243,54575,2,0,B|286:255|280:287|280:287|325:378,2,153.999995300293,2|2|2,0:0|0:0|0:0,0:0:0:0:
458,84,55744,1,2,0:0:0:0:
458,84,55939,6,0,P|415:77|386:55,1,76.9999976501466,2|0,0:0|0:0,0:0:0:0:
333,171,56328,2,0,P|364:147|410:141,1,76.9999976501466,2|2,0:0|0:0,0:0:0:0:
309,79,56718,1,2,0:0:0:0:
309,79,56913,1,2,0:0:0:0:
196,191,57302,1,2,0:0:0:0:
51,60,57692,1,2,1:2:0:0:
51,60,58081,5,2,0:0:0:0:
196,191,58276,2,0,L|206:133,1,38.4999988250733,2|0,0:0|0:0,0:0:0:0:
217,75,58471,1,2,0:0:0:0:
129,142,58666,1,2,0:0:0:0:
196,191,58861,1,2,0:0:0:0:
242,261,59055,1,2,0:0:0:0:
242,261,59445,5,2,0:0:0:0:
273,184,59640,1,2,0:0:0:0:
196,192,59835,1,2,0:0:0:0:
326,249,60030,5,2,0:0:0:0:
350,175,60224,1,2,0:0:0:0:
372,101,60419,1,2,0:0:0:0:
450,122,60614,1,2,0:0:0:0:
450,122,60809,1,2,0:0:0:0:
450,122,61198,5,2,0:0:0:0:
434,213,61393,1,2,0:0:0:0:
343,192,61588,1,2,0:0:0:0:
361,104,61783,1,2,0:0:0:0:
361,104,61978,1,2,0:0:0:0:
301,33,62172,1,2,0:0:0:0:
301,33,62562,5,2,0:0:0:0:
301,33,62952,1,2,0:0:0:0:
301,33,63146,6,0,P|254:50|184:40,1,115.49999647522,2|0,0:0|0:0,0:0:0:0:
63,42,63536,2,0,P|117:26|191:43,1,132,2|0,1:2|0:0,0:0:0:0:
189,42,63926,6,0,B|192:87|151:120|151:120|128:171|147:216,1,176,6|2,1:2|0:0,0:0:0:0:
279,343,64705,2,0,B|347:364|347:364|460:322,1,176,10|2,0:2|0:0,0:0:0:0:
445,327,65289,1,2,0:0:0:0:
499,169,65484,5,2,0:0:0:0:
479,237,65679,1,2,0:0:0:0:
426,191,65874,1,2,0:0:0:0:
426,191,66068,1,2,0:0:0:0:
260,153,66263,5,10,0:2:0:0:
278,76,66458,1,2,0:0:0:0:
344,127,66653,1,2,0:0:0:0:
344,127,66848,1,2,0:0:0:0:
479,68,67042,6,0,B|460:112|483:149|483:149|508:194|479:248,1,176,2|2,0:0|0:0,0:0:0:0:
330,352,67822,2,0,B|256:342|256:342|227:358|227:358|152:346,1,176,10|2,0:2|0:0,0:0:0:0:
159,347,68406,1,2,0:0:0:0:
17,187,68601,5,2,0:0:0:0:
78,233,68796,1,2,0:0:0:0:
90,159,68991,1,2,0:0:0:0:
90,159,69185,1,2,0:0:0:0:
238,370,69380,5,10,0:2:0:0:
212,296,69575,1,0,3:2:0:0:
163,352,69770,1,2,0:0:0:0:
163,352,69964,1,0,3:2:0:0:
284,199,70159,6,0,B|308:175|312:149|312:149|229:28,1,176,2|2,1:2|0:0,0:0:0:0:
163,352,70939,2,0,B|274:321|232:393|351:358,1,176,10|2,0:2|0:2,0:0:0:0:
333,362,71523,1,2,3:2:0:0:
467,252,71718,5,2,0:0:0:0:
407,208,71913,1,2,0:0:0:0:
396,283,72107,1,2,0:0:0:0:
396,283,72302,1,2,0:0:0:0:
263,252,72497,5,10,3:2:0:0:
293,181,72692,1,2,3:2:0:0:
216,191,72887,1,2,3:2:0:0:
216,191,73081,1,2,3:2:0:0:
477,67,73276,5,2,3:2:0:0:
386,25,73471,1,2,3:2:0:0:
395,126,73666,1,2,3:2:0:0:
395,126,73861,1,2,3:2:0:0:
120,133,74055,5,10,3:2:0:0:
215,17,74250,1,2,3:2:0:0:
293,146,74445,1,2,3:2:0:0:
293,146,74640,1,2,3:2:0:0:
192,350,74835,5,2,3:2:0:0:
120,133,75030,1,2,3:2:0:0:
14,348,75224,1,2,3:2:0:0:
209,173,75419,1,2,3:2:0:0:
423,350,75614,5,8,0:2:0:0:
423,350,76393,1,2,0:0:0:0:
