osu file format v14

[General]
AudioFilename: audio.mp3
AudioLeadIn: 0
PreviewTime: -1
Countdown: 1
SampleSet: None
StackLeniency: 1
Mode: 0
LetterboxInBreaks: 1
StoryFireInFront: 0
EpilepsyWarning: 1
WidescreenStoryboard: 1

[Editor]
DistanceSpacing: 1.3
BeatDivisor: 4
GridSize: 4
TimelineZoom: 1

[Metadata]
Title:BANANA STREET
TitleUnicode:BANANA STREET
Artist:dark cat
ArtistUnicode:dark cat
Creator:CanDyFloS
Version:Four dimensions
Source:Dark cat SC
Tags:Candyflos Dark cat banana snails
BeatmapID:1485604
BeatmapSetID:702088

[Difficulty]
HPDrainRate:9
CircleSize:5
OverallDifficulty:5
ApproachRate:10
SliderMultiplier:1.4
SliderTickRate:1

[Events]
//Background and Video events
//Break Periods
2,35069,39679
2,157407,166985
//Storyboard Layer 0 (Background)
//Storyboard Layer 1 (Fail)
//Storyboard Layer 2 (Pass)
//Storyboard Layer 3 (Foreground)
//Storyboard Sound Samples

[TimingPoints]
0,389.61038961039,4,2,1,100,1,0

[HitObjects]
96,68,0,5,0,0:0:0:0:
96,68,3506,1,0,0:0:0:0:
444,300,4383,1,0,0:0:0:0:
132,152,4577,1,0,0:0:0:0:
504,308,5454,1,0,0:0:0:0:
272,128,5746,1,0,0:0:0:0:
344,244,6038,1,0,0:0:0:0:
344,244,6525,1,0,0:0:0:0:
144,240,7110,1,0,0:0:0:0:
344,244,7305,1,0,0:0:0:0:
344,244,7889,1,0,0:0:0:0:
308,236,8279,1,0,0:0:0:0:
152,228,8668,1,0,0:0:0:0:
360,128,9155,1,0,0:0:0:0:
320,200,9350,1,0,0:0:0:0:
360,128,9740,1,0,0:0:0:0:
320,200,10032,1,0,0:0:0:0:
408,80,10519,1,0,0:0:0:0:
404,104,10616,1,0,0:0:0:0:
172,284,11298,1,0,0:0:0:0:
492,124,12077,1,0,0:0:0:0:
120,88,12175,1,0,0:0:0:0:
328,212,12662,1,0,0:0:0:0:
328,212,12954,1,0,0:0:0:0:
128,208,13051,1,0,0:0:0:0:
180,216,13149,1,0,0:0:0:0:
380,264,13636,1,0,0:0:0:0:
456,244,13733,1,0,0:0:0:0:
416,276,13831,1,0,0:0:0:0:
436,288,14318,1,0,0:0:0:0:
436,288,14610,1,0,0:0:0:0:
436,288,14805,1,0,0:0:0:0:
52,268,15681,1,0,0:0:0:0:
156,276,15876,1,0,0:0:0:0:
272,284,16168,1,0,0:0:0:0:
340,284,16363,1,0,0:0:0:0:
272,284,16558,1,0,0:0:0:0:
480,284,16850,1,0,0:0:0:0:
396,284,17045,1,0,0:0:0:0:
320,276,17240,1,0,0:0:0:0:
320,276,17435,1,0,0:0:0:0:
264,236,17629,1,0,0:0:0:0:
320,276,17727,1,0,0:0:0:0:
320,276,17922,1,0,0:0:0:0:
188,312,18116,1,0,0:0:0:0:
320,276,18311,1,0,0:0:0:0:
320,276,19090,1,0,0:0:0:0:
320,276,19285,1,0,0:0:0:0:
320,276,19772,1,0,0:0:0:0:
320,276,20064,1,0,0:0:0:0:
468,172,20454,1,0,0:0:0:0:
380,236,20649,1,0,0:0:0:0:
368,284,21038,1,0,0:0:0:0:
424,288,21428,1,0,0:0:0:0:
396,88,21915,1,0,0:0:0:0:
384,180,22110,1,0,0:0:0:0:
240,300,22500,1,0,0:0:0:0:
284,164,22792,1,0,0:0:0:0:
184,224,23084,1,0,0:0:0:0:
184,224,23279,1,0,0:0:0:0:
72,280,23571,1,0,0:0:0:0:
72,280,23766,1,0,0:0:0:0:
8,96,24155,1,0,0:0:0:0:
72,200,24448,1,0,0:0:0:0:
164,200,24642,1,0,0:0:0:0:
256,272,24935,1,0,0:0:0:0:
152,216,25227,1,0,0:0:0:0:
148,332,25519,1,0,0:0:0:0:
48,236,26006,1,0,0:0:0:0:
444,48,26980,1,0,0:0:0:0:
312,112,27272,1,0,0:0:0:0:
196,136,27564,1,0,0:0:0:0:
92,156,27857,1,0,0:0:0:0:
72,88,28051,1,0,0:0:0:0:
160,64,28246,1,0,0:0:0:0:
244,116,28441,1,0,0:0:0:0:
216,248,28733,1,0,0:0:0:0:
104,204,29902,2,0,B|400:180|48:248,3,315
320,232,33116,2,0,P|272:240|104:232,3,210
111,233,40129,6,0,P|316:248|312:232,2,385
116,164,44415,1,0,0:0:0:0:
192,224,45292,1,0,0:0:0:0:
488,280,45974,1,0,0:0:0:0:
196,236,46655,1,0,0:0:0:0:
176,248,47240,1,0,0:0:0:0:
116,248,47922,1,0,0:0:0:0:
440,196,48701,2,0,B|224:188|168:308|168:312,4,280
196,264,49285,1,0,0:0:0:0:
452,248,49870,1,0,0:0:0:0:
240,252,50357,1,0,0:0:0:0:
344,252,50649,1,0,0:0:0:0:
344,252,50941,1,0,0:0:0:0:
344,252,51136,1,0,0:0:0:0:
376,360,51428,1,0,0:0:0:0:
344,252,51720,1,0,0:0:0:0:
344,252,52012,1,0,0:0:0:0:
312,216,53571,2,0,L|264:224,17,35
120,180,58441,1,0,0:0:0:0:
212,384,58928,1,0,0:0:0:0:
356,112,59610,1,0,0:0:0:0:
44,164,60292,1,0,0:0:0:0:
372,168,60974,1,0,0:0:0:0:
64,160,61655,1,0,0:0:0:0:
416,172,62435,1,0,0:0:0:0:
112,264,63116,1,0,0:0:0:0:
268,216,63506,1,0,0:0:0:0:
80,372,63993,1,0,0:0:0:0:
176,292,64285,1,0,0:0:0:0:
352,144,64772,1,0,0:0:0:0:
264,216,65064,1,0,0:0:0:0:
216,264,65259,1,0,0:0:0:0:
356,124,65649,1,0,0:0:0:0:
280,200,65941,1,0,0:0:0:0:
220,260,66136,1,0,0:0:0:0:
296,184,66428,1,0,0:0:0:0:
240,240,66623,1,0,0:0:0:0:
240,240,66818,1,0,0:0:0:0:
240,240,67207,1,0,0:0:0:0:
240,240,67500,1,0,0:0:0:0:
240,240,67597,1,0,0:0:0:0:
492,252,68181,1,0,0:0:0:0:
220,96,68863,1,0,0:0:0:0:
152,208,69837,1,0,0:0:0:0:
440,60,70519,1,0,0:0:0:0:
172,224,71201,1,0,0:0:0:0:
196,152,71883,1,0,0:0:0:0:
196,152,72370,1,0,0:0:0:0:
372,164,72759,1,0,0:0:0:0:
100,276,73441,1,0,0:0:0:0:
404,224,74123,1,0,0:0:0:0:
140,108,74707,1,0,0:0:0:0:
344,288,75292,1,0,0:0:0:0:
216,152,75681,1,0,0:0:0:0:
204,348,76168,1,0,0:0:0:0:
152,284,76363,1,0,0:0:0:0:
236,32,76948,1,0,0:0:0:0:
212,124,77142,1,0,0:0:0:0:
180,304,77532,1,0,0:0:0:0:
200,196,77824,1,0,0:0:0:0:
388,356,78409,1,0,0:0:0:0:
324,264,78701,1,0,0:0:0:0:
324,264,78993,1,0,0:0:0:0:
292,112,79383,1,0,0:0:0:0:
156,184,79772,1,0,0:0:0:0:
256,172,79967,1,0,0:0:0:0:
156,228,80259,1,0,0:0:0:0:
232,204,80454,1,0,0:0:0:0:
128,236,80746,1,0,0:0:0:0:
196,184,80941,1,0,0:0:0:0:
204,80,81136,1,0,0:0:0:0:
276,196,81428,1,0,0:0:0:0:
380,124,81720,1,0,0:0:0:0:
276,176,82012,1,0,0:0:0:0:
360,136,82207,1,0,0:0:0:0:
140,260,82792,1,0,0:0:0:0:
340,156,83279,1,0,0:0:0:0:
192,364,83863,1,0,0:0:0:0:
272,296,84058,1,0,0:0:0:0:
376,232,84350,1,0,0:0:0:0:
144,48,85032,1,0,0:0:0:0:
192,308,85616,1,0,0:0:0:0:
384,128,86201,1,0,0:0:0:0:
124,260,86883,1,0,0:0:0:0:
420,264,87564,1,0,0:0:0:0:
140,228,88149,1,0,0:0:0:0:
116,136,88733,1,0,0:0:0:0:
348,200,89220,1,0,0:0:0:0:
200,348,89707,1,0,0:0:0:0:
4,204,90292,1,0,0:0:0:0:
300,256,90974,1,0,0:0:0:0:
20,300,91558,1,0,0:0:0:0:
216,104,92142,1,0,0:0:0:0:
432,208,92629,1,0,0:0:0:0:
316,228,92922,1,0,0:0:0:0:
356,292,93116,1,0,0:0:0:0:
72,252,93701,1,0,0:0:0:0:
72,252,94188,1,0,0:0:0:0:
72,252,94383,1,0,0:0:0:0:
72,252,94577,1,0,0:0:0:0:
72,252,94772,1,0,0:0:0:0:
128,20,95259,1,0,0:0:0:0:
236,240,95746,1,0,0:0:0:0:
180,132,96038,1,0,0:0:0:0:
228,208,96233,1,0,0:0:0:0:
416,160,96623,1,0,0:0:0:0:
304,204,96915,1,0,0:0:0:0:
320,296,97110,1,0,0:0:0:0:
244,176,97402,1,0,0:0:0:0:
140,228,97694,1,0,0:0:0:0:
64,288,97889,1,0,0:0:0:0:
136,172,98181,1,0,0:0:0:0:
36,92,98474,1,0,0:0:0:0:
132,148,98766,1,0,0:0:0:0:
148,256,99058,1,0,0:0:0:0:
224,360,99350,1,0,0:0:0:0:
256,280,99545,1,0,0:0:0:0:
296,192,99740,1,0,0:0:0:0:
280,308,100032,1,0,0:0:0:0:
292,204,100227,1,0,0:0:0:0:
408,260,100519,1,0,0:0:0:0:
308,220,100811,1,0,0:0:0:0:
380,252,101006,1,0,0:0:0:0:
220,252,101396,1,0,0:0:0:0:
116,308,101688,1,0,0:0:0:0:
236,168,102077,1,0,0:0:0:0:
60,336,102662,1,0,0:0:0:0:
200,80,103344,1,0,0:0:0:0:
156,360,103928,1,0,0:0:0:0:
168,4,104707,1,0,0:0:0:0:
160,252,105292,1,0,0:0:0:0:
436,188,105876,1,0,0:0:0:0:
108,224,106558,1,0,0:0:0:0:
372,288,107142,1,0,0:0:0:0:
272,264,107337,1,0,0:0:0:0:
160,232,107629,1,0,0:0:0:0:
232,256,107824,1,0,0:0:0:0:
148,228,108019,1,0,0:0:0:0:
248,244,108214,1,0,0:0:0:0:
360,268,108506,1,0,0:0:0:0:
360,268,108701,1,0,0:0:0:0:
264,228,108896,1,0,0:0:0:0:
148,276,109188,1,0,0:0:0:0:
44,264,109967,1,0,0:0:0:0:
148,216,110259,1,0,0:0:0:0:
88,240,110454,1,0,0:0:0:0:
0,264,110649,1,0,0:0:0:0:
116,244,110941,1,0,0:0:0:0:
124,168,111136,1,0,0:0:0:0:
124,168,111331,1,0,0:0:0:0:
224,128,111525,1,0,0:0:0:0:
348,88,111818,1,0,0:0:0:0:
248,132,112110,1,0,0:0:0:0:
316,108,112305,1,0,0:0:0:0:
488,144,112694,1,0,0:0:0:0:
360,164,112987,1,0,0:0:0:0:
332,268,113279,1,0,0:0:0:0:
348,200,113474,1,0,0:0:0:0:
136,112,115422,2,0,L|184:296,13,175
440,140,122435,2,0,L|92:224,2,350
60,264,125551,1,0,0:0:0:0:
208,256,125844,1,0,0:0:0:0:
384,184,126233,1,0,0:0:0:0:
160,124,126720,1,0,0:0:0:0:
108,368,127305,1,0,0:0:0:0:
284,232,127792,1,0,0:0:0:0:
452,88,128279,1,0,0:0:0:0:
272,148,128668,1,0,0:0:0:0:
108,160,129058,1,0,0:0:0:0:
200,300,129448,1,0,0:0:0:0:
368,156,129935,1,0,0:0:0:0:
136,328,130616,1,0,0:0:0:0:
48,212,131201,1,0,0:0:0:0:
240,80,131688,1,0,0:0:0:0:
476,280,132370,1,0,0:0:0:0:
140,220,133149,1,0,0:0:0:0:
380,96,133733,1,0,0:0:0:0:
144,272,134415,1,0,0:0:0:0:
228,4,135000,1,0,0:0:0:0:
196,296,135681,1,0,0:0:0:0:
388,172,136168,1,0,0:0:0:0:
144,272,136753,1,0,0:0:0:0:
432,248,137337,1,0,0:0:0:0:
148,268,137922,1,0,0:0:0:0:
148,268,138311,1,0,0:0:0:0:
148,268,138506,1,0,0:0:0:0:
240,272,138701,1,0,0:0:0:0:
140,268,138896,1,0,0:0:0:0:
248,272,139188,1,0,0:0:0:0:
180,268,139383,1,0,0:0:0:0:
180,268,139480,1,0,0:0:0:0:
180,268,139675,1,0,0:0:0:0:
180,268,139870,1,0,0:0:0:0:
180,268,140064,1,0,0:0:0:0:
180,268,140649,1,0,0:0:0:0:
180,268,140844,1,0,0:0:0:0:
248,240,141038,5,0,0:0:0:0:
300,236,141136,1,0,0:0:0:0:
344,232,141233,1,0,0:0:0:0:
380,228,141331,1,0,0:0:0:0:
380,228,141428,1,0,0:0:0:0:
296,256,141623,5,0,0:0:0:0:
232,276,141818,5,0,0:0:0:0:
48,332,142305,1,0,0:0:0:0:
96,228,144837,1,0,0:0:0:0:
180,216,145032,1,0,0:0:0:0:
256,196,145227,1,0,0:0:0:0:
240,132,145422,1,0,0:0:0:0:
260,188,145519,1,0,0:0:0:0:
160,212,145714,1,0,0:0:0:0:
272,212,146006,1,0,0:0:0:0:
204,224,146201,1,0,0:0:0:0:
272,212,146396,1,0,0:0:0:0:
208,232,146590,1,0,0:0:0:0:
260,224,146688,1,0,0:0:0:0:
356,212,146883,1,0,0:0:0:0:
256,228,147077,5,0,0:0:0:0:
352,224,147272,1,0,0:0:0:0:
316,224,147370,1,0,0:0:0:0:
352,224,147467,1,0,0:0:0:0:
352,224,147564,5,0,0:0:0:0:
352,224,147662,1,0,0:0:0:0:
352,224,147759,1,0,0:0:0:0:
352,224,147857,5,0,0:0:0:0:
352,224,148051,1,0,0:0:0:0:
352,224,148149,1,0,0:0:0:0:
352,224,148538,1,0,0:0:0:0:
352,224,148733,1,0,0:0:0:0:
352,224,148928,1,0,0:0:0:0:
352,224,149123,1,0,0:0:0:0:
352,224,149318,1,0,0:0:0:0:
352,224,149415,1,0,0:0:0:0:
352,224,149707,1,0,0:0:0:0:
352,224,149902,1,0,0:0:0:0:
272,220,150097,1,0,0:0:0:0:
196,268,150292,1,0,0:0:0:0:
88,236,150584,1,0,0:0:0:0:
88,164,150779,1,0,0:0:0:0:
168,164,150974,1,0,0:0:0:0:
256,184,151168,1,0,0:0:0:0:
244,292,151461,1,0,0:0:0:0:
180,312,151655,1,0,0:0:0:0:
144,244,151850,1,0,0:0:0:0:
140,148,152045,1,0,0:0:0:0:
288,136,153116,1,0,0:0:0:0:
220,232,153993,1,0,0:0:0:0:
304,248,154772,1,0,0:0:0:0:
20,296,155357,1,0,0:0:0:0:
268,216,155941,1,0,0:0:0:0:
56,372,156525,1,0,0:0:0:0:
212,280,156915,1,0,0:0:0:0:
308,232,157207,1,0,0:0:0:0:
176,108,167435,5,0,0:0:0:0:
152,184,168116,1,0,0:0:0:0:
148,204,168798,1,0,0:0:0:0:
312,360,169285,1,0,0:0:0:0:
224,264,169577,1,0,0:0:0:0:
324,232,170357,1,0,0:0:0:0:
0,260,171038,1,0,0:0:0:0:
112,252,171331,1,0,0:0:0:0:
216,248,171525,1,0,0:0:0:0:
456,240,172012,1,0,0:0:0:0:
292,248,172402,1,0,0:0:0:0:
380,224,172597,1,0,0:0:0:0:
64,288,173279,1,0,0:0:0:0:
192,256,173571,1,0,0:0:0:0:
192,256,173766,1,0,0:0:0:0:
392,180,174253,1,0,0:0:0:0:
356,280,174935,1,0,0:0:0:0:
356,280,175227,1,0,0:0:0:0:
356,280,175422,1,0,0:0:0:0:
252,292,175616,1,0,0:0:0:0:
132,340,175909,1,0,0:0:0:0:
216,308,176103,1,0,0:0:0:0:
304,256,176883,1,0,0:0:0:0:
304,256,177077,1,0,0:0:0:0:
304,256,177272,1,0,0:0:0:0:
116,248,178051,1,0,0:0:0:0:
116,248,178246,1,0,0:0:0:0:
116,248,178441,1,0,0:0:0:0:
340,244,178928,1,0,0:0:0:0:
252,240,179123,1,0,0:0:0:0:
340,248,179318,1,0,0:0:0:0:
260,240,179512,1,0,0:0:0:0:
340,248,179707,1,0,0:0:0:0:
252,240,179902,1,0,0:0:0:0:
344,248,180097,1,0,0:0:0:0:
248,240,180292,1,0,0:0:0:0:
344,248,180487,1,0,0:0:0:0:
204,236,180779,1,0,0:0:0:0:
308,244,180974,1,0,0:0:0:0:
204,236,181168,1,0,0:0:0:0:
76,232,181461,1,0,0:0:0:0:
188,244,181753,1,0,0:0:0:0:
112,236,181948,1,0,0:0:0:0:
180,252,182142,1,0,0:0:0:0:
100,232,182337,1,0,0:0:0:0:
180,252,182532,1,0,0:0:0:0:
96,228,182727,1,0,0:0:0:0:
188,256,182922,1,0,0:0:0:0:
88,224,183116,1,0,0:0:0:0:
192,256,183409,1,0,0:0:0:0:
124,236,183603,1,0,0:0:0:0:
124,236,183798,1,0,0:0:0:0:
124,236,183993,1,0,0:0:0:0:
124,236,184188,1,0,0:0:0:0:
124,236,184383,1,0,0:0:0:0:
124,236,184577,1,0,0:0:0:0:
124,236,184772,1,0,0:0:0:0:
124,236,184967,1,0,0:0:0:0:
124,236,185259,1,0,0:0:0:0:
124,236,185357,1,0,0:0:0:0:
124,236,185649,1,0,0:0:0:0:
124,236,185844,1,0,0:0:0:0:
124,236,186038,1,0,0:0:0:0:
124,236,186233,1,0,0:0:0:0:
124,236,186525,1,0,0:0:0:0:
124,236,186720,1,0,0:0:0:0:
124,236,186915,1,0,0:0:0:0:
136,108,187207,1,0,0:0:0:0:
116,236,187500,1,0,0:0:0:0:
144,48,187889,1,0,0:0:0:0:
124,196,188181,1,0,0:0:0:0:
140,24,188571,1,0,0:0:0:0:
128,144,188863,1,0,0:0:0:0:
124,240,189058,1,0,0:0:0:0:
128,120,189350,1,0,0:0:0:0:
124,220,189545,1,0,0:0:0:0:
132,84,189837,1,0,0:0:0:0:
124,208,190129,1,0,0:0:0:0:
132,100,190324,1,0,0:0:0:0:
120,236,190616,1,0,0:0:0:0:
132,104,190909,1,0,0:0:0:0:
124,220,191201,1,0,0:0:0:0:
128,128,191396,1,0,0:0:0:0:
124,240,191688,1,0,0:0:0:0:
128,140,191883,1,0,0:0:0:0:
124,264,192175,1,0,0:0:0:0:
128,152,192370,1,0,0:0:0:0:
128,152,192954,1,0,0:0:0:0:
128,152,193441,1,0,0:0:0:0:
128,152,193733,1,0,0:0:0:0:
464,132,194512,1,0,0:0:0:0:
104,300,195389,1,0,0:0:0:0:
448,256,196168,1,0,0:0:0:0:
100,204,196948,1,0,0:0:0:0:
404,284,197629,1,0,0:0:0:0:
120,132,198311,1,0,0:0:0:0:
424,296,199090,1,0,0:0:0:0:
272,264,202012,1,0,0:0:0:0:
