osu file format v14

[General]
AudioFilename: audio.mp3
AudioLeadIn: 0
PreviewTime: -1
Countdown: 1
SampleSet: None
StackLeniency: 0.2
Mode: 0
LetterboxInBreaks: 0
WidescreenStoryboard: 0

[Editor]
DistanceSpacing: 0.7
BeatDivisor: 2
GridSize: 8
TimelineZoom: 1

[Metadata]
Title:BUBBLE TEA
TitleUnicode:BUBBLE TEA
Artist:dark cat (ft. juu & cinders)
ArtistUnicode:dark cat (ft. juu & cinders)
Creator:Yuuki Konno
Version:Crazy shit bro
Source:
Tags:
BeatmapID:1805590
BeatmapSetID:863210

[Difficulty]
HPDrainRate:5
CircleSize:3
OverallDifficulty:6
ApproachRate:9.2
SliderMultiplier:1.4
SliderTickRate:1

[Events]
//Background and Video events
//Break Periods
2,36441,41671
2,66440,71671
//Storyboard Layer 0 (Background)
//Storyboard Layer 1 (Fail)
//Storyboard Layer 2 (Pass)
//Storyboard Layer 3 (Foreground)
//Storyboard Sound Samples

[TimingPoints]
9241,375,4,1,0,100,1,0
42241,-80,4,1,0,100,0,0
72241,-66.6666666666667,4,1,0,100,0,0

[HitObjects]
152,232,9241,5,8,0:0:0:0:
260,77,9803,1,0,0:0:0:0:
340,248,10366,1,8,0:0:0:0:
164,128,10928,5,8,0:0:0:0:
244,299,11490,1,0,0:0:0:0:
328,152,12053,1,2,0:0:0:0:
352,144,12241,1,0,0:0:0:0:
376,136,12428,1,2,0:0:0:0:
440,184,12616,6,0,L|400:120,1,70
400,32,13366,5,0,0:0:0:0:
314,84,14116,2,0,L|354:148,1,70
296,304,14866,2,0,L|331:237,1,70
263,178,15803,6,0,L|223:242,1,70
99,175,16178,2,0,L|139:239,1,70
264,80,16553,2,0,L|224:16,1,70
100,83,16928,2,0,L|140:19,1,70
99,175,17303,1,0,0:0:0:0:
156,303,17491,5,0,0:0:0:0:
191,167,17678,1,0,0:0:0:0:
254,292,17866,1,0,0:0:0:0:
99,175,18053,1,0,0:0:0:0:
283,154,18241,5,2,0:0:0:0:
227,82,18428,2,0,L|158:66,1,70,2|0,0:0|0:0,0:0:0:0:
260,169,18803,5,2,0:0:0:0:
204,84,18990,2,0,L|135:68,1,70,2|0,0:0|0:0,0:0:0:0:
235,184,19366,5,2,0:0:0:0:
132,163,19553,1,2,0:0:0:0:
161,264,19741,2,0,L|229:279,1,70,2|0,0:0|0:0,0:0:0:0:
41,311,20116,2,0,L|56:242,1,70
198,142,20491,2,0,L|131:162,1,70,2|0,0:0|0:0,0:0:0:0:
32,80,20866,2,0,L|32:152,1,70
161,264,21241,5,2,0:0:0:0:
256,240,21428,1,0,0:0:0:0:
232,336,21616,1,0,0:0:0:0:
192,173,21803,5,2,0:0:0:0:
326,309,21990,1,0,0:0:0:0:
137,362,22178,1,0,0:0:0:0:
232,336,22366,5,2,0:0:0:0:
161,264,22553,1,0,0:0:0:0:
256,240,22741,1,0,0:0:0:0:
137,362,22928,5,2,0:0:0:0:
72,288,23116,1,0,0:0:0:0:
96,192,23303,1,0,0:0:0:0:
192,173,23491,2,0,L|256:136,1,70,2|0,0:0|0:0,0:0:0:0:
336,136,23866,5,2,0:0:0:0:
361,144,24053,1,0,0:0:0:0:
384,152,24241,1,10,0:0:0:0:
232,24,24616,6,0,L|296:61,1,70,0|8,0:0|0:0,0:0:0:0:
96,192,25366,1,8,0:0:0:0:
184,104,26116,6,0,L|248:141,1,70
48,272,26866,1,8,0:0:0:0:
144,272,27053,1,8,0:0:0:0:
203,309,27803,6,0,L|139:269,1,70,8|0,0:0|0:0,0:0:0:0:
206,145,28178,2,0,L|142:185,1,70,0|8,0:0|0:0,0:0:0:0:
285,100,28553,2,0,L|351:64,1,70
425,184,28928,2,0,L|422:108,1,70,8|0,0:0|0:0,0:0:0:0:
336,224,29303,5,2,0:0:0:0:
488,256,29491,1,8,0:0:0:0:
344,320,29678,1,0,0:0:0:0:
425,184,29866,1,2,0:0:0:0:
440,336,30053,1,0,0:0:0:0:
349,126,30241,5,10,0:0:0:0:
272,56,30428,2,0,L|192:62,1,70,2|0,0:0|0:0,0:0:0:0:
336,136,30803,5,10,0:0:0:0:
259,66,30990,2,0,L|179:72,1,70,2|0,0:0|0:0,0:0:0:0:
240,160,31366,6,0,P|224:184|264:176,1,70,8|0,0:0|0:0,0:0:0:0:
72,144,31741,6,0,L|151:150,1,70,2|8,0:0|0:0,0:0:0:0:
176,0,32116,2,0,L|169:79,1,70,2|0,0:0|0:0,0:0:0:0:
328,40,32491,2,0,L|255:73,1,70,10|0,0:0|0:0,0:0:0:0:
233,229,32866,2,8,L|239:149,1,70,10|8,0:0|0:0,0:0:0:0:
344,232,33241,5,2,0:0:0:0:
438,256,33428,1,0,0:0:0:0:
414,160,33616,1,0,0:0:0:0:
374,323,33803,5,10,0:0:0:0:
508,187,33990,1,0,0:0:0:0:
319,134,34178,1,0,0:0:0:0:
233,229,34366,5,10,0:0:0:0:
139,253,34553,1,0,0:0:0:0:
163,157,34741,1,0,0:0:0:0:
210,320,34928,5,10,0:0:0:0:
76,184,35115,1,0,0:0:0:0:
120,344,35303,1,0,0:0:0:0:
163,157,35491,1,4,0:0:0:0:
168,120,35866,1,4,0:0:0:0:
176,80,36241,1,4,0:0:0:0:
120,104,42241,6,0,L|208:111,1,87.5,0|0,0:0|0:0,0:0:0:0:
304,256,42616,1,0,0:0:0:0:
291,167,42803,2,0,P|251:183|219:223,1,87.5,0|0,0:0|0:0,0:0:0:0:
144,328,43178,2,0,L|240:296,1,87.5,0|0,0:0|0:0,0:0:0:0:
312,339,43553,2,0,P|318:296|299:248,1,87.5,0|0,0:3|0:3,0:3:0:0:
139,188,43928,2,0,L|235:220,1,87.5,0|0,0:0|0:0,0:0:0:0:
359,118,44303,2,0,P|319:134|287:174,1,87.5
377,214,44678,1,0,0:0:0:0:
464,152,44866,1,0,0:0:0:0:
432,48,45053,2,0,P|396:23|345:20,1,87.5,0|0,0:0|0:0,0:0:0:0:
359,118,45803,6,0,L|263:86,1,87.5
210,150,46178,1,0,0:0:0:0:
295,6,46366,1,0,0:0:0:0:
295,190,46553,1,0,0:0:0:0:
194,62,46741,1,2,0:0:0:0:
210,150,46928,1,0,0:0:0:0:
359,118,47116,1,0,0:0:0:0:
215,246,47303,1,2,0:0:0:0:
126,177,47491,6,0,L|222:145,1,87.5
276,93,47866,1,0,0:0:0:0:
342,26,48053,2,0,P|385:27|428:53,1,87.5
269,200,48616,5,4,0:0:0:0:
276,93,48803,2,0,L|180:61,1,87.5
74,191,49178,2,0,P|117:190|160:164,1,87.5,4|0,0:0|0:0,0:0:0:0:
106,2,49553,2,0,P|85:39|86:89,1,87.5
252,124,49928,2,0,P|229:87|185:63,1,87.5,4|0,0:0|0:0,0:0:0:0:
155,168,50303,6,0,B|200:271|263:166|308:350,1,175
194,311,50866,1,4,0:0:0:0:
356,192,51053,2,0,P|393:170|443:172,1,87.5
418,253,51803,5,0,0:0:0:0:
275,119,51991,1,2,0:0:0:0:
319,281,52178,1,0,0:0:0:0:
365,93,52366,1,0,0:0:0:0:
247,209,52553,1,0,0:0:0:0:
436,154,52741,1,2,0:0:0:0:
344,189,52928,5,0,0:0:0:0:
183,139,53116,1,0,0:0:0:0:
365,93,53303,1,2,0:0:0:0:
247,209,53491,2,0,P|260:247|299:279,1,87.5
436,154,53866,1,0,0:0:0:0:
183,139,54053,2,4,P|157:172|152:222,1,87.5
459,64,54616,5,8,0:0:0:0:
344,189,54803,2,0,L|248:221,1,87.5,2|0,0:0|0:0,0:0:0:0:
183,139,55178,2,0,P|157:172|152:222,1,87.5
291,110,55553,2,0,P|275:70|234:41,1,87.5,2|0,0:0|0:0,0:0:0:0:
54,20,55928,2,0,L|150:52,1,87.5,4|0,0:0|0:0,0:0:0:0:
183,226,56303,2,0,L|183:138,1,87.5,2|0,0:0|0:0,0:0:0:0:
323,16,56678,2,0,L|227:47,1,87.5
107,179,57053,2,0,P|187:139|259:179,1,175,8|0,0:0|0:0,0:0:0:0:
359,194,57803,5,0,0:0:0:0:
183,226,57991,1,2,0:0:0:0:
303,98,58178,1,0,0:0:0:0:
279,274,58366,1,0,0:0:0:0:
199,122,58553,1,0,0:0:0:0:
359,194,58741,5,2,0:0:0:0:
347,21,58928,1,0,0:0:0:0:
199,122,59116,1,0,0:0:0:0:
411,109,59303,5,2,0:0:0:0:
251,45,59491,1,0,0:0:0:0:
251,221,59678,1,0,0:0:0:0:
411,109,59866,2,4,L|507:93,1,87.5
251,221,60616,5,8,0:0:0:0:
251,45,60803,2,0,L|155:29,1,87.5,2|0,0:0|0:0,0:0:0:0:
411,109,61178,2,0,L|507:93,1,87.5
251,221,61553,2,0,L|155:205,1,87.5,2|0,0:0|0:0,0:0:0:0:
55,69,61928,2,0,L|89:160,1,87.5
48,322,62303,6,0,P|74:289|79:239,1,87.5,2|0,0:0|0:0,0:0:0:0:
236,324,62678,2,0,P|203:298|153:293,1,87.5,2|0,0:0|0:0,0:0:0:0:
240,138,63053,2,0,P|233:179|254:225,1,87.5,2|0,0:0|0:0,0:0:0:0:
236,324,63803,5,4,0:0:0:0:
136,184,63991,1,2,0:0:0:0:
144,360,64178,1,0,0:0:0:0:
240,138,64366,1,0,0:0:0:0:
141,273,64553,1,0,0:0:0:0:
128,88,64741,5,2,0:0:0:0:
224,224,64928,1,0,0:0:0:0:
56,232,65116,1,0,0:0:0:0:
240,138,65303,1,2,0:0:0:0:
48,56,65491,2,0,P|41:97|62:143,1,87.5,4|0,0:0|0:0,0:0:0:0:
240,138,65866,1,8,0:0:0:0:
56,232,66053,2,4,L|88:328,1,87.5
176,176,72241,6,0,P|200:112|232:184,1,183.750007009506,8|0,0:0|0:0,0:0:0:0:
302,224,72616,2,0,P|366:248|294:280,1,183.750007009506,8|0,0:0|0:0,0:0:0:0:
238,336,72991,2,0,P|214:400|182:328,1,183.750007009506,8|0,0:0|0:0,0:0:0:0:
108,292,73366,2,0,P|43:268|115:236,1,183.750007009506,8|0,0:0|0:0,0:0:0:0:
176,176,73741,6,0,B|208:136|224:96|224:96|240:136|272:176,1,183.750007009506,8|0,0:0|0:0,0:0:0:0:
224,278,74116,2,0,B|256:318|272:358|272:358|288:318|320:278,1,183.750007009506,8|0,0:0|0:0,0:0:0:0:
354,172,74491,2,0,B|386:132|402:92|402:92|418:132|450:172,1,183.750007009506,8|0,0:0|0:0,0:0:0:0:
402,275,74866,2,0,B|434:315|450:355|450:355|466:315|498:275,1,175.00000667572,8|0,0:0|0:0,0:0:0:0:
354,172,75241,5,4,0:0:0:0:
401,28,75428,1,0,0:0:0:0:
261,175,75616,1,2,0:0:0:0:
201,28,75803,5,4,0:0:0:0:
161,180,75990,1,0,0:0:0:0:
301,33,76178,1,2,0:0:0:0:
354,172,76366,5,4,0:0:0:0:
401,28,76553,1,0,0:0:0:0:
261,175,76741,1,2,0:0:0:0:
201,28,76928,5,4,0:0:0:0:
354,172,77116,1,0,0:0:0:0:
126,88,77303,1,4,0:0:0:0:
261,175,77491,1,8,0:0:0:0:
161,180,77678,2,2,L|145:196,5,17.500000667572
128,210,77866,1,2,0:0:0:0:
61,149,78053,1,0,0:0:0:0:
126,88,78241,6,0,B|195:70|246:36|246:36|266:64|306:82,1,183.750007009506,4|0,0:0|0:0,0:0:0:0:
220,216,78616,6,0,B|169:165|114:138|114:138|129:106|124:63,1,183.750007009506,4|0,0:0|0:0,0:0:0:0:
284,70,78991,6,0,B|265:138|269:199|269:199|234:203|199:228,1,183.750007009506,4|0,0:0|0:0,0:0:0:0:
126,88,79366,6,0,B|195:70|246:36|246:36|266:64|306:82,1,183.750007009506,4|0,0:0|0:0,0:0:0:0:
218,145,79741,6,0,P|309:163|376:102,1,183.750007009506,4|0,0:0|0:0,0:0:0:0:
455,45,80116,6,0,P|473:136|412:203,1,183.750007009506,4|0,0:0|0:0,0:0:0:0:
323,246,80491,6,0,P|392:303|479:283,1,183.750007009506,4|0,0:0|0:0,0:0:0:0:
417,200,80866,6,0,P|348:143|261:162,1,183.750007009506,4|0,0:0|0:0,0:0:0:0:
232,189,81241,5,4,0:0:0:0:
157,327,81428,1,0,0:0:0:0:
165,114,81616,1,2,0:0:0:0:
95,254,81803,5,4,0:0:0:0:
249,284,81991,1,0,0:0:0:0:
65,152,82178,1,2,0:0:0:0:
157,327,82366,5,4,0:0:0:0:
232,189,82553,1,0,0:0:0:0:
4,227,82741,1,2,0:0:0:0:
324,223,82928,5,4,0:0:0:0:
65,152,83116,1,0,0:0:0:0:
157,327,83303,1,2,0:0:0:0:
232,189,83491,5,2,0:0:0:0:
305,130,83678,1,0,0:0:0:0:
395,158,83866,1,2,0:0:0:0:
416,249,84053,1,0,0:0:0:0:
327,221,84241,5,8,0:0:0:0:
371,56,84616,5,2,0:0:0:0:
214,88,84803,1,0,0:0:0:0:
280,9,84991,1,2,0:0:0:0:
305,130,85178,1,0,0:0:0:0:
167,179,85366,5,2,0:0:0:0:
135,22,85553,1,0,0:0:0:0:
214,88,85741,1,2,0:0:0:0:
93,113,85928,1,0,0:0:0:0:
32,33,86116,5,4,0:0:0:0:
167,179,86303,2,0,P|179:233|158:286,1,105.000004005432,10|0,0:0|0:0,0:0:0:0:
135,22,86866,5,4,0:0:0:0:
70,233,87053,2,0,P|58:287|79:340,1,105.000004005432,10|0,0:0|0:0,0:0:0:0:
211,86,87803,5,4,0:0:0:0:
93,113,87991,1,8,0:0:0:0:
291,176,88178,1,2,0:0:0:0:
93,113,88366,5,4,0:0:0:0:
255,291,88553,1,2,0:0:0:0:
211,86,88741,5,4,0:0:0:0:
134,316,88928,1,2,0:0:0:0:
291,176,89116,5,4,0:0:0:0:
52,227,89303,1,2,0:0:0:0:
211,86,89491,5,8,0:0:0:0:
291,176,89678,1,2,0:0:0:0:
255,291,89866,1,0,0:0:0:0:
134,316,90053,1,2,0:0:0:0:
291,176,90241,6,0,B|351:147|408:168|408:168|431:130|416:88,1,183.750007009506,4|0,0:0|0:0,0:0:0:0:
328,72,90616,6,0,B|268:101|211:79|211:79|188:118|203:160,1,183.750007009506,4|0,0:0|0:0,0:0:0:0:
202,231,90991,6,0,B|257:268|267:328|267:328|311:329|340:295,1,183.750007009506,4|0,0:0|0:0,0:0:0:0:
415,254,91366,6,0,B|359:216|349:156|349:156|305:155|276:189,1,183.750007009506,4|0,0:0|0:0,0:0:0:0:
202,231,91741,6,0,P|121:199|106:111,1,183.750007009506,4|0,0:0|0:0,0:0:0:0:
200,136,92116,6,0,P|281:168|296:256,1,183.750007009506,4|0,0:0|0:0,0:0:0:0:
202,231,92491,6,0,P|121:263|106:351,1,183.750007009506,4|0,0:0|0:0,0:0:0:0:
200,320,92866,6,0,P|281:288|296:200,1,183.750007009506,4|0,0:0|0:0,0:0:0:0:
289,178,93241,5,4,0:0:0:0:
192,128,93428,1,0,0:0:0:0:
202,231,93616,1,2,0:0:0:0:
280,80,93803,5,2,0:0:0:0:
104,192,93991,1,0,0:0:0:0:
289,178,94178,1,2,0:0:0:0:
96,88,94366,5,2,0:0:0:0:
202,231,94553,1,0,0:0:0:0:
376,112,94741,5,2,0:0:0:0:
192,128,94928,1,0,0:0:0:0:
384,216,95116,5,2,0:0:0:0:
280,80,95303,1,0,0:0:0:0:
312,288,95491,5,2,0:0:0:0:
384,216,95678,1,0,0:0:0:0:
376,112,95866,1,2,0:0:0:0:
280,80,96053,1,0,0:0:0:0:
288,184,96241,5,4,0:0:0:0:
184,296,96803,1,0,0:0:0:0:
192,136,97366,1,0,0:0:0:0:
288,184,97741,5,4,0:0:0:0:
392,296,98303,1,0,0:0:0:0:
384,136,98866,1,0,0:0:0:0:
192,136,99241,5,4,0:0:0:0:
392,296,99803,1,0,0:0:0:0:
184,296,100366,1,0,0:0:0:0:
296,72,100928,1,0,0:0:0:0:
341,264,101491,5,2,0:0:0:0:
184,296,101678,1,0,0:0:0:0:
250,217,101866,1,2,0:0:0:0:
275,338,102053,1,0,0:0:0:0:
344,160,102241,5,2,0:0:0:0:
250,217,102428,2,0,L|144:184,1,105.000004005432,2|0,0:0|0:0,0:0:0:0:
336,160,102803,5,2,0:0:0:0:
242,217,102990,2,0,L|136:184,1,105.000004005432,2|0,0:0|0:0,0:0:0:0:
248,112,103366,5,4,0:0:0:0:
336,272,103741,1,0,0:0:0:0:
152,96,104303,1,0,0:0:0:0:
360,160,104866,1,0,0:0:0:0:
304,24,105241,5,4,0:0:0:0:
251,314,105803,1,0,0:0:0:0:
152,96,106366,1,0,0:0:0:0:
360,160,106928,1,0,0:0:0:0:
144,192,107491,5,2,0:0:0:0:
