osu file format v14

[General]
AudioFilename: danny - phantom.mp3
AudioLeadIn: 0
PreviewTime: -1
Countdown: 1
SampleSet: None
StackLeniency: 0.7
Mode: 0
LetterboxInBreaks: 0
WidescreenStoryboard: 0

[Editor]
DistanceSpacing: 1.1
BeatDivisor: 8
GridSize: 4
TimelineZoom: 1.9

[Metadata]
Title:phantom
TitleUnicode:phantom
Artist:danny
ArtistUnicode:danny
Creator:Gerard Joling
Version:spoken zet je schrap
Source:
Tags:
BeatmapID:1704264
BeatmapSetID:812521

[Difficulty]
HPDrainRate:6
CircleSize:4.2
OverallDifficulty:9
ApproachRate:9.4
SliderMultiplier:1.8
SliderTickRate:1

[Events]
//Background and Video events
0,0,"danny phantem.png",0,0
//Break Periods
//Storyboard Layer 0 (Background)
//Storyboard Layer 1 (Fail)
//Storyboard Layer 2 (Pass)
//Storyboard Layer 3 (Foreground)
//Storyboard Sound Samples

[TimingPoints]
670,472.44094488189,4,3,0,25,1,0

[HitObjects]
165,243,670,6,0,L|173:194,4,45
266,181,1378,2,0,L|256:128,1,45
358,215,1732,2,0,L|351:266,3,45
255,280,2323,1,0,0:0:0:0:
256,192,2559,12,0,3386,0:0:0:0:
128,264,3740,6,0,L|120:220,1,45
140,148,3977,2,0,P|176:120|232:120,1,90
392,232,4449,5,0,0:0:0:0:
348,224,4567,1,0,0:0:0:0:
304,236,4685,1,0,0:0:0:0:
276,272,4803,1,0,0:0:0:0:
268,316,4921,2,0,P|224:336|184:324,1,90
48,296,5276,2,0,P|88:288|124:252,1,90
140,184,5630,1,0,0:0:0:0:
112,116,5748,1,0,0:0:0:0:
48,80,5866,2,0,B|92:88|92:88|144:84,1,90
376,40,6339,6,0,L|368:92,1,45
356,156,6575,1,0,0:0:0:0:
356,156,6693,1,0,0:0:0:0:
368,228,6811,2,0,P|320:220|284:184,1,90
260,128,7166,1,0,0:0:0:0:
136,304,7520,1,0,0:0:0:0:
136,304,7638,1,0,0:0:0:0:
184,360,7756,2,0,L|172:264,1,90
112,204,8110,6,0,L|100:112,1,90
160,48,8465,1,0,0:0:0:0:
160,48,8583,1,0,0:0:0:0:
240,88,8701,2,0,L|232:136,1,45
332,68,8937,2,0,L|324:20,1,45
388,140,9173,2,0,P|432:168|476:172,1,90
336,216,9528,2,0,P|288:208|236:228,1,90
192,288,9882,1,0,0:0:0:0:
192,288,10000,1,0,0:0:0:0:
352,296,10118,6,0,P|392:276|416:232,1,90
440,84,10473,2,0,P|403:115|387:155,1,90
328,208,10827,1,0,0:0:0:0:
260,164,10945,1,0,0:0:0:0:
196,216,11063,2,0,P|144:216|104:184,1,90
76,48,11418,2,0,P|120:48|160:72,1,90
176,140,11772,1,0,0:0:0:0:
244,160,11890,1,0,0:0:0:0:
316,148,12008,6,0,L|364:132,1,45
428,108,12244,1,0,0:0:0:0:
292,220,12362,2,0,P|284:268|298:321,1,105
200,224,12795,2,0,P|212:176|188:120,1,105
120,104,13189,1,0,0:0:0:0:
56,144,13307,2,0,P|92:176|140:176,1,90
276,128,13662,1,0,0:0:0:0:
452,160,13898,6,0,P|440:180|420:196,1,45
344,208,14134,1,0,0:0:0:0:
396,268,14252,1,0,0:0:0:0:
316,280,14370,2,0,P|333:320|372:341,1,90
264,228,14725,6,0,P|224:212|176:228,1,90
128,280,15079,1,0,0:0:0:0:
72,176,15197,1,0,0:0:0:0:
144,76,15315,2,0,L|248:92,1,90
304,104,15670,5,0,0:0:0:0:
376,120,15788,2,0,L|408:164,2,45
328,172,16142,2,0,P|320:224|336:260,1,90
440,304,16496,2,0,L|392:300,1,45
304,292,16732,1,0,0:0:0:0:
92,268,16969,1,0,0:0:0:0:
428,204,17205,1,0,0:0:0:0:
216,180,17442,1,0,0:0:0:0:
228,200,17677,5,0,0:0:0:0:
160,180,17795,1,0,0:0:0:0:
124,120,17914,1,0,0:0:0:0:
132,48,18032,1,0,0:0:0:0:
132,48,18150,2,0,P|152:88|148:136,1,90
172,316,18662,2,0,B|168:284|168:284|176:248,2,60
332,216,19213,6,0,L|376:240,1,45
371,237,19449,1,0,0:0:0:0:
380,160,19567,2,0,P|384:116|408:76,1,90
304,144,19921,2,0,P|256:156|216:144,1,90
40,44,20276,5,0,0:0:0:0:
184,88,20512,2,0,P|200:136|192:188,1,90
144,224,20866,2,0,P|188:220|232:236,1,90
296,300,21221,1,0,0:0:0:0:
296,300,21339,1,0,0:0:0:0:
380,268,21457,6,0,L|392:220,1,45
336,108,21693,2,0,L|340:160,1,45
388,284,21929,2,0,L|400:236,1,45
128,64,22402,6,0,L|148:164,1,90
176,292,22756,1,0,0:0:0:0:
336,148,23110,5,0,0:0:0:0:
204,112,23229,1,0,0:0:0:0:
72,140,23347,2,0,P|40:172|24:220,2,90
295,298,24095,6,0,P|310:286|323:262,1,45
324,240,24292,2,0,P|308:192|312:144,1,90
400,272,24764,1,0,0:0:0:0:
200,96,25000,1,0,0:0:0:0:
184,132,25118,1,0,0:0:0:0:
168,168,25236,2,0,P|144:188|72:184,1,90
323,253,25709,5,0,0:0:0:0:
400,272,25827,2,0,P|428:296|436:312,1,45
172,344,26181,2,0,L|196:224,1,90
396,92,26654,2,0,L|379:181,1,90
264,248,27008,1,0,0:0:0:0:
220,188,27126,2,0,P|224:140|252:104,1,90
264,248,27481,1,0,0:0:0:0:
100,156,27717,5,0,0:0:0:0:
92,111,27835,1,0,0:0:0:0:
189,255,28071,2,0,L|172:344,1,90
172,343,28425,1,0,0:0:0:0:
108,248,28701,2,0,B|110:226|110:226|119:204,1,45
352,236,29016,6,0,B|376:220|376:220|404:212|444:224,1,90
189,167,29488,2,0,B|165:151|165:151|137:143|97:155,1,90
24,196,29961,5,0,0:0:0:0:
128,228,30138,1,0,0:0:0:0:
220,168,30286,1,0,0:0:0:0:
400,236,30473,5,0,0:0:0:0:
256,244,30630,1,0,0:0:0:0:
140,156,30788,1,0,0:0:0:0:
420,228,30945,5,0,0:0:0:0:
240,216,31103,1,0,0:0:0:0:
128,356,31260,1,0,0:0:0:0:
436,220,31418,5,0,0:0:0:0:
120,160,31732,5,0,0:0:0:0:
128,132,31851,2,0,P|126:105|116:79,1,45
228,136,32087,1,0,0:0:0:0:
268,140,32205,1,0,0:0:0:0:
308,124,32323,2,0,B|300:172|300:172|308:216,1,90
389,333,32795,6,0,B|316:320|316:320|293:324,2,90
471,207,33504,1,0,0:0:0:0:
348,95,33740,5,0,0:0:0:0:
271,103,33858,1,0,0:0:0:0:
221,157,33977,2,0,L|175:162,1,45
38,224,34213,2,0,P|72:216|139:245,1,90
216,339,34685,1,0,0:0:0:0:
220,211,34921,1,0,0:0:0:0:
284,165,35040,2,0,P|316:160|372:174,1,90
426,225,35394,1,0,0:0:0:0:
247,333,35630,5,0,0:0:0:0:
78,227,35866,1,0,0:0:0:0:
149,207,35984,1,0,0:0:0:0:
209,161,36103,2,0,P|237:125|245:79,1,90
316,244,36575,1,0,0:0:0:0:
430,84,36811,1,0,0:0:0:0:
464,216,36929,2,0,B|469:262|469:262|445:314,1,90
391,246,37284,1,0,0:0:0:0:
103,137,37520,5,0,0:0:0:0:
181,149,37638,1,0,0:0:0:0:
107,150,37756,1,0,0:0:0:0:
186,163,37874,1,0,0:0:0:0:
261,147,37992,2,0,P|299:132|328:82,1,90
315,213,38347,6,0,P|308:244|320:306,1,90
377,345,38701,1,0,0:0:0:0:
245,318,38819,1,0,0:0:0:0:
118,362,38937,2,0,P|80:345|54:290,1,90
202,97,39410,5,0,0:0:0:0:
251,227,39528,1,0,0:0:0:0:
318,110,39646,1,0,0:0:0:0:
161,167,39764,1,0,0:0:0:0:
390,77,39882,2,0,P|399:112|378:161,1,90
174,242,40236,6,0,P|175:201|212:160,1,90
336,238,40591,1,0,0:0:0:0:
204,163,40709,1,0,0:0:0:0:
336,238,40827,2,0,P|384:243|438:219,1,90
292,61,41299,5,0,0:0:0:0:
108,102,41418,1,0,0:0:0:0:
252,34,41536,1,0,0:0:0:0:
108,142,41654,1,0,0:0:0:0:
321,80,41772,2,0,P|359:76|425:96,1,90
467,324,42126,6,0,P|433:326|369:292,1,90
274,159,42481,1,0,0:0:0:0:
246,334,42599,1,0,0:0:0:0:
114,181,42717,5,0,0:0:0:0:
467,324,42953,1,0,0:0:0:0:
