osu file format v14

[General]
AudioFilename: audio.mp3
AudioLeadIn: 0
PreviewTime: 8050
Countdown: 0
SampleSet: Normal
StackLeniency: 0.7
Mode: 1
LetterboxInBreaks: 0
WidescreenStoryboard: 1

[Editor]
Bookmarks: 8103
DistanceSpacing: 1.7
BeatDivisor: 2
GridSize: 32
TimelineZoom: 2.5

[Metadata]
Title:Nyan Cat
TitleUnicode:Nyan Cat
Artist:daniwellP feat. Momone Momo
ArtistUnicode:daniwellP feat. 桃音モモ
Creator:AJT
Version:Kantan
Source:
Tags:electronic instrumental japanese vocaloid meme novelty hatsune miku 初音ミク nyan cat rainbow cat poptart Nyanyanyanyanyanyanya! daniwell Momomomo もももも
BeatmapID:3424974
BeatmapSetID:1676476

[Difficulty]
HPDrainRate:10
CircleSize:2
OverallDifficulty:3
ApproachRate:10
SliderMultiplier:1.4
SliderTickRate:1

[Events]
//Background and Video events
0,0,"nyan.jpg",0,-20
//Break Periods
//Storyboard Layer 0 (Background)
//Storyboard Layer 1 (Fail)
//Storyboard Layer 2 (Pass)
//Storyboard Layer 3 (Foreground)
//Storyboard Layer 4 (Overlay)
//Storyboard Sound Samples

[TimingPoints]
4729,422.535211267606,4,1,0,45,1,0
8109,-100,4,1,0,60,0,1
35151,-100,4,1,0,60,0,0

[HitObjects]
256,192,4729,5,8,0:0:0:0:
256,192,5574,1,8,0:0:0:0:
256,192,5996,1,0,0:0:0:0:
256,192,6419,1,8,0:0:0:0:
256,192,7264,1,0,0:0:0:0:
256,192,7686,1,8,0:0:0:0:
256,192,8109,5,12,0:0:0:0:
256,192,9376,1,8,0:0:0:0:
256,192,9799,1,0,0:0:0:0:
256,192,10644,1,8,0:0:0:0:
256,192,11067,1,8,0:0:0:0:
256,192,11489,1,0,0:0:0:0:
256,192,12334,1,8,0:0:0:0:
256,192,12757,1,0,0:0:0:0:
256,192,13179,1,8,0:0:0:0:
256,192,14024,1,8,0:0:0:0:
256,192,14447,1,0,0:0:0:0:
256,192,14869,1,8,0:0:0:0:
256,192,16137,1,8,0:0:0:0:
256,192,16559,1,8,0:0:0:0:
256,192,17405,1,8,0:0:0:0:
256,192,17827,1,8,0:0:0:0:
256,192,18250,1,8,0:0:0:0:
256,192,19095,1,0,0:0:0:0:
256,192,19517,1,0,0:0:0:0:
256,192,19940,1,0,0:0:0:0:
256,192,20362,1,8,0:0:0:0:
256,192,20785,1,0,0:0:0:0:
256,192,21207,1,8,0:0:0:0:
256,192,21630,5,4,0:0:0:0:
256,192,22898,1,8,0:0:0:0:
256,192,23320,1,0,0:0:0:0:
256,192,24165,1,8,0:0:0:0:
256,192,24588,1,0,0:0:0:0:
256,192,25010,1,8,0:0:0:0:
256,192,25855,1,8,0:0:0:0:
256,192,26700,1,8,0:0:0:0:
256,192,27123,1,8,0:0:0:0:
256,192,27545,1,8,0:0:0:0:
256,192,27968,1,0,0:0:0:0:
256,192,28390,1,8,0:0:0:0:
256,192,29236,1,0,0:0:0:0:
256,192,29658,1,8,0:0:0:0:
256,192,30081,1,0,0:0:0:0:
256,192,30926,1,8,0:0:0:0:
256,192,31348,1,0,0:0:0:0:
256,192,31771,1,8,0:0:0:0:
256,192,32616,1,8,0:0:0:0:
256,192,33038,1,0,0:0:0:0:
256,192,33461,1,8,0:0:0:0:
256,192,33883,1,8,0:0:0:0:
256,192,34306,1,8,0:0:0:0:
256,192,34729,1,0,0:0:0:0:
256,192,35151,5,12,0:0:0:0:
