osu file format v14

[General]
AudioFilename: audio.mp3
AudioLeadIn: 0
PreviewTime:8050
Countdown: 0
SampleSet: Normal
StackLeniency: 0.7
Mode: 1
LetterboxInBreaks: 0
WidescreenStoryboard: 1

[Editor]
Bookmarks:8103
DistanceSpacing: 1.7
BeatDivisor: 4
GridSize: 32
TimelineZoom: 3.199999

[Metadata]
Title:Nyan Cat
TitleUnicode:Nyan Cat
Artist:daniwellP feat. Momone Momo
ArtistUnicode:daniwellP feat. 桃音モモ
Creator:AJT
Version:Inner Oni
Source:
Tags:electronic instrumental japanese vocaloid meme novelty hatsune miku 初音ミク nyan cat rainbow cat poptart Nyanyanyanyanyanyanya! daniwell Momomomo もももも
BeatmapID:3424913
BeatmapSetID:1676476

[Difficulty]
HPDrainRate:10
CircleSize:2
OverallDifficulty:5
ApproachRate:10
SliderMultiplier:1.4
SliderTickRate:1

[Events]
//Background and Video events
0,0,"nyan.jpg",0,-20
//Break Periods
//Storyboard Layer 0 (Background)
//Storyboard Layer 1 (Fail)
//Storyboard Layer 2 (Pass)
//Storyboard Layer 3 (Foreground)
//Storyboard Layer 4 (Overlay)
//Storyboard Sound Samples

[TimingPoints]
4729,422.535211267606,4,1,0,45,1,0
8109,-100,4,1,0,60,0,1
35151,-100,4,1,0,60,0,0

[HitObjects]
256,192,4729,5,8,0:0:0:0:
256,192,4834,1,0,0:0:0:0:
256,192,4940,1,0,0:0:0:0:
256,192,5151,1,8,0:0:0:0:
256,192,5362,1,0,0:0:0:0:
256,192,5468,1,0,0:0:0:0:
256,192,5574,1,8,0:0:0:0:
256,192,5679,1,0,0:0:0:0:
256,192,5785,1,8,0:0:0:0:
256,192,5890,1,8,0:0:0:0:
256,192,5996,1,8,0:0:0:0:
256,192,6102,1,0,0:0:0:0:
256,192,6207,1,8,0:0:0:0:
256,192,6313,1,0,0:0:0:0:
256,192,6419,1,0,0:0:0:0:
256,192,6630,1,0,0:0:0:0:
256,192,6736,1,0,0:0:0:0:
256,192,6841,1,8,0:0:0:0:
256,192,7052,1,8,0:0:0:0:
256,192,7158,1,0,0:0:0:0:
256,192,7264,1,8,0:0:0:0:
256,192,7369,1,0,0:0:0:0:
256,192,7475,1,8,0:0:0:0:
256,192,7581,1,8,0:0:0:0:
256,192,7686,1,8,0:0:0:0:
256,192,7792,1,0,0:0:0:0:
256,192,7898,1,8,0:0:0:0:
256,192,8003,1,8,0:0:0:0:
256,192,8109,5,4,0:0:0:0:
256,192,8320,1,8,0:0:0:0:
256,192,8531,1,0,0:0:0:0:
256,192,8637,1,8,0:0:0:0:
256,192,8848,1,0,0:0:0:0:
256,192,8954,1,8,0:0:0:0:
256,192,9059,1,0,0:0:0:0:
256,192,9165,1,0,0:0:0:0:
256,192,9376,1,8,0:0:0:0:
256,192,9588,1,8,0:0:0:0:
256,192,9799,1,0,0:0:0:0:
256,192,10010,1,8,0:0:0:0:
256,192,10116,1,8,0:0:0:0:
256,192,10221,1,0,0:0:0:0:
256,192,10327,1,0,0:0:0:0:
256,192,10433,1,8,0:0:0:0:
256,192,10538,1,8,0:0:0:0:
256,192,10644,1,8,0:0:0:0:
256,192,10750,1,0,0:0:0:0:
256,192,10855,1,8,0:0:0:0:
256,192,10961,1,0,0:0:0:0:
256,192,11067,1,8,0:0:0:0:
256,192,11172,1,0,0:0:0:0:
256,192,11278,1,8,0:0:0:0:
256,192,11383,1,0,0:0:0:0:
256,192,11489,1,8,0:0:0:0:
256,192,11700,1,0,0:0:0:0:
256,192,11912,1,8,0:0:0:0:
256,192,12017,1,0,0:0:0:0:
256,192,12123,1,8,0:0:0:0:
256,192,12229,1,0,0:0:0:0:
256,192,12334,1,8,0:0:0:0:
256,192,12440,1,0,0:0:0:0:
256,192,12545,1,8,0:0:0:0:
256,192,12651,1,8,0:0:0:0:
256,192,12757,1,0,0:0:0:0:
256,192,12862,1,0,0:0:0:0:
256,192,12968,1,8,0:0:0:0:
256,192,13074,1,0,0:0:0:0:
256,192,13179,1,8,0:0:0:0:
256,192,13390,1,0,0:0:0:0:
256,192,13496,1,0,0:0:0:0:
256,192,13602,1,8,0:0:0:0:
256,192,13707,1,8,0:0:0:0:
256,192,13813,1,0,0:0:0:0:
256,192,13919,1,8,0:0:0:0:
256,192,14024,1,0,0:0:0:0:
256,192,14130,1,0,0:0:0:0:
256,192,14236,1,8,0:0:0:0:
256,192,14447,1,0,0:0:0:0:
256,192,14658,1,8,0:0:0:0:
256,192,14729,1,8,0:0:0:0:
256,192,14799,1,8,0:0:0:0:
256,192,14869,1,0,0:0:0:0:
256,192,15081,1,8,0:0:0:0:
256,192,15292,1,0,0:0:0:0:
256,192,15398,1,8,0:0:0:0:
256,192,15609,1,0,0:0:0:0:
256,192,15714,1,8,0:0:0:0:
256,192,15820,1,8,0:0:0:0:
256,192,15926,1,0,0:0:0:0:
256,192,16137,1,8,0:0:0:0:
256,192,16348,1,8,0:0:0:0:
256,192,16559,1,0,0:0:0:0:
256,192,16771,1,8,0:0:0:0:
256,192,16876,1,0,0:0:0:0:
256,192,16982,1,0,0:0:0:0:
256,192,17088,1,0,0:0:0:0:
256,192,17193,1,8,0:0:0:0:
256,192,17299,1,8,0:0:0:0:
256,192,17405,1,8,0:0:0:0:
256,192,17510,1,0,0:0:0:0:
256,192,17616,1,8,0:0:0:0:
256,192,17721,1,0,0:0:0:0:
256,192,17827,1,8,0:0:0:0:
256,192,17933,1,8,0:0:0:0:
256,192,18038,1,0,0:0:0:0:
256,192,18144,1,0,0:0:0:0:
256,192,18250,1,8,0:0:0:0:
256,192,18461,1,0,0:0:0:0:
256,192,18672,1,8,0:0:0:0:
256,192,18778,1,0,0:0:0:0:
256,192,18883,1,8,0:0:0:0:
256,192,18989,1,0,0:0:0:0:
256,192,19095,1,8,0:0:0:0:
256,192,19200,1,0,0:0:0:0:
256,192,19306,1,8,0:0:0:0:
256,192,19412,1,8,0:0:0:0:
256,192,19517,1,0,0:0:0:0:
256,192,19623,1,0,0:0:0:0:
256,192,19729,1,8,0:0:0:0:
256,192,19834,1,8,0:0:0:0:
256,192,19940,1,0,0:0:0:0:
256,192,20151,1,8,0:0:0:0:
256,192,20257,1,0,0:0:0:0:
256,192,20362,1,8,0:0:0:0:
256,192,20468,1,8,0:0:0:0:
256,192,20574,1,0,0:0:0:0:
256,192,20679,1,8,0:0:0:0:
256,192,20785,1,0,0:0:0:0:
256,192,20890,1,8,0:0:0:0:
256,192,20996,1,0,0:0:0:0:
256,192,21207,1,8,0:0:0:0:
256,192,21419,1,8,0:0:0:0:
256,192,21524,1,8,0:0:0:0:
256,192,21630,5,4,0:0:0:0:
256,192,21841,1,0,0:0:0:0:
256,192,21947,1,8,0:0:0:0:
256,192,22052,1,8,0:0:0:0:
256,192,22264,1,0,0:0:0:0:
256,192,22369,1,8,0:0:0:0:
256,192,22475,1,8,0:0:0:0:
256,192,22581,1,8,0:0:0:0:
256,192,22686,1,8,0:0:0:0:
256,192,22792,1,0,0:0:0:0:
256,192,22898,1,8,0:0:0:0:
256,192,23003,1,0,0:0:0:0:
256,192,23109,1,8,0:0:0:0:
256,192,23214,1,8,0:0:0:0:
256,192,23320,1,0,0:0:0:0:
256,192,23531,1,0,0:0:0:0:
256,192,23743,1,0,0:0:0:0:
256,192,23848,1,8,0:0:0:0:
256,192,23954,1,8,0:0:0:0:
256,192,24059,1,0,0:0:0:0:
256,192,24165,1,8,0:0:0:0:
256,192,24271,1,0,0:0:0:0:
256,192,24376,1,8,0:0:0:0:
256,192,24482,1,0,0:0:0:0:
256,192,24588,1,0,0:0:0:0:
256,192,24693,1,8,0:0:0:0:
256,192,24799,1,8,0:0:0:0:
256,192,24905,1,0,0:0:0:0:
256,192,25010,1,8,0:0:0:0:
256,192,25221,1,0,0:0:0:0:
256,192,25327,1,0,0:0:0:0:
256,192,25433,1,8,0:0:0:0:
256,192,25644,1,0,0:0:0:0:
256,192,25750,1,0,0:0:0:0:
256,192,25855,1,8,0:0:0:0:
256,192,25961,1,8,0:0:0:0:
256,192,26067,1,8,0:0:0:0:
256,192,26172,1,8,0:0:0:0:
256,192,26278,1,0,0:0:0:0:
256,192,26383,1,0,0:0:0:0:
256,192,26489,1,8,0:0:0:0:
256,192,26595,1,0,0:0:0:0:
256,192,26700,1,8,0:0:0:0:
256,192,26912,1,8,0:0:0:0:
256,192,27017,1,0,0:0:0:0:
256,192,27123,1,8,0:0:0:0:
256,192,27229,1,0,0:0:0:0:
256,192,27334,1,8,0:0:0:0:
256,192,27440,1,8,0:0:0:0:
256,192,27545,1,8,0:0:0:0:
256,192,27651,1,0,0:0:0:0:
256,192,27757,1,8,0:0:0:0:
256,192,27862,1,8,0:0:0:0:
256,192,27968,1,0,0:0:0:0:
256,192,28179,1,8,0:0:0:0:
256,192,28250,1,8,0:0:0:0:
256,192,28320,1,8,0:0:0:0:
256,192,28390,1,0,0:0:0:0:
256,192,28602,1,8,0:0:0:0:
256,192,28707,1,0,0:0:0:0:
256,192,28813,1,8,0:0:0:0:
256,192,29024,1,8,0:0:0:0:
256,192,29130,1,0,0:0:0:0:
256,192,29236,1,8,0:0:0:0:
256,192,29341,1,8,0:0:0:0:
256,192,29447,1,8,0:0:0:0:
256,192,29552,1,0,0:0:0:0:
256,192,29658,1,8,0:0:0:0:
256,192,29764,1,0,0:0:0:0:
256,192,29869,1,8,0:0:0:0:
256,192,29975,1,8,0:0:0:0:
256,192,30081,1,0,0:0:0:0:
256,192,30292,1,0,0:0:0:0:
256,192,30503,1,0,0:0:0:0:
256,192,30609,1,8,0:0:0:0:
256,192,30714,1,8,0:0:0:0:
256,192,30820,1,0,0:0:0:0:
256,192,30926,1,8,0:0:0:0:
256,192,31031,1,8,0:0:0:0:
256,192,31137,1,0,0:0:0:0:
256,192,31243,1,0,0:0:0:0:
256,192,31348,1,8,0:0:0:0:
256,192,31454,1,0,0:0:0:0:
256,192,31559,1,8,0:0:0:0:
256,192,31665,1,0,0:0:0:0:
256,192,31771,1,8,0:0:0:0:
256,192,31982,1,8,0:0:0:0:
256,192,32088,1,0,0:0:0:0:
256,192,32193,1,8,0:0:0:0:
256,192,32405,1,8,0:0:0:0:
256,192,32510,1,0,0:0:0:0:
256,192,32616,1,8,0:0:0:0:
256,192,32721,1,0,0:0:0:0:
256,192,32827,1,8,0:0:0:0:
256,192,32933,1,8,0:0:0:0:
256,192,33038,1,0,0:0:0:0:
256,192,33144,1,0,0:0:0:0:
256,192,33250,1,8,0:0:0:0:
256,192,33355,1,0,0:0:0:0:
256,192,33461,1,8,0:0:0:0:
256,192,33672,1,8,0:0:0:0:
256,192,33778,1,0,0:0:0:0:
256,192,33883,1,8,0:0:0:0:
256,192,33989,1,0,0:0:0:0:
256,192,34095,1,8,0:0:0:0:
256,192,34200,1,8,0:0:0:0:
256,192,34306,1,8,0:0:0:0:
256,192,34412,1,0,0:0:0:0:
256,192,34517,1,8,0:0:0:0:
256,192,34623,1,8,0:0:0:0:
256,192,34729,1,0,0:0:0:0:
256,192,34940,1,0,0:0:0:0:
256,192,35045,1,0,0:0:0:0:
256,192,35151,5,12,0:0:0:0:
