osu file format v14

[General]
AudioFilename: audio.mp3
AudioLeadIn: 0
PreviewTime: 47072
Countdown: 1
SampleSet: Drum
StackLeniency: 0.7
Mode: 0
LetterboxInBreaks: 0
WidescreenStoryboard: 1

[Editor]
DistanceSpacing: 0.8
BeatDivisor: 4
GridSize: 4
TimelineZoom: 1

[Metadata]
Title:Love Logic
TitleUnicode:Love Logic
Artist:daniwellP feat. MAYU
ArtistUnicode:daniwellP feat. MAYU
Creator:Nuolong
Version:Normal
Source:
Tags:さぼてん daniwell vocaloid 月刊eta gekkaneta
BeatmapID:3454716
BeatmapSetID:916449

[Difficulty]
HPDrainRate:4
CircleSize:3
OverallDifficulty:4
ApproachRate:5
SliderMultiplier:1.1
SliderTickRate:1

[Events]
//Background and Video events
0,0,"background.JPG",0,0
//Break Periods
//Storyboard Layer 0 (Background)
//Storyboard Layer 1 (Fail)
//Storyboard Layer 2 (Pass)
//Storyboard Layer 3 (Foreground)
//Storyboard Layer 4 (Overlay)
//Storyboard Sound Samples

[TimingPoints]
116,326.086956521739,4,2,0,80,1,0
5333,-76.9230769230769,4,3,0,80,0,0
10550,-76.9230769230769,4,2,0,80,0,0
20985,-76.9230769230769,4,3,0,80,0,0
47072,-66.6666666666667,4,3,0,80,0,1
67942,-76.9230769230769,4,3,0,80,0,0
88811,-100,4,3,0,80,0,0
91420,-76.9230769230769,4,3,0,80,0,0
94029,-76.9230769230769,4,2,0,80,0,0
104463,-76.9230769230769,4,3,0,80,0,0
130550,-66.6666666666667,4,3,0,80,0,1
151420,-76.9230769230769,4,3,0,80,0,0
172289,-100,4,2,0,80,0,0
177507,-76.9230769230769,4,3,0,80,0,0
182724,-66.6666666666667,4,2,0,80,0,1
193159,-66.6666666666667,4,3,0,80,0,1
203594,-76.9230769230769,4,2,0,80,0,0
214029,-76.9230769230769,4,3,0,80,0,0

[Colours]
Combo1 : 173,173,173
Combo2 : 255,128,128
Combo3 : 202,0,0
Combo4 : 255,255,128

[HitObjects]
55,194,116,6,0,P|67:248|50:298,1,110,0|8,0:0|0:0,0:0:0:0:
156,271,768,2,0,P|209:258|265:276,2,110,0|8|0,0:0|0:0|0:0,0:0:0:0:
78,348,1746,5,8,0:0:0:0:
156,271,2072,2,0,P|174:220|161:165,1,110,0|8,0:0|0:0,0:0:0:0:
121,130,2561,1,8,0:0:0:0:
121,130,2724,6,0,P|177:143|231:130,1,110,0|8,0:0|0:0,0:0:0:0:
332,100,3376,2,0,P|318:152|341:211,2,110,0|8|0,0:0|0:0|0:0,0:0:0:0:
416,29,4355,1,8,0:0:0:0:
332,100,4681,2,0,L|275:100,1,55
229,72,5007,2,0,L|173:72,1,55,10|10,0:0|0:0,0:0:0:0:
123,44,5333,6,0,L|108:188,1,142.99999345398,4|8,0:0|0:0,0:0:0:0:
94,299,5985,2,0,B|162:281|162:281|234:302,1,142.99999345398,0|8,0:0|0:0,0:0:0:0:
286,317,6474,2,0,B|355:337|355:337|423:319,2,142.99999345398
231,301,7289,6,0,B|162:281|162:281|94:299,1,142.99999345398,0|8,0:0|0:0,0:0:0:0:
108,185,7942,6,0,L|122:42,1,142.99999345398,0|8,0:0|0:0,0:0:0:0:
234,66,8594,2,0,P|309:88|374:67,1,142.99999345398,0|8,0:0|0:0,0:0:0:0:
419,43,9083,2,0,P|402:89|420:192,2,142.99999345398
369,70,9898,2,0,P|301:88|234:66,1,142.99999345398,0|8,0:0|0:0,0:0:0:0:
180,46,10387,1,8,0:0:0:0:
127,69,10550,6,0,B|150:144|150:144|120:215,2,142.99999345398,4|8|0,0:0|0:0|0:0,0:0:0:0:
29,129,11529,2,0,L|29:207,1,71.4999967269899,8|0,0:0|0:0,0:0:0:0:
30,257,11855,2,0,P|65:299|160:315,2,142.99999345398,0|8|0,0:0|0:0|0:0,0:0:0:0:
28,142,12833,2,0,L|101:142,1,71.4999967269899,8|8,0:0|0:0,0:0:0:0:
134,187,13159,6,0,L|281:187,2,142.99999345398,0|8|0,0:0|0:0|0:0,0:0:0:0:
160,298,14137,1,8,0:0:0:0:
261,334,14463,6,0,B|371:374|371:286|496:349,2,214.49999018097,0|0|8,0:0|0:0|0:0,0:0:0:0:
269,277,15605,1,8,0:0:0:0:
282,221,15768,6,0,B|211:240|211:240|132:216,2,142.99999345398,0|8|0,0:0|0:0|0:0,0:0:0:0:
389,182,16746,2,0,L|397:255,1,71.4999967269899,8|0,0:0|0:0,0:0:0:0:
403,309,17072,6,0,B|337:341|330:296|255:335,2,142.99999345398,0|8|0,0:0|0:0|0:0,0:0:0:0:
390,195,18050,2,0,P|359:187|312:199,1,71.4999967269899,8|8,0:0|0:0,0:0:0:0:
278,237,18376,6,0,P|215:263|142:234,2,142.99999345398,0|8|0,0:0|0:0|0:0,0:0:0:0:
210,144,19355,1,8,0:0:0:0:
278,237,19681,2,0,P|352:255|426:233,2,142.99999345398,0|8|0,0:0|0:0|0:0,0:0:0:0:
168,209,20659,1,8,0:0:0:0:
246,125,20985,6,0,B|359:125|359:125|383:146,2,142.99999345398,4|8|0,0:0|0:0|0:0,0:0:0:0:
188,127,21800,2,0,B|75:127|75:127|51:106,1,142.99999345398
52,107,22289,6,0,P|71:177|28:266,1,142.99999345398,0|8,0:0|0:0,0:0:0:0:
163,232,22942,2,0,P|233:212|313:243,1,142.99999345398,0|8,0:0|0:0,0:0:0:0:
401,280,23594,6,0,B|381:212|381:212|404:135,2,142.99999345398,0|8|0,0:0|0:0|0:0,0:0:0:0:
418,334,24409,2,0,B|350:356|350:356|264:325,1,142.99999345398
230,307,24898,6,0,P|162:293|90:307,1,142.99999345398,0|8,0:0|0:0,0:0:0:0:
95,192,25550,2,0,P|163:206|235:192,1,142.99999345398,0|8,0:0|0:0,0:0:0:0:
235,135,26039,1,8,0:0:0:0:
235,77,26202,6,0,B|306:58|306:58|372:84,2,142.99999345398,4|8|0,0:0|0:0|0:0,0:0:0:0:
123,105,27181,2,0,P|81:113|42:100,1,71.4999967269899,8|0,0:0|0:0,0:0:0:0:
6,93,27507,6,0,P|29:167|-10:240,1,142.99999345398,0|8,0:0|0:0,0:0:0:0:
24,278,27996,1,0,0:0:0:0:
42,332,28159,2,0,B|116:297|119:360|195:322,1,142.99999345398,0|8,0:0|0:0,0:0:0:0:
230,333,28648,1,0,0:0:0:0:
286,323,28811,6,0,P|359:305|433:330,1,142.99999345398,0|8,0:0|0:0,0:0:0:0:
418,209,29463,2,0,B|338:180|350:227|272:205,1,142.99999345398,0|8,0:0|0:0,0:0:0:0:
252,161,29952,1,0,0:0:0:0:
262,107,30115,6,0,P|332:80|406:115,1,142.99999345398,2|10,0:0|0:0,0:0:0:0:
478,179,30768,2,0,L|463:322,1,142.99999345398,2|10,0:0|0:0,0:0:0:0:
347,321,31420,6,0,L|332:178,2,142.99999345398,2|8|0,0:0|0:0|0:0,0:0:0:0:
232,322,32398,2,0,L|154:322,1,71.4999967269899,8|0,0:0|0:0,0:0:0:0:
102,322,32724,6,0,P|77:279|110:172,1,142.99999345398,0|8,0:0|0:0,0:0:0:0:
119,140,33213,1,0,0:0:0:0:
151,92,33376,2,0,B|223:59|223:118|320:82,1,142.99999345398,0|8,0:0|0:0,0:0:0:0:
272,204,34029,6,0,L|346:204,2,71.4999967269899,0|0|8,0:0|0:0|0:0,0:0:0:0:
171,258,34681,2,0,L|97:258,2,71.4999967269899,0|0|8,0:0|0:0|0:0,0:0:0:0:
270,309,35333,6,0,L|432:309,2,142.99999345398,2|10|2,0:0|0:0|0:0,0:0:0:0:
155,309,36311,1,10,0:0:0:0:
155,309,36474,6,0,B|107:227|202:197|139:98,1,214.49999018097,0|8,0:0|0:0,0:0:0:0:
103,61,37126,1,0,0:0:0:0:
146,24,37289,2,0,P|185:17|227:29,1,71.4999967269899
310,89,37779,2,0,P|385:103|459:89,1,142.99999345398
490,132,38268,2,0,P|497:178|486:208,1,71.4999967269899,8|0,0:0|0:0,0:0:0:0:
473,256,38594,2,0,L|322:256,1,142.99999345398,0|8,0:0|0:0,0:0:0:0:
215,256,39246,6,0,P|190:186|216:120,2,142.99999345398,0|8|0,0:0|0:0|0:0,0:0:0:0:
107,233,40224,1,8,0:0:0:0:
107,233,40387,6,0,P|124:316|98:373,2,142.99999345398
215,256,41365,2,0,P|255:261|291:256,1,71.4999967269899,0|8,0:0|0:0,0:0:0:0:
342,245,41692,6,0,B|362:175|362:175|338:90,2,142.99999345398
285,257,42507,2,0,P|249:260|214:255,1,71.4999967269899
268,356,42996,6,0,B|343:320|343:383|427:348,2,142.99999345398
211,364,43811,2,0,L|190:218,1,142.99999345398,0|8,0:0|0:0,0:0:0:0:
178,108,44463,6,0,P|105:122|32:108,1,142.99999345398
50,225,45115,2,0,B|126:199|201:225,1,142.99999345398,0|8,0:0|0:0,0:0:0:0:
218,272,45605,2,0,P|266:277|370:264,2,142.99999345398
236,218,46420,6,0,P|244:169|237:140,1,71.4999967269899,0|8,0:0|0:0,0:0:0:0:
203,111,46746,2,0,P|196:64|204:36,1,71.4999967269899,8|8,0:0|0:0,0:0:0:0:
256,23,47072,6,0,B|340:47|340:47|423:21,1,165.000006294251,4|8,0:0|0:0,0:0:0:0:
458,147,47724,2,0,P|425:228|460:306,1,165.000006294251,0|8,0:0|0:0,0:0:0:0:
487,330,48214,2,0,P|405:305|325:332,1,165.000006294251
286,347,48703,2,0,P|245:354|206:343,1,82.5000031471254,8|0,0:0|0:0,0:0:0:0:
159,327,49029,2,0,B|111:267|111:267|140:178,1,165.000006294251,0|8,0:0|0:0,0:0:0:0:
154,136,49518,6,0,P|82:112|-10:141,2,165.000006294251,8|0|0,0:0|0:0|0:0,0:0:0:0:
195,163,50333,2,0,P|278:187|358:164,1,165.000006294251,0|8,0:0|0:0,0:0:0:0:
399,152,50822,1,0,0:0:0:0:
447,158,50985,2,0,L|410:353,2,165.000006294251,0|8|0,0:0|0:0|0:0,0:0:0:0:
464,26,51964,2,0,L|374:26,1,82.5000031471254,8|8,0:0|0:0,0:0:0:0:
332,60,52289,6,0,B|250:35|256:94|161:53,2,165.000006294251,0|8|0,0:0|0:0|0:0,0:0:0:0:
330,192,53268,1,8,0:0:0:0:
330,192,53431,2,0,P|258:228|183:198,1,165.000006294251
148,161,53920,6,0,P|112:151|55:172,1,82.5000031471254,8|0,0:0|0:0,0:0:0:0:
36,200,54246,2,0,L|50:283,1,82.5000031471254
58,330,54572,2,0,P|103:343|149:324,1,82.5000031471254,8|8,0:0|0:0,0:0:0:0:
182,316,54898,6,0,B|262:294|262:294|349:322,1,165.000006294251,0|8,0:0|0:0,0:0:0:0:
458,261,55550,2,0,B|378:235|378:235|321:165,1,165.000006294251,0|8,0:0|0:0,0:0:0:0:
228,87,56202,6,0,P|190:95|141:85,1,82.5000031471254
100,73,56529,2,0,P|109:119|100:157,1,82.5000031471254,8|0,0:0|0:0,0:0:0:0:
77,196,56855,2,0,P|68:243|79:284,1,82.5000031471254
91,320,57181,2,0,L|181:320,1,82.5000031471254,8|8,0:0|0:0,0:0:0:0:
220,317,57507,6,0,L|253:141,1,165.000006294251,4|8,0:0|0:0,0:0:0:0:
274,24,58159,2,0,B|351:54|351:54|432:25,1,165.000006294251,0|8,0:0|0:0,0:0:0:0:
476,43,58648,2,0,P|447:109|493:204,1,165.000006294251
493,237,59137,6,0,P|504:281|489:326,1,82.5000031471254,8|0,0:0|0:0,0:0:0:0:
447,332,59464,2,0,B|367:361|367:297|275:340,1,165.000006294251,0|8,0:0|0:0,0:0:0:0:
238,347,59952,2,0,P|163:322|147:238,2,165.000006294251,8|0|0,0:0|0:0|0:0,0:0:0:0:
286,335,60768,6,0,P|297:288|281:244,1,82.5000031471254
269,210,61094,2,0,P|256:160|272:117,1,82.5000031471254,8|0,0:0|0:0,0:0:0:0:
286,87,61420,6,0,P|208:109|126:79,2,165.000006294251,0|8|0,0:0|0:0|0:0,0:0:0:0:
410,42,62398,2,0,L|428:122,1,82.5000031471254,8|8,0:0|0:0,0:0:0:0:
402,177,62724,2,0,B|331:216|308:146|230:195,2,165.000006294251,0|8|0,0:0|0:0|0:0,0:0:0:0:
512,170,63703,1,8,0:0:0:0:
512,170,63865,2,0,P|539:260|491:334,2,165.000006294251
485,125,64681,6,0,L|399:125,1,82.5000031471254
385,75,65007,2,0,L|299:75,1,82.5000031471254,8|8,0:0|0:0,0:0:0:0:
295,127,65333,6,0,B|221:154|194:98|122:134,1,165.000006294251,0|8,0:0|0:0,0:0:0:0:
83,39,65985,2,0,P|131:111|109:215,1,165.000006294251,0|8,0:0|0:0,0:0:0:0:
101,242,66474,1,0,0:0:0:0:
78,293,66637,6,0,P|157:268|244:301,1,165.000006294251,0|8,0:0|0:0,0:0:0:0:
288,294,67126,2,0,P|363:319|467:285,1,165.000006294251,0|8,0:0|0:0,0:0:0:0:
481,254,67615,2,0,L|469:167,1,82.5000031471254,8|8,0:0|0:0,0:0:0:0:
459,121,67942,6,0,B|392:142|392:142|303:117,1,142.99999345398,4|8,0:0|0:0,0:0:0:0:
319,259,68594,2,0,B|252:238|252:238|163:263,2,142.99999345398,2|8|0,0:0|0:0|0:0,0:0:0:0:
321,122,69572,2,0,B|388:143|388:143|477:118,1,142.99999345398,8|2,0:0|0:0,0:0:0:0:
458,213,70224,2,0,L|458:286,1,71.4999967269899,8|8,0:0|0:0,0:0:0:0:
456,334,70550,6,0,P|387:349|310:328,1,142.99999345398,0|8,0:0|0:0,0:0:0:0:
224,297,71202,2,0,P|152:280|81:306,1,142.99999345398,2|8,0:0|0:0,0:0:0:0:
102,201,71855,6,0,P|111:165|103:123,1,71.4999967269899,0|2,0:0|0:0,0:0:0:0:
90,83,72181,2,0,P|139:90|176:80,1,71.4999967269899,10|2,0:0|0:0,0:0:0:0:
206,67,72507,2,0,P|251:58|291:75,1,71.4999967269899,2|0,0:0|0:0,0:0:0:0:
321,82,72833,2,0,P|366:88|404:78,1,71.4999967269899,8|8,0:0|0:0,0:0:0:0:
438,67,73159,6,0,B|460:139|460:139|434:212,1,142.99999345398,0|8,0:0|0:0,0:0:0:0:
340,227,73811,2,0,B|286:174|286:174|215:174,2,142.99999345398,2|8|0,0:0|0:0|0:0,0:0:0:0:
295,316,74789,2,0,B|227:339|227:339|159:313,1,142.99999345398,8|2,0:0|0:0,0:0:0:0:
75,259,75442,2,0,L|75:175,1,71.4999967269899,8|8,0:0|0:0,0:0:0:0:
75,137,75768,6,0,P|150:157|231:131,1,142.99999345398,0|8,0:0|0:0,0:0:0:0:
303,101,76420,2,0,P|372:86|440:106,1,142.99999345398,2|8,0:0|0:0,0:0:0:0:
457,204,77072,6,0,L|447:280,1,71.4999967269899,0|2,0:0|0:0,0:0:0:0:
440,324,77398,2,0,P|404:317|353:332,1,71.4999967269899,10|2,0:0|0:0,0:0:0:0:
323,340,77724,2,0,P|287:347|236:332,1,71.4999967269899,2|0,0:0|0:0,0:0:0:0:
210,314,78050,2,0,L|195:236,1,71.4999967269899,8|8,0:0|0:0,0:0:0:0:
187,194,78376,6,0,B|112:209|112:209|46:178,2,142.99999345398,4|8|2,0:0|0:0|0:0,0:0:0:0:
247,114,79355,1,8,0:0:0:0:
344,136,79681,6,0,B|411:158|411:158|453:228,2,142.99999345398,0|8|2,0:0|0:0|0:0,0:0:0:0:
247,114,80659,2,0,P|239:74|248:42,1,71.4999967269899,8|8,0:0|0:0,0:0:0:0:
196,45,80985,6,0,L|47:45,2,142.99999345398,0|8|2,0:0|0:0|0:0,0:0:0:0:
157,137,81963,1,8,0:0:0:0:
126,232,82289,6,0,L|205:232,1,71.4999967269899,0|2,0:0|0:0,0:0:0:0:
247,232,82615,2,0,P|256:269|241:311,1,71.4999967269899,10|2,0:0|0:0,0:0:0:0:
233,348,82942,2,0,L|317:348,1,71.4999967269899,2|0,0:0|0:0,0:0:0:0:
354,349,83268,2,0,P|343:309|352:273,1,71.4999967269899,8|8,0:0|0:0,0:0:0:0:
369,234,83594,6,0,B|468:234|468:234|494:187,2,142.99999345398,0|8|2,0:0|0:0|0:0,0:0:0:0:
268,234,84572,1,8,0:0:0:0:
167,234,84898,6,0,B|68:234|68:234|42:281,2,142.99999345398,0|8|2,0:0|0:0|0:0,0:0:0:0:
268,234,85876,2,0,L|268:162,1,71.4999967269899,8|8,0:0|0:0,0:0:0:0:
270,112,86202,6,0,P|196:126|128:108,2,142.99999345398,0|8|2,0:0|0:0|0:0,0:0:0:0:
357,62,87181,1,8,0:0:0:0:
365,161,87507,6,0,L|379:315,1,142.99999345398,0|8,0:0|0:0,0:0:0:0:
278,291,88159,2,0,P|245:283|208:293,1,71.4999967269899,2|8,0:0|0:0,0:0:0:0:
159,299,88485,2,0,P|124:308|90:300,1,71.4999967269899,8|8,0:0|0:0,0:0:0:0:
81,262,88811,6,0,L|69:132,1,110,4|0,0:0|0:0,0:0:0:0:
80,54,89463,2,0,P|140:39|193:55,1,110
231,68,89952,2,0,P|283:80|356:66,1,110
430,34,90605,5,0,0:0:0:0:
430,34,90768,2,0,L|439:161,1,110,0|8,0:0|0:0,0:0:0:0:
441,193,91257,1,8,0:0:0:0:
445,242,91420,6,0,P|383:221|307:245,1,142.99999345398,0|8,0:0|0:0,0:0:0:0:
220,286,92072,2,0,P|162:304|73:278,1,142.99999345398,0|8,0:0|0:0,0:0:0:0:
51,247,92561,2,0,P|28:176|56:113,2,142.99999345398
83,285,93376,6,0,L|164:285,1,71.4999967269899
204,284,93702,2,0,L|281:284,1,71.4999967269899,8|0,0:0|0:0,0:0:0:0:
325,284,94029,6,0,P|353:216|331:152,2,142.99999345398,4|8|0,0:0|0:0|0:0,0:0:0:0:
406,342,95007,2,0,P|446:351|481:340,1,71.4999967269899,8|0,0:0|0:0,0:0:0:0:
495,297,95333,6,0,L|495:127,2,142.99999345398,0|8|0,0:0|0:0|0:0,0:0:0:0:
403,229,96311,2,0,L|403:148,1,71.4999967269899,8|8,0:0|0:0,0:0:0:0:
403,100,96637,6,0,P|335:78|267:97,2,142.99999345398,0|8|0,0:0|0:0|0:0,0:0:0:0:
327,186,97615,1,8,0:0:0:0:
262,280,97942,6,0,B|370:329|370:235|492:295,2,214.49999018097,0|0|8,0:0|0:0|0:0,0:0:0:0:
207,262,99083,1,8,0:0:0:0:
155,236,99246,6,0,P|134:164|162:92,2,142.99999345398,0|8|0,0:0|0:0|0:0,0:0:0:0:
245,166,100224,2,0,L|316:166,1,71.4999967269899,8|0,0:0|0:0,0:0:0:0:
373,168,100550,6,0,L|346:315,2,142.99999345398,0|8|0,0:0|0:0|0:0,0:0:0:0:
484,140,101529,2,0,L|501:48,1,71.4999967269899,8|8,0:0|0:0,0:0:0:0:
446,42,101855,6,0,P|379:59|291:28,1,142.99999345398,0|8,0:0|0:0,0:0:0:0:
219,111,102507,2,0,P|150:92|82:109,1,142.99999345398,0|8,0:0|0:0,0:0:0:0:
85,223,103159,6,0,L|165:245,1,71.4999967269899
211,240,103485,2,0,L|290:220,1,71.4999967269899,8|0,0:0|0:0,0:0:0:0:
336,213,103811,2,0,L|494:243,2,142.99999345398,0|8|4,0:0|0:0|0:0,0:0:0:0:
288,108,104789,6,0,L|136:147,1,142.99999345398,8|0,0:0|0:0,0:0:0:0:
93,157,105279,2,0,B|118:233|118:233|91:309,1,142.99999345398
72,344,105768,6,0,P|141:326|220:351,1,142.99999345398,0|8,0:0|0:0,0:0:0:0:
321,322,106420,2,0,P|402:333|466:308,2,142.99999345398,0|8|0,0:0|0:0|0:0,0:0:0:0:
311,207,107398,2,0,P|378:185|448:197,1,142.99999345398,8|0,0:0|0:0,0:0:0:0:
500,222,107887,2,0,P|470:159|488:77,1,142.99999345398
499,34,108376,6,0,B|424:54|424:54|337:27,1,142.99999345398,0|8,0:0|0:0,0:0:0:0:
271,105,109029,2,0,B|208:85|208:85|133:105,1,142.99999345398,0|8,0:0|0:0,0:0:0:0:
85,121,109518,5,8,0:0:0:0:
37,135,109681,2,0,L|37:278,2,142.99999345398,4|8|0,0:0|0:0|0:0,0:0:0:0:
36,34,110659,2,0,L|115:34,1,71.4999967269899,8|0,0:0|0:0,0:0:0:0:
157,34,110985,6,0,P|183:108|153:181,1,142.99999345398,0|8,0:0|0:0,0:0:0:0:
138,218,111474,1,0,0:0:0:0:
121,272,111637,2,0,B|191:250|191:250|271:279,1,142.99999345398,0|8,0:0|0:0,0:0:0:0:
307,298,112126,1,0,0:0:0:0:
359,321,112289,6,0,B|424:344|424:344|494:322,2,142.99999345398,0|8|0,0:0|0:0|0:0,0:0:0:0:
366,206,113268,1,8,0:0:0:0:
364,91,113594,6,0,P|298:112|219:83,1,142.99999345398,2|10,0:0|0:0,0:0:0:0:
130,60,114246,2,0,P|155:134|124:202,1,142.99999345398,2|10,0:0|0:0,0:0:0:0:
41,260,114898,6,0,P|20:187|52:116,2,142.99999345398,2|8|0,0:0|0:0|0:0,0:0:0:0:
135,314,115876,2,0,P|172:306|215:313,1,71.4999967269899,8|0,0:0|0:0,0:0:0:0:
258,329,116202,6,0,P|329:352|401:324,1,142.99999345398,0|8,0:0|0:0,0:0:0:0:
444,307,116692,1,0,0:0:0:0:
493,278,116855,2,0,P|471:216|492:131,1,142.99999345398,0|8,0:0|0:0,0:0:0:0:
385,196,117507,6,0,P|347:204|315:195,2,71.4999967269899,0|0|8,0:0|0:0|0:0,0:0:0:0:
383,81,118159,2,0,P|421:73|453:82,2,71.4999967269899,0|0|8,0:0|0:0|0:0,0:0:0:0:
281,29,118811,6,0,P|213:49|145:28,2,142.99999345398,2|10|2,0:0|0:0|0:0,0:0:0:0:
376,98,119789,1,10,0:0:0:0:
376,155,119952,6,0,B|271:209|271:126|167:176,1,214.49999018097,0|8,0:0|0:0,0:0:0:0:
173,289,120768,2,0,B|102:311|102:311|30:289,1,142.99999345398,0|8,0:0|0:0,0:0:0:0:
0,280,121257,2,0,P|22:237|-5:135,1,142.99999345398
23,93,121746,6,0,P|62:89|96:70,1,71.4999967269899,8|0,0:0|0:0,0:0:0:0:
144,56,122072,2,0,P|209:93|284:92,1,142.99999345398,0|8,0:0|0:0,0:0:0:0:
389,81,122724,6,0,B|470:81|470:81|509:134,2,142.99999345398
321,173,123702,1,8,0:0:0:0:
321,173,123865,6,0,B|346:243|346:243|314:313,2,142.99999345398
212,209,124844,2,0,P|173:215|135:207,1,71.4999967269899,0|8,0:0|0:0,0:0:0:0:
96,187,125170,6,0,P|114:268|87:330,2,142.99999345398
68,136,125985,2,0,P|59:100|69:65,1,71.4999967269899
160,47,126474,6,0,P|231:69|301:48,2,142.99999345398
163,104,127289,2,0,P|188:187|156:248,1,142.99999345398,0|8,0:0|0:0,0:0:0:0:
100,328,127942,6,0,B|171:305|171:305|243:335,1,142.99999345398,0|8,0:0|0:0,0:0:0:0:
345,356,128594,2,0,B|312:291|312:291|344:214,1,142.99999345398,0|8,0:0|0:0,0:0:0:0:
370,178,129083,6,0,P|439:203|514:178,2,142.99999345398
321,147,129898,2,0,P|311:109|321:65,1,71.4999967269899,0|8,0:0|0:0,0:0:0:0:
361,38,130224,2,0,P|325:49|285:39,1,71.4999967269899,8|8,0:0|0:0,0:0:0:0:
243,43,130550,6,0,P|167:73|76:33,1,165.000006294251,4|8,0:0|0:0,0:0:0:0:
0,13,131202,2,0,P|29:89|-16:182,1,165.000006294251,0|8,0:0|0:0,0:0:0:0:
25,212,131692,2,0,P|107:187|187:214,1,165.000006294251
212,247,132181,2,0,P|265:257|303:245,1,82.5000031471254,8|0,0:0|0:0,0:0:0:0:
340,239,132507,2,0,L|362:69,1,165.000006294251,0|8,0:0|0:0,0:0:0:0:
369,30,132996,6,0,P|297:54|205:25,2,165.000006294251,8|0|0,0:0|0:0|0:0,0:0:0:0:
417,22,133811,2,0,P|460:27|485:132,1,165.000006294251,0|8,0:0|0:0,0:0:0:0:
465,174,134300,1,0,0:0:0:0:
422,199,134463,6,0,B|395:276|395:276|419:355,2,165.000006294251,0|8|0,0:0|0:0|0:0,0:0:0:0:
322,200,135442,2,0,L|232:200,1,82.5000031471254,8|8,0:0|0:0,0:0:0:0:
190,202,135768,6,0,B|216:279|216:279|192:358,2,165.000006294251,0|8|0,0:0|0:0|0:0,0:0:0:0:
162,112,136746,1,8,0:0:0:0:
162,112,136909,6,0,B|239:85|239:85|318:109,2,165.000006294251
115,129,137724,2,0,P|125:175|110:213,1,82.5000031471254
103,255,138050,2,0,P|93:301|108:339,1,82.5000031471254,8|8,0:0|0:0,0:0:0:0:
153,335,138376,6,0,L|324:335,1,165.000006294251,0|8,0:0|0:0,0:0:0:0:
353,242,139029,2,0,L|182:242,1,165.000006294251,0|8,0:0|0:0,0:0:0:0:
156,148,139681,6,0,L|244:148,1,82.5000031471254
283,128,140007,2,0,P|298:82|283:39,1,82.5000031471254,8|0,0:0|0:0,0:0:0:0:
244,29,140333,2,0,L|155:29,1,82.5000031471254
112,34,140659,2,0,P|104:73|118:111,1,82.5000031471254,8|8,0:0|0:0,0:0:0:0:
156,148,140985,6,0,P|186:236|144:308,1,165.000006294251,4|8,0:0|0:0,0:0:0:0:
254,312,141637,2,0,P|333:285|423:327,1,165.000006294251,0|8,0:0|0:0,0:0:0:0:
447,339,142126,2,0,P|415:262|436:187,1,165.000006294251
461,143,142615,6,0,P|472:99|457:54,1,82.5000031471254,8|0,0:0|0:0,0:0:0:0:
421,36,142942,2,0,B|347:67|347:67|267:38,1,165.000006294251,0|8,0:0|0:0,0:0:0:0:
220,22,143431,2,0,B|133:33|133:33|86:106,2,165.000006294251,8|0|0,0:0|0:0|0:0,0:0:0:0:
220,71,144246,6,0,P|229:122|212:157,1,82.5000031471254
215,198,144572,2,0,P|202:236|212:276,1,82.5000031471254,8|0,0:0|0:0,0:0:0:0:
240,317,144898,6,0,B|321:293|321:293|410:323,2,165.000006294251,0|8|0,0:0|0:0|0:0,0:0:0:0:
144,344,145876,2,0,L|122:251,1,82.5000031471254,8|8,0:0|0:0,0:0:0:0:
112,216,146202,6,0,B|191:239|191:239|285:207,2,165.000006294251,0|8|0,0:0|0:0|0:0,0:0:0:0:
116,120,147181,1,8,0:0:0:0:
116,120,147344,6,0,B|195:97|195:97|289:129,2,165.000006294251
68,132,148159,2,0,L|82:218,1,82.5000031471254
94,260,148485,2,0,P|140:273|178:261,1,82.5000031471254,8|8,0:0|0:0,0:0:0:0:
217,244,148811,6,0,P|303:218|378:246,1,165.000006294251,0|8,0:0|0:0,0:0:0:0:
433,318,149463,2,0,P|406:228|428:160,1,165.000006294251,0|8,0:0|0:0,0:0:0:0:
450,119,149952,1,0,0:0:0:0:
450,119,150115,6,0,L|275:131,1,165.000006294251,0|8,0:0|0:0,0:0:0:0:
235,130,150605,2,0,L|70:118,1,165.000006294251,0|8,0:0|0:0,0:0:0:0:
20,115,151094,2,0,L|27:201,1,82.5000031471254,8|8,0:0|0:0,0:0:0:0:
32,246,151420,6,0,B|101:267|101:267|180:242,1,142.99999345398,4|8,0:0|0:0,0:0:0:0:
259,203,152072,2,0,B|328:182|328:182|407:207,2,142.99999345398,2|8|0,0:0|0:0|0:0,0:0:0:0:
256,303,153050,2,0,B|323:324|323:324|392:303,1,142.99999345398,8|2,0:0|0:0,0:0:0:0:
395,203,153702,2,0,L|395:120,1,71.4999967269899,8|8,0:0|0:0,0:0:0:0:
395,81,154029,6,0,P|319:93|243:78,1,142.99999345398,0|8,0:0|0:0,0:0:0:0:
169,29,154681,2,0,P|187:107|157:178,1,142.99999345398,2|8,0:0|0:0,0:0:0:0:
95,234,155333,6,0,P|135:225|175:235,1,71.4999967269899,0|2,0:0|0:0,0:0:0:0:
213,242,155659,2,0,P|266:249|291:242,1,71.4999967269899,10|2,0:0|0:0,0:0:0:0:
326,220,155985,2,0,L|365:285,1,71.4999967269899,2|0,0:0|0:0,0:0:0:0:
412,282,156311,2,0,L|448:220,1,71.4999967269899,8|8,0:0|0:0,0:0:0:0:
452,170,156637,6,0,L|405:35,1,142.99999345398,0|8,0:0|0:0,0:0:0:0:
329,101,157289,2,0,L|189:149,2,142.99999345398,2|8|0,0:0|0:0|0:0,0:0:0:0:
264,24,158268,6,0,L|124:72,1,142.99999345398,8|2,0:0|0:0,0:0:0:0:
34,103,158920,2,0,L|18:179,1,71.4999967269899,8|8,0:0|0:0,0:0:0:0:
11,222,159246,6,0,P|50:236|77:335,1,142.99999345398,0|8,0:0|0:0,0:0:0:0:
180,321,159898,2,0,P|190:252|249:217,1,142.99999345398,2|8,0:0|0:0,0:0:0:0:
363,213,160550,6,0,P|373:175|360:133,1,71.4999967269899,0|2,0:0|0:0,0:0:0:0:
333,97,160876,2,0,L|254:97,1,71.4999967269899,10|2,0:0|0:0,0:0:0:0:
204,98,161202,2,0,L|132:98,1,71.4999967269899,2|0,0:0|0:0,0:0:0:0:
94,141,161529,2,0,P|82:182|90:212,1,71.4999967269899,8|8,0:0|0:0,0:0:0:0:
132,245,161855,6,0,L|280:245,1,142.99999345398,4|8,0:0|0:0,0:0:0:0:
389,243,162507,2,0,P|416:176|391:107,1,142.99999345398,2|8,0:0|0:0,0:0:0:0:
359,66,162996,2,0,B|473:70|473:70|451:44,2,142.99999345398
301,62,163811,6,0,L|156:58,1,142.99999345398,2|8,0:0|0:0,0:0:0:0:
100,55,164300,1,8,0:0:0:0:
42,52,164463,6,0,L|62:208,1,142.99999345398,0|8,0:0|0:0,0:0:0:0:
79,306,165115,2,0,P|154:278|228:310,1,142.99999345398,2|8,0:0|0:0,0:0:0:0:
263,320,165605,6,0,P|338:342|407:317,1,142.99999345398,0|2,0:0|0:0,0:0:0:0:
440,285,166094,2,0,P|459:257|466:213,1,71.4999967269899,10|2,0:0|0:0,0:0:0:0:
468,163,166420,2,0,P|462:130|436:94,1,71.4999967269899,2|0,0:0|0:0,0:0:0:0:
401,57,166746,2,0,P|368:43|323:43,1,71.4999967269899,8|8,0:0|0:0,0:0:0:0:
278,48,167072,6,0,P|221:72|145:45,1,142.99999345398,0|8,0:0|0:0,0:0:0:0:
34,25,167724,2,0,P|59:90|34:155,1,142.99999345398,2|8,0:0|0:0,0:0:0:0:
22,211,168213,2,0,P|16:266|70:348,2,142.99999345398
34,155,169029,6,0,P|105:181|175:153,1,142.99999345398,2|8,0:0|0:0,0:0:0:0:
214,129,169518,1,8,0:0:0:0:
268,112,169681,2,0,P|342:111|389:173,1,142.99999345398,0|8,0:0|0:0,0:0:0:0:
342,264,170333,2,0,P|268:265|221:203,1,142.99999345398,2|8,0:0|0:0,0:0:0:0:
167,212,170822,2,0,P|97:186|32:214,1,142.99999345398
51,154,171311,6,0,P|80:83|57:19,1,142.99999345398,8|2,0:0|0:0,0:0:0:0:
173,35,171963,2,0,L|261:44,1,71.4999967269899,8|8,0:0|0:0,0:0:0:0:
298,47,172289,6,0,L|293:161,1,110,4|8,0:0|0:0,0:0:0:0:
395,198,172942,2,0,L|403:27,2,165
382,307,174246,6,0,L|314:324,1,55,2|2,0:0|0:0,0:0:0:0:
273,322,174572,2,0,L|219:308,1,55,10|10,0:0|0:0,0:0:0:0:
166,296,174898,6,0,P|184:237|173:187,1,110,0|8,0:0|0:0,0:0:0:0:
64,192,175550,2,0,P|41:105|72:28,2,165
174,190,176855,2,0,L|240:190,1,55,2|2,0:0|0:0,0:0:0:0:
283,190,177181,2,0,L|350:190,1,55,10|10,0:0|0:0,0:0:0:0:
395,191,177507,6,0,P|379:140|409:49,1,142.99999345398,0|8,0:0|0:0,0:0:0:0:
291,81,178159,2,0,B|204:95|204:95|94:26,2,214.49999018097,0|0|8,0:0|0:0|0:0,0:0:0:0:
403,56,179463,2,0,P|411:92|401:129,1,71.4999967269899,2|2,0:0|0:0,0:0:0:0:
386,179,179789,2,0,P|380:220|396:256,1,71.4999967269899,10|10,0:0|0:0,0:0:0:0:
422,294,180115,6,0,P|316:273|266:294,1,142.99999345398,0|8,0:0|0:0,0:0:0:0:
179,327,180768,2,0,P|107:340|67:222,2,214.49999018097,0|0|8,0:0|0:0|0:0,0:0:0:0:
167,213,182072,6,0,L|157:132,1,71.4999967269899,0|10,0:0|0:0,0:0:0:0:
149,82,182398,2,0,L|221:91,1,71.4999967269899,10|10,0:0|0:0,0:0:0:0:
276,99,182724,6,0,B|359:74|359:74|441:124,1,165.000006294251,4|8,0:0|0:0,0:0:0:0:
410,229,183376,2,0,B|327:254|327:254|245:204,1,165.000006294251,0|8,0:0|0:0,0:0:0:0:
211,182,183865,2,0,B|144:141|144:141|61:166,1,165.000006294251
5,183,184355,6,0,P|18:230|4:271,1,82.5000031471254,8|0,0:0|0:0,0:0:0:0:
9,319,184681,2,0,P|83:293|169:322,1,165.000006294251,0|8,0:0|0:0,0:0:0:0:
219,303,185170,2,0,P|296:327|373:301,1,165.000006294251,8|0,0:0|0:0,0:0:0:0:
377,243,185659,6,0,L|377:158,1,82.5000031471254,8|0,0:0|0:0,0:0:0:0:
377,102,185985,2,0,P|333:111|290:97,1,82.5000031471254
252,65,186311,2,0,P|206:55|163:66,1,82.5000031471254,8|0,0:0|0:0,0:0:0:0:
115,75,186637,6,0,B|144:151|144:151|110:228,1,165.000006294251,0|8,0:0|0:0,0:0:0:0:
80,339,187289,2,0,B|156:310|156:310|235:341,1,165.000006294251,0|8,0:0|0:0,0:0:0:0:
288,359,187779,1,8,0:0:0:0:
263,306,187942,6,0,B|224:227|224:227|258:152,1,165.000006294251,0|8,0:0|0:0,0:0:0:0:
295,48,188594,2,0,B|216:81|216:81|142:49,1,165.000006294251
87,35,189083,2,0,B|115:116|115:116|81:202,1,165.000006294251
61,241,189572,6,0,P|115:252|156:239,1,82.5000031471254,8|0,0:0|0:0,0:0:0:0:
193,223,189898,2,0,P|240:213|282:222,1,82.5000031471254
326,240,190224,2,0,P|377:252|421:237,1,82.5000031471254,8|8,0:0|0:0,0:0:0:0:
453,213,190550,6,0,P|479:176|452:59,1,165.000006294251,0|8,0:0|0:0,0:0:0:0:
342,63,191202,2,0,P|316:100|343:217,1,165.000006294251,0|8,0:0|0:0,0:0:0:0:
406,303,191855,6,0,L|319:323,1,82.5000031471254
267,322,192181,2,0,L|187:304,1,82.5000031471254,8|0,0:0|0:0,0:0:0:0:
128,301,192507,2,0,L|34:320,1,82.5000031471254
16,268,192833,2,0,L|49:186,1,82.5000031471254,8|8,0:0|0:0,0:0:0:0:
74,141,193159,6,0,P|157:167|240:140,1,165.000006294251,4|8,0:0|0:0,0:0:0:0:
316,70,193811,2,0,P|347:131|311:223,1,165.000006294251,0|8,0:0|0:0,0:0:0:0:
278,261,194300,2,0,P|344:234|436:267,1,165.000006294251
475,297,194789,6,0,P|464:248|475:211,1,82.5000031471254,8|0,0:0|0:0,0:0:0:0:
483,160,195115,2,0,P|484:110|386:54,1,165.000006294251,0|8,0:0|0:0,0:0:0:0:
354,92,195605,2,0,P|319:112|232:39,1,165.000006294251,8|0,0:0|0:0,0:0:0:0:
174,40,196094,6,0,P|175:91|147:125,1,82.5000031471254,8|0,0:0|0:0,0:0:0:0:
129,166,196420,2,0,P|132:220|164:256,1,82.5000031471254
200,265,196746,2,0,P|213:306|206:348,1,82.5000031471254,8|0,0:0|0:0,0:0:0:0:
265,347,197072,6,0,P|340:308|410:354,1,165.000006294251,0|8,0:0|0:0,0:0:0:0:
429,231,197724,2,0,P|354:270|284:224,1,165.000006294251,0|8,0:0|0:0,0:0:0:0:
289,176,198213,1,8,0:0:0:0:
291,118,198376,6,0,P|243:103|175:190,1,165.000006294251,0|8,0:0|0:0,0:0:0:0:
67,223,199029,2,0,P|84:182|3:104,1,165.000006294251,0|8,0:0|0:0,0:0:0:0:
43,55,199518,2,0,P|123:93|196:52,1,165.000006294251
240,41,200007,6,0,P|282:29|329:44,1,82.5000031471254,8|0,0:0|0:0,0:0:0:0:
373,57,200333,2,0,L|348:223,1,165.000006294251,0|8,0:0|0:0,0:0:0:0:
341,277,200822,1,8,0:0:0:0:
341,277,200985,2,0,B|264:239|264:239|185:258,2,165.000006294251,0|8|0,0:0|0:0|0:0,0:0:0:0:
448,319,201963,1,8,0:0:0:0:
413,208,202289,6,0,P|398:166|468:75,1,165.000006294251,0|8,0:0|0:0,0:0:0:0:
410,49,202779,2,0,P|339:84|252:39,1,165.000006294251,0|8,0:0|0:0,0:0:0:0:
210,31,203268,2,0,P|167:20|125:36,1,82.5000031471254,8|8,0:0|0:0,0:0:0:0:
82,60,203594,6,0,L|97:208,1,142.99999345398,4|8,0:0|0:0,0:0:0:0:
200,155,204246,2,0,P|269:133|340:159,2,142.99999345398,0|8|0,0:0|0:0|0:0,0:0:0:0:
197,269,205224,2,0,P|272:293|351:260,1,142.99999345398,8|0,0:0|0:0,0:0:0:0:
425,209,205876,1,8,0:0:0:0:
425,209,206039,2,0,L|407:52,1,142.99999345398,8|0,0:0|0:0,0:0:0:0:
351,62,206529,6,0,P|283:85|203:52,1,142.99999345398,8|0,0:0|0:0,0:0:0:0:
116,11,207181,1,8,0:0:0:0:
16,67,207507,6,0,P|7:105|16:140,1,71.4999967269899
33,189,207833,2,0,B|105:219|105:164|182:200,1,142.99999345398,8|0,0:0|0:0,0:0:0:0:
133,303,208485,1,8,0:0:0:0:
133,303,208648,6,0,B|241:351|241:273|343:317,1,214.49999018097,8|8,0:0|0:0,0:0:0:0:
444,366,209463,2,0,P|419:298|442:232,1,142.99999345398,0|8,0:0|0:0,0:0:0:0:
498,134,210115,2,0,P|462:152|361:128,1,142.99999345398,0|8,0:0|0:0,0:0:0:0:
309,31,210768,2,0,P|332:96|306:161,1,142.99999345398
261,198,211257,1,8,0:0:0:0:
211,169,211420,6,0,B|109:118|91:232|-9:146,2,214.49999018097,0|0|8,0:0|0:0|0:0,0:0:0:0:
158,270,212724,2,0,B|260:321|278:207|378:293,2,214.49999018097,0|0|8,0:0|0:0|0:0,0:0:0:0:
187,221,213865,1,8,0:0:0:0:
211,169,214029,6,0,P|152:189|66:162,1,142.99999345398,4|8,0:0|0:0,0:0:0:0:
143,76,214681,2,0,P|211:55|279:76,1,142.99999345398,0|8,0:0|0:0,0:0:0:0:
211,169,215333,2,0,P|152:189|66:162,1,142.99999345398,0|8,0:0|0:0,0:0:0:0:
1,82,215985,2,0,P|35:146|21:226,1,142.99999345398,0|8,0:0|0:0,0:0:0:0:
3,265,216474,1,8,0:0:0:0:
13,321,216637,6,0,P|81:298|149:323,1,142.99999345398,2|10,0:0|0:0,0:0:0:0:
253,358,217289,2,0,P|228:289|266:206,1,142.99999345398,2|10,0:0|0:0,0:0:0:0:
283,115,217942,6,0,B|214:134|214:134|136:110,2,142.99999345398,2|8|0,0:0|0:0|0:0,0:0:0:0:
229,227,218920,1,8,0:0:0:0:
229,227,219083,2,0,B|297:248|297:248|366:229,1,142.99999345398,8|0,0:0|0:0,0:0:0:0:
421,212,219572,6,0,P|394:152|423:74,1,142.99999345398,8|0,0:0|0:0,0:0:0:0:
308,42,220224,1,8,0:0:0:0:
308,42,220387,2,0,B|232:64|232:64|159:37,1,142.99999345398
117,26,220876,6,0,P|142:89|111:165,1,142.99999345398,8|0,0:0|0:0,0:0:0:0:
56,254,221529,2,0,P|95:243|140:256,1,71.4999967269899,8|8,0:0|0:0,0:0:0:0:
177,271,221855,6,0,B|256:314|323:272,1,142.99999345398,0|8,0:0|0:0,0:0:0:0:
325,163,222507,2,0,B|246:120|179:162,1,142.99999345398,0|8,0:0|0:0,0:0:0:0:
140,187,222996,2,0,P|175:121|152:49,1,142.99999345398
209,31,223485,6,0,P|276:60|345:33,1,142.99999345398,8|8,0:0|0:0,0:0:0:0:
428,109,224137,5,4,0:0:0:0:
