osu file format v14

[General]
AudioFilename: audio.mp3
AudioLeadIn: 0
PreviewTime: 47072
Countdown: 1
SampleSet: Drum
StackLeniency: 0.7
Mode: 0
LetterboxInBreaks: 0
WidescreenStoryboard: 1

[Editor]
DistanceSpacing: 0.8
BeatDivisor: 4
GridSize: 4
TimelineZoom: 1

[Metadata]
Title:Love Logic
TitleUnicode:Love Logic
Artist:daniwellP feat. MAYU
ArtistUnicode:daniwellP feat. MAYU
Creator:Nuolong
Version:Insane
Source:
Tags:さぼてん daniwell vocaloid 月刊eta gekkaneta
BeatmapID:3478962
BeatmapSetID:916449

[Difficulty]
HPDrainRate:6
CircleSize:4
OverallDifficulty:7
ApproachRate:8.7
SliderMultiplier:1.4
SliderTickRate:1

[Events]
//Background and Video events
0,0,"background.JPG",0,0
//Break Periods
//Storyboard Layer 0 (Background)
//Storyboard Layer 1 (Fail)
//Storyboard Layer 2 (Pass)
//Storyboard Layer 3 (Foreground)
//Storyboard Layer 4 (Overlay)
//Storyboard Sound Samples

[TimingPoints]
116,326.086956521739,4,2,0,80,1,0
5333,-76.9230769230769,4,3,0,80,0,0
10550,-76.9230769230769,4,2,0,80,0,0
20985,-76.9230769230769,4,3,0,80,0,0
47072,-66.6666666666667,4,3,0,80,0,1
67942,-76.9230769230769,4,3,0,80,0,0
88811,-100,4,3,0,80,0,0
91420,-76.9230769230769,4,3,0,80,0,0
94029,-76.9230769230769,4,2,0,80,0,0
104463,-76.9230769230769,4,3,0,80,0,0
130550,-66.6666666666667,4,3,0,80,0,1
151420,-76.9230769230769,4,3,0,80,0,0
172289,-100,4,2,0,80,0,0
177507,-76.9230769230769,4,3,0,80,0,0
182724,-66.6666666666667,4,2,0,80,0,1
193159,-66.6666666666667,4,3,0,80,0,1
203594,-76.9230769230769,4,2,0,80,0,0
214029,-76.9230769230769,4,3,0,80,0,0

[Colours]
Combo1 : 173,173,173
Combo2 : 255,128,128
Combo3 : 202,0,0
Combo4 : 255,255,128

[HitObjects]
19,263,116,6,0,L|171:247,1,140,0|8,0:0|0:0,0:0:0:0:
245,237,605,1,0,0:0:0:0:
245,237,768,2,0,P|253:196|227:157,1,70
158,248,1094,2,0,P|150:289|176:328,1,70,8|0,0:0|0:0,0:0:0:0:
235,361,1420,6,0,L|387:345,1,140,0|8,0:0|0:0,0:0:0:0:
462,335,1909,1,0,0:0:0:0:
409,254,2072,2,0,L|328:262,1,70
273,199,2398,1,8,0:0:0:0:
273,199,2561,1,8,0:0:0:0:
331,69,2724,6,0,P|341:105|327:146,1,70
273,199,3050,1,8,0:0:0:0:
189,158,3213,1,0,0:0:0:0:
84,246,3376,2,0,L|171:239,1,70
231,286,3702,1,8,0:0:0:0:
273,199,3865,1,0,0:0:0:0:
192,91,4029,6,0,P|181:127|200:173,1,70
84,246,4355,1,8,0:0:0:0:
84,246,4681,2,0,P|95:210|76:164,1,70
37,109,5007,1,10,0:0:0:0:
188,157,5170,1,10,0:0:0:0:
149,47,5333,6,0,B|246:7|246:90|333:44,1,181.999991668702,4|8,0:0|0:0,0:0:0:0:
404,16,5822,1,0,0:0:0:0:
487,46,5985,2,0,L|473:232,1,181.999991668702,0|8,0:0|0:0,0:0:0:0:
380,368,6474,2,0,L|345:184,1,181.999991668702
327,86,6963,1,8,0:0:0:0:
259,228,7126,2,0,P|211:239|169:229,1,90.9999958343508
345,189,7615,2,0,P|390:173|439:185,1,90.9999958343508,8|0,0:0|0:0,0:0:0:0:
327,86,7942,6,0,B|230:46|230:129|143:83,1,181.999991668702,0|8,0:0|0:0,0:0:0:0:
37,38,8431,1,0,0:0:0:0:
49,178,8594,2,0,L|64:363,1,181.999991668702,0|8,0:0|0:0,0:0:0:0:
134,227,9083,6,0,B|144:325|144:325|186:342|235:316,1,181.999991668702
293,170,9572,2,0,P|246:156|197:176,1,90.9999958343508,8|0,0:0|0:0,0:0:0:0:
134,227,9898,1,0,0:0:0:0:
49,178,10061,1,0,0:0:0:0:
49,178,10224,2,0,P|47:133|67:93,1,90.9999958343508,8|8,0:0|0:0,0:0:0:0:
160,57,10550,6,0,L|343:49,2,181.999991668702,4|8|0,0:0|0:0|0:0,0:0:0:0:
306,132,11529,2,0,L|408:126,1,90.9999958343508,8|0,0:0|0:0,0:0:0:0:
482,165,11855,5,0,0:0:0:0:
378,218,12018,1,0,0:0:0:0:
306,132,12181,2,0,L|204:138,1,90.9999958343508,8|0,0:0|0:0,0:0:0:0:
152,211,12507,2,0,P|145:261|172:308,1,90.9999958343508
260,324,12833,1,8,0:0:0:0:
260,324,12996,1,8,0:0:0:0:
152,211,13159,6,0,P|98:195|24:293,1,181.999991668702,0|8,0:0|0:0,0:0:0:0:
150,299,13648,1,0,0:0:0:0:
227,259,13811,2,0,P|242:206|227:162,1,90.9999958343508
152,211,14137,1,8,0:0:0:0:
174,97,14300,1,0,0:0:0:0:
174,97,14463,6,0,L|278:87,1,90.9999958343508
321,12,14789,1,8,0:0:0:0:
264,88,14952,2,0,P|261:137|386:187,1,181.999991668702
397,59,15442,1,8,0:0:0:0:
397,59,15605,1,8,0:0:0:0:
264,88,15768,6,0,L|168:108,1,90.9999958343508
33,136,16094,2,0,L|227:155,1,181.999991668702,8|0,0:0|0:0,0:0:0:0:
215,154,16746,2,0,L|224:260,1,90.9999958343508,8|0,0:0|0:0,0:0:0:0:
64,315,17072,6,0,L|73:209,1,90.9999958343508
33,136,17398,1,8,0:0:0:0:
144,188,17561,1,0,0:0:0:0:
64,315,17724,2,0,P|112:334|153:319,1,90.9999958343508
227,264,18050,1,8,0:0:0:0:
227,264,18213,1,8,0:0:0:0:
206,106,18376,6,0,L|108:90,1,90.9999958343508
262,40,18702,2,0,L|362:30,1,90.9999958343508,8|0,0:0|0:0,0:0:0:0:
264,181,19029,2,0,L|164:191,1,90.9999958343508
322,117,19355,2,0,L|420:133,1,90.9999958343508,8|0,0:0|0:0,0:0:0:0:
413,273,19681,6,0,L|315:289,1,90.9999958343508
233,303,20007,1,8,0:0:0:0:
361,201,20170,1,0,0:0:0:0:
220,153,20333,2,0,P|204:103|221:62,1,90.9999958343508
285,12,20659,1,8,0:0:0:0:
220,153,20985,6,0,P|159:146|117:260,1,181.999991668702,4|8,0:0|0:0,0:0:0:0:
215,266,21474,1,0,0:0:0:0:
295,191,21637,2,0,P|305:142|283:95,1,90.9999958343508
210,58,21963,1,8,0:0:0:0:
214,231,22126,1,0,0:0:0:0:
290,104,22289,6,0,L|394:99,1,90.9999958343508
214,231,22615,2,0,L|110:236,1,90.9999958343508,8|0,0:0|0:0,0:0:0:0:
307,138,22942,6,0,L|411:133,1,90.9999958343508
195,266,23268,2,0,L|91:271,1,90.9999958343508,8|0,0:0|0:0,0:0:0:0:
328,175,23594,6,0,L|513:164,1,181.999991668702,0|8,0:0|0:0,0:0:0:0:
478,87,24083,1,0,0:0:0:0:
454,243,24246,2,0,L|354:250,1,90.9999958343508
387,93,24572,2,0,L|487:86,1,90.9999958343508,8|0,0:0|0:0,0:0:0:0:
337,25,24898,5,0,0:0:0:0:
328,175,25061,1,0,0:0:0:0:
263,67,25224,2,0,P|216:78|169:62,1,90.9999958343508,8|0,0:0|0:0,0:0:0:0:
240,174,25550,2,0,P|287:163|334:179,1,90.9999958343508
377,264,25876,1,8,0:0:0:0:
387,93,26039,1,8,0:0:0:0:
281,251,26202,6,0,P|211:290|123:253,1,181.999991668702,4|8,0:0|0:0,0:0:0:0:
165,149,26692,1,0,0:0:0:0:
165,149,26855,2,0,P|117:164|76:148,1,90.9999958343508
166,61,27181,1,8,0:0:0:0:
285,94,27344,1,0,0:0:0:0:
165,40,27507,6,0,L|60:55,1,90.9999958343508
285,94,27833,2,0,L|390:79,1,90.9999958343508,8|0,0:0|0:0,0:0:0:0:
441,23,28159,1,0,0:0:0:0:
406,157,28322,1,0,0:0:0:0:
285,94,28485,2,0,P|271:43|285:8,1,90.9999958343508,8|0,0:0|0:0,0:0:0:0:
283,176,28811,6,0,L|176:191,2,90.9999958343508,0|0|8,0:0|0:0|0:0,0:0:0:0:
406,157,29300,1,0,0:0:0:0:
324,250,29463,2,0,L|228:264,1,90.9999958343508
413,286,29789,1,8,0:0:0:0:
426,118,29952,1,0,0:0:0:0:
413,286,30115,5,2,0:0:0:0:
332,120,30279,1,0,0:0:0:0:
491,176,30442,1,10,0:0:0:0:
296,108,30605,2,0,P|240:125|253:241,1,181.999991668702
145,127,31094,2,0,P|105:113|49:132,1,90.9999958343508,10|0,0:0|0:0,0:0:0:0:
185,57,31420,6,0,P|234:41|260:11,1,90.9999958343508,2|0,0:0|0:0,0:0:0:0:
145,127,31746,2,0,P|132:184|234:258,1,181.999991668702,8|0,0:0|0:0,0:0:0:0:
216,259,32398,2,0,P|184:287|177:346,1,90.9999958343508,8|0,0:0|0:0,0:0:0:0:
297,235,32724,5,0,0:0:0:0:
231,115,32887,1,0,0:0:0:0:
360,178,33050,2,0,P|414:176|445:151,1,90.9999958343508,8|0,0:0|0:0,0:0:0:0:
306,319,33376,2,0,P|314:272|288:226,1,90.9999958343508
156,197,33702,1,8,0:0:0:0:
216,259,33865,1,0,0:0:0:0:
231,115,34029,6,0,L|328:102,1,90.9999958343508
370,31,34355,1,8,0:0:0:0:
360,178,34518,1,0,0:0:0:0:
231,115,34681,2,0,L|140:127,1,90.9999958343508
82,194,35007,1,8,0:0:0:0:
109,54,35170,1,0,0:0:0:0:
231,115,35333,6,0,P|241:163|225:202,1,90.9999958343508,2|0,0:0|0:0,0:0:0:0:
151,256,35659,1,10,0:0:0:0:
114,83,35822,1,0,0:0:0:0:
225,200,35985,2,0,P|270:213|317:198,1,90.9999958343508,2|0,0:0|0:0,0:0:0:0:
309,32,36311,1,10,0:0:0:0:
231,115,36474,1,0,0:0:0:0:
114,83,36637,6,0,L|131:270,1,181.999991668702,4|8,0:0|0:0,0:0:0:0:
86,340,37126,1,0,0:0:0:0:
86,340,37289,2,0,P|136:355|183:335,1,90.9999958343508
248,290,37615,1,8,0:0:0:0:
314,359,37779,6,0,P|357:331|341:212,1,181.999991668702
460,263,38268,2,0,P|469:309|515:346,1,90.9999958343508,8|0,0:0|0:0,0:0:0:0:
488,177,38594,1,0,0:0:0:0:
405,135,38757,1,0,0:0:0:0:
344,214,38920,2,0,P|301:225|249:207,1,90.9999958343508,8|0,0:0|0:0,0:0:0:0:
216,136,39246,5,0,0:0:0:0:
216,136,39409,1,0,0:0:0:0:
129,179,39572,2,0,L|133:277,2,90.9999958343508,8|0|0,0:0|0:0|0:0,0:0:0:0:
127,81,40061,1,0,0:0:0:0:
27,188,40224,1,8,0:0:0:0:
132,269,40387,6,0,P|210:309|303:257,1,181.999991668702
316,186,40876,1,8,0:0:0:0:
390,339,41039,2,0,L|413:154,1,181.999991668702
316,186,41529,1,8,0:0:0:0:
316,186,41692,6,0,P|235:145|153:203,1,181.999991668702
87,32,42181,2,0,P|113:69|163:80,1,90.9999958343508,8|0,0:0|0:0,0:0:0:0:
82,159,42507,2,0,P|75:213|101:251,1,90.9999958343508
216,308,42833,1,8,0:0:0:0:
216,308,42996,6,0,L|24:327,1,181.999991668702
92,243,43485,2,0,L|189:234,1,90.9999958343508,8|0,0:0|0:0,0:0:0:0:
250,170,43811,1,0,0:0:0:0:
305,272,43974,1,0,0:0:0:0:
306,108,44137,2,0,P|354:94|403:116,1,90.9999958343508,8|0,0:0|0:0,0:0:0:0:
222,88,44463,6,0,P|193:45|194:5,2,90.9999958343508
287,21,44952,1,0,0:0:0:0:
250,170,45115,2,0,L|147:178,2,90.9999958343508,0|0|8,0:0|0:0|0:0,0:0:0:0:
126,247,45605,6,0,P|90:211|146:106,1,181.999991668702
172,312,46094,2,0,P|125:328|79:312,2,90.9999958343508,8|0|0,0:0|0:0|0:0,0:0:0:0:
227,248,46583,1,8,0:0:0:0:
136,113,46746,1,8,0:0:0:0:
306,106,46909,1,8,0:0:0:0:
97,180,47072,6,0,P|60:130|156:38,1,210.000008010865,4|8,0:0|0:0,0:0:0:0:
224,112,47561,1,0,0:0:0:0:
227,248,47724,2,0,B|167:213|124:327|19:240,1,210.000008010865,0|8,0:0|0:0,0:0:0:0:
288,195,48213,2,0,P|311:246|206:327,1,210.000008010865
408,238,48702,6,0,P|465:220|515:241,1,105.000004005432,8|0,0:0|0:0,0:0:0:0:
503,105,49029,2,0,P|446:123|396:102,1,105.000004005432
335,41,49355,1,8,0:0:0:0:
335,41,49518,1,8,0:0:0:0:
359,177,49681,6,0,P|310:193|256:176,1,105.000004005432
194,117,50007,1,8,0:0:0:0:
175,210,50170,1,0,0:0:0:0:
103,140,50333,2,0,P|84:79|107:32,1,105.000004005432
84,234,50659,2,0,P|34:252|-17:236,1,105.000004005432,8|0,0:0|0:0,0:0:0:0:
175,210,50985,5,0,0:0:0:0:
251,265,51148,1,0,0:0:0:0:
251,265,51230,1,0,0:0:0:0:
251,265,51311,2,0,P|256:321|234:365,1,105.000004005432,8|0,0:0|0:0,0:0:0:0:
206,128,51637,1,0,0:0:0:0:
206,128,51719,1,0,0:0:0:0:
206,128,51800,2,0,P|256:104|309:115,1,105.000004005432,0|8,0:0|0:0,0:0:0:0:
251,265,52126,1,8,0:0:0:0:
136,179,52289,6,0,P|115:134|224:44,1,210.000008010865,0|8,0:0|0:0,0:0:0:0:
264,194,52779,1,0,0:0:0:0:
166,262,52942,2,0,L|58:273,2,105.000004005432,0|0|8,0:0|0:0|0:0,0:0:0:0:
264,194,53431,6,0,L|472:215,1,210.000008010865
375,101,53920,2,0,L|267:110,1,105.000004005432,8|0,0:0|0:0,0:0:0:0:
176,114,54246,1,0,0:0:0:0:
153,205,54409,1,0,0:0:0:0:
270,109,54572,2,0,P|283:51|254:7,1,105.000004005432,8|8,0:0|0:0,0:0:0:0:
375,101,54898,6,0,P|360:156|487:227,1,210.000008010865,0|8,0:0|0:0,0:0:0:0:
467,234,55550,2,0,P|411:284|409:318,1,105.000004005432
328,266,55876,2,0,P|281:250|223:272,1,105.000004005432,8|0,0:0|0:0,0:0:0:0:
153,323,56202,5,0,0:0:0:0:
181,187,56365,1,0,0:0:0:0:
281,333,56529,1,8,0:0:0:0:
111,243,56692,2,0,L|0:253,2,105.000004005432
181,187,57181,1,8,0:0:0:0:
153,323,57344,1,8,0:0:0:0:
126,119,57507,6,0,B|217:59|234:162|333:104,1,210.000008010865,4|8,0:0|0:0,0:0:0:0:
423,63,57996,1,0,0:0:0:0:
492,154,58159,2,0,P|410:182|323:98,1,210.000008010865,0|8,0:0|0:0,0:0:0:0:
283,210,58648,2,0,B|189:256|172:153|77:227,1,210.000008010865
216,337,59137,1,8,0:0:0:0:
143,281,59300,1,0,0:0:0:0:
283,210,59463,2,0,P|304:163|290:113,1,105.000004005432
207,38,59789,1,8,0:0:0:0:
207,38,59952,1,8,0:0:0:0:
170,116,60115,6,0,L|63:122,1,105.000004005432
139,199,60442,1,8,0:0:0:0:
207,38,60605,1,0,0:0:0:0:
300,75,60768,2,0,P|352:96|402:77,1,105.000004005432
349,196,61094,2,0,P|297:175|247:194,1,105.000004005432,8|0,0:0|0:0,0:0:0:0:
298,274,61420,5,0,0:0:0:0:
439,226,61583,1,0,0:0:0:0:
439,226,61664,1,0,0:0:0:0:
439,226,61746,2,0,L|447:117,1,105.000004005432,8|0,0:0|0:0,0:0:0:0:
283,170,62072,1,0,0:0:0:0:
283,170,62154,1,0,0:0:0:0:
283,170,62235,2,0,L|300:289,1,105.000004005432,0|8,0:0|0:0,0:0:0:0:
380,296,62561,1,8,0:0:0:0:
212,267,62724,6,0,B|129:229|98:327|-3:256,1,210.000008010865,0|8,0:0|0:0,0:0:0:0:
75,89,63213,1,0,0:0:0:0:
75,89,63376,2,0,P|91:145|70:192,2,105.000004005432,0|0|8,0:0|0:0|0:0,0:0:0:0:
171,93,63865,6,0,B|282:115|282:115|375:68,1,210.000008010865
403,153,64355,2,0,P|388:217|412:258,1,105.000004005432,8|0,0:0|0:0,0:0:0:0:
305,217,64681,2,0,P|243:215|208:240,1,105.000004005432
182,320,65007,1,8,0:0:0:0:
169,167,65170,1,8,0:0:0:0:
305,217,65333,6,0,B|406:249|406:249|371:145,1,210.000008010865,0|8,0:0|0:0,0:0:0:0:
341,51,65822,1,0,0:0:0:0:
249,103,65985,2,0,P|194:119|151:104,2,105.000004005432,0|0|8,0:0|0:0|0:0,0:0:0:0:
149,18,66474,1,0,0:0:0:0:
146,196,66637,6,0,P|89:223|30:117,1,210.000008010865,0|8,0:0|0:0,0:0:0:0:
177,120,67126,2,0,P|221:164|161:278,1,210.000008010865,0|8,0:0|0:0,0:0:0:0:
77,302,67615,1,8,0:0:0:0:
239,348,67779,1,8,0:0:0:0:
319,208,67942,6,0,P|368:193|408:208,1,90.9999958343508,4|0,0:0|0:0,0:0:0:0:
263,118,68268,2,0,P|208:130|170:115,2,90.9999958343508,8|0|2,0:0|0:0|0:0,0:0:0:0:
311,33,68757,1,0,0:0:0:0:
311,33,68838,1,0,0:0:0:0:
311,33,68920,1,8,0:0:0:0:
427,85,69083,6,0,L|397:267,1,181.999991668702
320,201,69572,2,0,P|282:185|235:200,2,90.9999958343508,8|0|2,0:0|0:0|0:0,0:0:0:0:
303,296,70061,1,0,0:0:0:0:
303,296,70143,1,0,0:0:0:0:
303,296,70224,1,8,0:0:0:0:
179,272,70387,1,8,0:0:0:0:
320,201,70550,6,0,L|329:107,1,90.9999958343508
170,181,70876,2,0,L|179:275,2,90.9999958343508,8|0|2,0:0|0:0|0:0,0:0:0:0:
159,79,71365,1,0,0:0:0:0:
159,79,71447,1,0,0:0:0:0:
159,79,71529,1,8,0:0:0:0:
267,167,71692,6,0,P|316:174|394:82,1,181.999991668702,0|2,0:0|0:0,0:0:0:0:
355,5,72181,1,10,0:0:0:0:
478,77,72344,1,2,0:0:0:0:
308,90,72507,1,2,0:0:0:0:
308,90,72588,1,0,0:0:0:0:
308,90,72670,1,0,0:0:0:0:
477,37,72833,1,8,0:0:0:0:
479,171,72996,1,8,0:0:0:0:
347,215,73159,6,0,P|308:226|256:211,1,90.9999958343508
434,249,73485,2,0,P|441:305|420:344,2,90.9999958343508,8|0|2,0:0|0:0|0:0,0:0:0:0:
397,137,73974,1,0,0:0:0:0:
397,137,74056,1,0,0:0:0:0:
397,137,74137,1,8,0:0:0:0:
350,286,74300,6,0,P|276:327|180:277,1,181.999991668702
321,180,74789,2,0,P|306:129|324:85,2,90.9999958343508,8|0|2,0:0|0:0|0:0,0:0:0:0:
388,41,75279,1,0,0:0:0:0:
388,41,75360,1,0,0:0:0:0:
388,41,75442,1,8,0:0:0:0:
230,103,75605,1,8,0:0:0:0:
397,137,75768,6,0,P|412:186|393:235,1,90.9999958343508
234,188,76094,2,0,P|219:139|238:90,2,90.9999958343508,8|0|2,0:0|0:0|0:0,0:0:0:0:
310,74,76583,1,0,0:0:0:0:
310,74,76664,1,0,0:0:0:0:
310,74,76746,1,8,0:0:0:0:
314,214,76909,6,0,P|265:266|168:235,1,181.999991668702,0|2,0:0|0:0,0:0:0:0:
132,154,77398,1,10,0:0:0:0:
100,283,77561,1,2,0:0:0:0:
61,112,77724,1,2,0:0:0:0:
61,112,77806,1,0,0:0:0:0:
61,112,77887,1,0,0:0:0:0:
216,147,78050,1,8,0:0:0:0:
35,193,78213,1,8,0:0:0:0:
156,64,78376,6,0,L|251:55,1,90.9999958343508,4|0,0:0|0:0,0:0:0:0:
306,155,78702,2,0,L|211:146,2,90.9999958343508,8|0|2,0:0|0:0|0:0,0:0:0:0:
375,79,79192,1,0,0:0:0:0:
375,79,79273,1,0,0:0:0:0:
375,79,79355,1,8,0:0:0:0:
372,236,79518,6,0,L|183:255,1,181.999991668702
119,190,80007,2,0,P|107:139|125:101,2,90.9999958343508,8|0|2,0:0|0:0|0:0,0:0:0:0:
190,254,80496,1,0,0:0:0:0:
190,254,80577,1,0,0:0:0:0:
190,254,80659,1,8,0:0:0:0:
250,137,80822,1,8,0:0:0:0:
121,105,80985,6,0,L|23:113,1,90.9999958343508
200,49,81311,2,0,L|297:56,2,90.9999958343508,8|0|2,0:0|0:0|0:0,0:0:0:0:
112,14,81800,1,0,0:0:0:0:
112,14,81882,1,0,0:0:0:0:
112,14,81963,1,8,0:0:0:0:
201,144,82126,6,0,B|297:188|297:102|390:157,1,181.999991668702,0|2,0:0|0:0,0:0:0:0:
419,225,82615,1,10,0:0:0:0:
416,74,82779,1,2,0:0:0:0:
330,219,82942,1,2,0:0:0:0:
330,219,83023,1,0,0:0:0:0:
330,219,83105,1,0,0:0:0:0:
416,109,83268,1,8,0:0:0:0:
466,244,83431,1,8,0:0:0:0:
331,303,83594,6,0,L|232:314,1,90.9999958343508
153,257,83920,2,0,P|144:204|161:166,2,90.9999958343508,8|0|2,0:0|0:0|0:0,0:0:0:0:
246,135,84409,1,0,0:0:0:0:
246,135,84490,1,0,0:0:0:0:
246,135,84572,1,8,0:0:0:0:
153,257,84735,6,0,P|103:260|40:147,1,181.999991668702
52,66,85224,2,0,L|153:51,2,90.9999958343508,8|0|2,0:0|0:0|0:0,0:0:0:0:
232,43,85713,1,0,0:0:0:0:
232,43,85795,1,0,0:0:0:0:
232,43,85876,1,8,0:0:0:0:
134,140,86039,1,8,0:0:0:0:
260,172,86202,6,0,P|305:187|353:171,1,90.9999958343508
238,260,86529,2,0,P|193:245|145:261,2,90.9999958343508,8|0|2,0:0|0:0|0:0,0:0:0:0:
255,350,87018,1,0,0:0:0:0:
255,350,87099,1,0,0:0:0:0:
255,350,87181,1,8,0:0:0:0:
369,256,87344,6,0,P|431:243|486:340,1,181.999991668702
371,162,87833,2,0,P|363:106|382:72,1,90.9999958343508,8|0,0:0|0:0,0:0:0:0:
461,43,88159,1,2,0:0:0:0:
288,68,88322,5,8,0:0:0:0:
459,128,88485,1,8,0:0:0:0:
280,167,88648,1,8,0:0:0:0:
451,227,88811,6,0,P|465:286|392:343,2,140,4|0|0,0:0|0:0|0:0,0:0:0:0:
371,162,89626,2,0,P|357:103|430:46,2,140
186,79,90605,5,0,0:0:0:0:
186,79,90768,2,0,L|99:91,1,70
41,51,91094,1,8,0:0:0:0:
102,169,91257,1,8,0:0:0:0:
265,115,91420,6,0,P|272:61|246:14,2,90.9999958343508,0|0|8,0:0|0:0|0:0,0:0:0:0:
207,184,91909,1,0,0:0:0:0:
347,134,92072,2,0,P|404:129|446:154,1,90.9999958343508
461,225,92398,1,8,0:0:0:0:
400,293,92561,6,0,B|314:329|314:250|215:300,1,181.999991668702
120,342,93050,2,0,P|134:293|110:245,1,90.9999958343508,8|0,0:0|0:0,0:0:0:0:
0,165,93376,2,0,P|36:180|101:156,1,90.9999958343508
154,99,93702,1,8,0:0:0:0:
98,20,93865,1,0,0:0:0:0:
253,52,94029,6,0,P|276:101|177:179,2,181.999991668702,4|8|0,0:0|0:0|0:0,0:0:0:0:
241,261,95007,2,0,P|290:246|339:269,1,90.9999958343508,8|0,0:0|0:0,0:0:0:0:
407,164,95333,2,0,P|367:177|316:162,1,90.9999958343508
242,11,95659,1,8,0:0:0:0:
235,157,95822,1,0,0:0:0:0:
320,63,95985,2,0,L|431:68,1,90.9999958343508
484,15,96311,1,8,0:0:0:0:
484,15,96474,1,8,0:0:0:0:
396,157,96637,6,0,B|326:119|289:214|205:146,1,181.999991668702,0|8,0:0|0:0,0:0:0:0:
351,287,97126,1,0,0:0:0:0:
422,238,97289,2,0,P|468:225|514:240,1,90.9999958343508
466,318,97615,1,8,0:0:0:0:
351,287,97779,1,0,0:0:0:0:
351,287,97942,6,0,L|244:297,1,90.9999958343508
172,308,98268,1,8,0:0:0:0:
172,308,98431,2,0,P|179:247|75:171,1,181.999991668702
28,236,98920,1,8,0:0:0:0:
28,236,99083,1,8,0:0:0:0:
78,82,99246,6,0,L|173:90,1,90.9999958343508
278,54,99572,2,0,P|249:98|304:207,1,181.999991668702,8|0,0:0|0:0,0:0:0:0:
298,204,100224,2,0,L|391:204,1,90.9999958343508,8|0,0:0|0:0,0:0:0:0:
467,247,100550,5,0,0:0:0:0:
413,123,100713,1,0,0:0:0:0:
356,291,100876,2,0,P|312:305|268:290,1,90.9999958343508,8|0,0:0|0:0,0:0:0:0:
105,247,101202,2,0,P|149:233|193:248,1,90.9999958343508
270,291,101529,1,8,0:0:0:0:
270,291,101692,1,8,0:0:0:0:
312,179,101855,6,0,P|356:170|403:188,2,90.9999958343508,0|0|8,0:0|0:0|0:0,0:0:0:0:
388,269,102344,1,0,0:0:0:0:
477,152,102507,2,0,P|495:105|469:52,2,90.9999958343508,0|0|8,0:0|0:0|0:0,0:0:0:0:
399,43,102996,1,0,0:0:0:0:
295,93,103159,6,0,L|191:105,1,90.9999958343508
110,112,103485,1,8,0:0:0:0:
221,21,103648,1,0,0:0:0:0:
200,186,103811,2,0,L|96:198,2,90.9999958343508,0|0|8,0:0|0:0|0:0,0:0:0:0:
394,162,104463,6,0,P|392:227|494:291,1,181.999991668702,4|8,0:0|0:0,0:0:0:0:
512,141,104952,1,0,0:0:0:0:
445,88,105115,2,0,P|404:72|352:85,1,90.9999958343508
300,212,105442,1,8,0:0:0:0:
223,74,105605,1,0,0:0:0:0:
198,169,105768,6,0,P|154:157|111:168,1,90.9999958343508
303,125,106094,2,0,P|353:141|401:125,1,90.9999958343508,8|0,0:0|0:0,0:0:0:0:
209,209,106420,2,0,P|165:197|122:208,1,90.9999958343508
321,169,106746,2,0,P|371:185|419:169,1,90.9999958343508,8|0,0:0|0:0,0:0:0:0:
191,252,107072,6,0,P|128:248|92:353,1,181.999991668702,0|8,0:0|0:0,0:0:0:0:
262,313,107561,1,0,0:0:0:0:
262,313,107724,2,0,L|284:219,1,90.9999958343508
170,163,108050,2,0,L|192:257,1,90.9999958343508,8|0,0:0|0:0,0:0:0:0:
244,125,108376,6,0,P|294:111|344:133,1,90.9999958343508
396,188,108702,1,8,0:0:0:0:
382,51,108865,1,0,0:0:0:0:
289,196,109029,2,0,P|248:211|199:197,1,90.9999958343508
138,137,109355,1,8,0:0:0:0:
198,289,109518,1,8,0:0:0:0:
289,196,109681,6,0,P|364:178|423:278,1,181.999991668702,4|8,0:0|0:0,0:0:0:0:
365,338,110170,1,0,0:0:0:0:
365,338,110333,2,0,L|263:347,1,90.9999958343508
198,289,110659,1,8,0:0:0:0:
232,131,110822,1,0,0:0:0:0:
130,235,110985,6,0,L|29:245,1,90.9999958343508
141,141,111311,1,8,0:0:0:0:
198,289,111474,1,0,0:0:0:0:
198,289,111637,2,0,P|243:302|292:288,1,90.9999958343508
301,173,111963,1,8,0:0:0:0:
370,308,112126,1,0,0:0:0:0:
391,218,112289,6,0,P|436:233|480:223,2,90.9999958343508,0|0|8,0:0|0:0|0:0,0:0:0:0:
391,104,112779,1,0,0:0:0:0:
343,39,112942,2,0,P|299:25|256:36,1,90.9999958343508
292,196,113268,1,8,0:0:0:0:
231,130,113431,1,0,0:0:0:0:
391,104,113594,5,2,0:0:0:0:
292,196,113757,1,0,0:0:0:0:
343,39,113920,1,10,0:0:0:0:
449,166,114083,2,0,L|419:349,1,181.999991668702
340,279,114572,2,0,L|238:290,1,90.9999958343508,10|0,0:0|0:0,0:0:0:0:
180,353,114898,6,0,P|155:305|160:264,1,90.9999958343508,2|0,0:0|0:0,0:0:0:0:
241,155,115224,2,0,P|177:187|89:122,1,181.999991668702,8|0,0:0|0:0,0:0:0:0:
92,131,115876,6,0,P|49:164|5:164,1,90.9999958343508,8|0,0:0|0:0,0:0:0:0:
109,51,116202,2,0,L|225:65,2,90.9999958343508,0|0|8,0:0|0:0|0:0,0:0:0:0:
22,77,116692,1,0,0:0:0:0:
181,146,116855,2,0,L|289:131,1,90.9999958343508
210,244,117181,2,0,L|119:231,1,90.9999958343508,8|0,0:0|0:0,0:0:0:0:
287,208,117507,6,0,P|295:255|276:298,1,90.9999958343508
181,146,117833,1,8,0:0:0:0:
319,134,117996,1,0,0:0:0:0:
210,244,118159,2,0,P|157:250|121:227,1,90.9999958343508
287,208,118485,1,8,0:0:0:0:
208,332,118648,1,0,0:0:0:0:
361,250,118811,6,0,P|410:237|456:256,1,90.9999958343508,2|0,0:0|0:0,0:0:0:0:
491,172,119137,1,10,0:0:0:0:
453,87,119300,1,0,0:0:0:0:
375,138,119463,2,0,P|332:152|290:138,1,90.9999958343508,2|0,0:0|0:0,0:0:0:0:
374,52,119789,1,10,0:0:0:0:
361,250,119952,1,0,0:0:0:0:
233,186,120115,6,0,P|212:134|309:66,1,181.999991668702,6|8,0:0|0:0,0:0:0:0:
137,113,120605,1,0,0:0:0:0:
137,113,120768,2,0,P|89:129|50:114,1,90.9999958343508
119,213,121094,1,8,0:0:0:0:
119,213,121257,6,0,P|128:274|30:320,1,181.999991668702
204,310,121746,2,0,L|298:305,1,90.9999958343508,8|0,0:0|0:0,0:0:0:0:
379,338,122072,1,0,0:0:0:0:
310,220,122235,1,0,0:0:0:0:
446,190,122398,2,0,P|455:233|434:273,1,90.9999958343508,8|0,0:0|0:0,0:0:0:0:
369,133,122724,6,0,P|416:96|468:96,2,90.9999958343508
277,133,123213,1,0,0:0:0:0:
277,133,123376,2,0,P|219:147|178:131,1,90.9999958343508
171,55,123702,1,8,0:0:0:0:
228,234,123865,6,0,L|37:251,1,181.999991668702
96,166,124355,1,8,0:0:0:0:
85,335,124518,2,0,L|276:317,1,181.999991668702
345,358,125007,1,8,0:0:0:0:
228,234,125170,6,0,P|231:175|354:131,1,181.999991668702
395,187,125659,2,0,L|370:287,1,90.9999958343508
469,137,125985,2,0,L|455:47,1,90.9999958343508
368,36,126311,1,8,0:0:0:0:
330,122,126474,6,0,P|258:162|161:114,1,181.999991668702
221,58,126963,1,8,0:0:0:0:
130,202,127126,1,0,0:0:0:0:
102,74,127289,2,0,L|0:83,1,90.9999958343508
130,202,127615,2,0,L|232:211,1,90.9999958343508,8|0,0:0|0:0,0:0:0:0:
62,257,127942,6,0,P|39:208|50:165,2,90.9999958343508,0|0|8,0:0|0:0|0:0,0:0:0:0:
144,298,128431,1,0,0:0:0:0:
220,209,128594,2,0,P|234:160|216:123,1,90.9999958343508
135,119,128920,1,8,0:0:0:0:
144,298,129083,6,0,B|236:338|236:263|321:305,1,181.999991668702
416,343,129572,2,0,P|401:284|414:248,2,90.9999958343508,8|0|0,0:0|0:0|0:0,0:0:0:0:
477,201,130061,1,8,0:0:0:0:
433,69,130224,1,8,0:0:0:0:
294,183,130387,1,8,0:0:0:0:
445,39,130550,6,0,B|346:-3|346:83|239:28,1,210.000008010865,4|8,0:0|0:0,0:0:0:0:
167,79,131039,1,0,0:0:0:0:
167,79,131202,2,0,P|183:133|70:212,1,210.000008010865,0|8,0:0|0:0,0:0:0:0:
22,295,131692,2,0,B|125:339|125:254|231:307,1,210.000008010865
330,271,132181,6,0,P|342:329|317:374,1,105.000004005432,8|0,0:0|0:0,0:0:0:0:
257,205,132507,2,0,P|245:146|275:104,1,105.000004005432
351,64,132833,1,8,0:0:0:0:
351,64,132996,1,8,0:0:0:0:
267,110,133159,6,0,L|160:120,1,105.000004005432
204,31,133485,1,8,0:0:0:0:
257,205,133648,1,0,0:0:0:0:
113,176,133811,2,0,P|87:130|102:77,1,105.000004005432
180,236,134137,2,0,P|128:264|68:250,1,105.000004005432,8|0,0:0|0:0,0:0:0:0:
257,205,134463,5,0,0:0:0:0:
223,317,134626,1,0,0:0:0:0:
223,317,134708,1,0,0:0:0:0:
223,317,134789,2,0,L|331:328,1,105.000004005432,8|0,0:0|0:0,0:0:0:0:
361,191,135115,1,0,0:0:0:0:
361,191,135197,1,0,0:0:0:0:
361,191,135279,2,0,L|242:207,1,105.000004005432,0|8,0:0|0:0,0:0:0:0:
399,102,135605,1,8,0:0:0:0:
501,166,135768,6,0,P|483:261|372:275,1,210.000008010865,0|8,0:0|0:0,0:0:0:0:
399,102,136257,1,0,0:0:0:0:
361,191,136420,2,0,L|256:183,2,105.000004005432,0|0|8,0:0|0:0|0:0,0:0:0:0:
281,85,136909,6,0,L|66:118,1,210.000008010865
9,197,137398,1,8,0:0:0:0:
61,282,137561,1,0,0:0:0:0:
147,231,137724,2,0,P|204:219|248:242,1,105.000004005432
286,316,138050,1,8,0:0:0:0:
279,158,138213,1,8,0:0:0:0:
376,322,138376,6,0,B|436:232|436:232|374:144,1,210.000008010865,0|8,0:0|0:0,0:0:0:0:
377,148,139029,2,0,P|436:165|482:142,1,105.000004005432
312,84,139355,2,0,L|205:96,1,105.000004005432,8|0,0:0|0:0,0:0:0:0:
107,106,139681,5,0,0:0:0:0:
217,16,139844,1,0,0:0:0:0:
204,181,140007,1,8,0:0:0:0:
66,171,140170,2,0,P|30:122|40:65,2,105.000004005432
211,98,140659,1,8,0:0:0:0:
96,28,140822,1,8,0:0:0:0:
90,247,140985,6,0,B|186:290|186:290|275:228,1,210.000008010865,4|8,0:0|0:0,0:0:0:0:
339,155,141474,1,0,0:0:0:0:
339,155,141637,2,0,B|236:95|230:190|134:136,1,210.000008010865,0|8,0:0|0:0,0:0:0:0:
387,84,142126,2,0,P|425:143|332:239,1,210.000008010865
249,246,142615,1,8,0:0:0:0:
339,155,142779,1,0,0:0:0:0:
343,325,142942,2,0,L|229:334,1,105.000004005432
163,276,143268,1,8,0:0:0:0:
163,276,143431,1,8,0:0:0:0:
245,148,143594,6,0,P|263:210|243:252,1,105.000004005432
159,151,143920,1,8,0:0:0:0:
268,63,144083,1,0,0:0:0:0:
248,245,144246,2,0,L|134:254,1,105.000004005432
54,159,144572,2,0,L|168:150,1,105.000004005432,8|0,0:0|0:0,0:0:0:0:
248,245,144898,5,0,0:0:0:0:
357,207,145061,1,0,0:0:0:0:
357,207,145143,1,0,0:0:0:0:
357,207,145224,2,0,P|376:158|360:105,1,105.000004005432,8|0,0:0|0:0,0:0:0:0:
333,311,145550,1,0,0:0:0:0:
333,311,145632,1,0,0:0:0:0:
333,311,145713,2,0,P|383:342|449:323,1,105.000004005432,0|8,0:0|0:0,0:0:0:0:
248,245,146039,1,8,0:0:0:0:
170,198,146202,6,0,P|69:217|73:349,1,210.000008010865,0|8,0:0|0:0,0:0:0:0:
248,245,146692,1,0,0:0:0:0:
247,244,146855,2,0,P|260:195|238:149,2,105.000004005432,0|0|8,0:0|0:0|0:0,0:0:0:0:
179,298,147344,6,0,P|247:330|330:227,1,210.000008010865
429,245,147833,2,0,P|414:298|434:342,1,105.000004005432,8|0,0:0|0:0,0:0:0:0:
512,211,148159,2,0,P|527:158|507:114,1,105.000004005432
425,81,148485,1,8,0:0:0:0:
429,245,148648,1,8,0:0:0:0:
305,285,148811,6,0,B|206:320|206:320|107:276,1,210.000008010865,0|8,0:0|0:0,0:0:0:0:
230,134,149300,1,0,0:0:0:0:
305,187,149463,2,0,P|322:237|291:298,2,105.000004005432,0|0|8,0:0|0:0|0:0,0:0:0:0:
230,134,149952,1,0,0:0:0:0:
389,183,150115,6,0,P|444:151|403:26,1,210.000008010865,0|8,0:0|0:0,0:0:0:0:
286,63,150605,2,0,B|185:10|185:104|69:53,1,210.000008010865,0|8,0:0|0:0,0:0:0:0:
53,198,151094,1,8,0:0:0:0:
230,134,151257,1,8,0:0:0:0:
218,292,151420,6,0,L|117:297,1,90.9999958343508,4|0,0:0|0:0,0:0:0:0:
53,198,151746,2,0,L|148:204,2,90.9999958343508,8|0|2,0:0|0:0|0:0,0:0:0:0:
124,103,152235,1,0,0:0:0:0:
124,103,152317,1,0,0:0:0:0:
124,103,152398,1,8,0:0:0:0:
230,116,152561,6,0,B|321:126|321:126|396:65,1,181.999991668702
378,194,153050,2,0,P|368:242|388:282,2,90.9999958343508,8|0|2,0:0|0:0|0:0,0:0:0:0:
459,154,153539,1,0,0:0:0:0:
459,154,153621,1,0,0:0:0:0:
459,154,153702,1,8,0:0:0:0:
474,303,153865,1,8,0:0:0:0:
378,194,154029,6,0,P|338:179|288:194,1,90.9999958343508
226,264,154355,2,0,P|183:278|129:259,2,90.9999958343508,8|0|2,0:0|0:0|0:0,0:0:0:0:
215,147,154844,1,0,0:0:0:0:
215,147,154925,1,0,0:0:0:0:
215,147,155007,1,8,0:0:0:0:
314,73,155170,6,0,L|501:92,1,181.999991668702,0|2,0:0|0:0,0:0:0:0:
419,164,155659,1,10,0:0:0:0:
459,325,155822,1,2,0:0:0:0:
336,193,155985,1,2,0:0:0:0:
336,193,156067,1,0,0:0:0:0:
336,193,156148,1,0,0:0:0:0:
496,130,156311,1,8,0:0:0:0:
465,285,156474,1,8,0:0:0:0:
434,81,156637,6,0,L|324:91,1,90.9999958343508
251,132,156963,2,0,L|149:117,2,90.9999958343508,8|0|2,0:0|0:0|0:0,0:0:0:0:
181,38,157452,1,0,0:0:0:0:
181,38,157534,1,0,0:0:0:0:
181,38,157615,1,8,0:0:0:0:
214,214,157779,6,0,L|23:236,1,181.999991668702
136,306,158268,2,0,L|243:315,2,90.9999958343508,8|0|2,0:0|0:0|0:0,0:0:0:0:
305,273,158757,1,0,0:0:0:0:
305,273,158838,1,0,0:0:0:0:
305,273,158920,1,8,0:0:0:0:
251,132,159083,1,8,0:0:0:0:
380,227,159246,6,0,L|481:231,1,90.9999958343508
341,124,159572,2,0,L|239:132,2,90.9999958343508,8|0|2,0:0|0:0|0:0,0:0:0:0:
371,41,160061,1,0,0:0:0:0:
371,41,160143,1,0,0:0:0:0:
371,41,160224,1,8,0:0:0:0:
187,80,160387,6,0,P|167:141|259:212,1,181.999991668702,0|2,0:0|0:0,0:0:0:0:
326,189,160876,1,10,0:0:0:0:
276,55,161039,1,2,0:0:0:0:
244,212,161202,1,2,0:0:0:0:
244,212,161284,1,0,0:0:0:0:
244,212,161365,1,0,0:0:0:0:
410,170,161529,1,8,0:0:0:0:
298,73,161692,1,8,0:0:0:0:
298,275,161855,6,0,L|390:286,1,90.9999958343508,4|0,0:0|0:0,0:0:0:0:
217,318,162181,2,0,L|123:338,2,90.9999958343508,8|0|2,0:0|0:0|0:0,0:0:0:0:
154,241,162670,1,0,0:0:0:0:
154,241,162751,1,0,0:0:0:0:
154,241,162833,1,8,0:0:0:0:
207,125,162996,6,0,P|161:150|82:65,1,181.999991668702
251,55,163485,2,0,P|286:101|282:146,2,90.9999958343508,8|0|2,0:0|0:0|0:0,0:0:0:0:
169,49,163974,1,0,0:0:0:0:
169,49,164056,1,0,0:0:0:0:
169,49,164137,1,8,0:0:0:0:
237,199,164300,1,8,0:0:0:0:
358,142,164463,6,0,P|409:139|445:161,1,90.9999958343508
304,257,164789,2,0,P|250:285|204:279,2,90.9999958343508,8|0|2,0:0|0:0|0:0,0:0:0:0:
280,118,165279,1,0,0:0:0:0:
280,118,165360,1,0,0:0:0:0:
280,118,165442,1,8,0:0:0:0:
174,211,165605,6,0,B|123:286|123:286|182:369,1,181.999991668702,0|2,0:0|0:0,0:0:0:0:
264,360,166094,1,10,0:0:0:0:
266,211,166257,1,2,0:0:0:0:
362,319,166420,1,2,0:0:0:0:
362,319,166501,1,0,0:0:0:0:
362,319,166583,1,0,0:0:0:0:
331,153,166746,1,8,0:0:0:0:
206,267,166909,1,8,0:0:0:0:
180,100,167072,6,0,L|285:88,1,90.9999958343508
156,184,167398,2,0,L|56:169,2,90.9999958343508,8|0|2,0:0|0:0|0:0,0:0:0:0:
206,267,167887,1,0,0:0:0:0:
206,267,167969,1,0,0:0:0:0:
206,267,168050,1,8,0:0:0:0:
330,152,168213,6,0,P|372:203|330:307,1,181.999991668702
206,267,168702,2,0,P|192:217|211:175,2,90.9999958343508,8|0|2,0:0|0:0|0:0,0:0:0:0:
283,229,169192,1,0,0:0:0:0:
283,229,169273,1,0,0:0:0:0:
283,229,169355,1,8,0:0:0:0:
130,304,169518,1,8,0:0:0:0:
336,303,169681,6,0,L|427:305,1,90.9999958343508
287,143,170007,2,0,P|271:194|295:243,2,90.9999958343508,8|0|2,0:0|0:0|0:0,0:0:0:0:
378,221,170496,1,0,0:0:0:0:
378,221,170577,1,0,0:0:0:0:
378,221,170659,1,8,0:0:0:0:
245,303,170822,6,0,P|188:317|129:214,1,181.999991668702
150,123,171311,2,0,P|103:138|59:117,1,90.9999958343508,8|0,0:0|0:0,0:0:0:0:
20,47,171637,1,2,0:0:0:0:
24,276,171963,1,8,0:0:0:0:
24,276,172126,1,8,0:0:0:0:
113,260,172289,6,0,L|261:239,2,140,4|8|0,0:0|0:0|0:0,0:0:0:0:
225,154,173105,2,0,L|372:163,2,140
448,133,174083,1,0,0:0:0:0:
448,133,174246,2,0,P|456:168|439:214,1,70,2|2,0:0|0:0,0:0:0:0:
372,248,174572,2,0,L|298:251,1,70,10|10,0:0|0:0,0:0:0:0:
227,306,174898,6,0,P|199:264|224:176,2,140,0|8|0,0:0|0:0|0:0,0:0:0:0:
112,240,175713,2,0,P|56:231|4:309,2,140
101,68,176692,5,0,0:0:0:0:
101,68,176855,2,0,P|137:79|182:61,1,70,2|2,0:0|0:0,0:0:0:0:
251,34,177181,2,0,P|287:25|326:37,1,70,10|10,0:0|0:0,0:0:0:0:
406,92,177507,6,0,L|381:272,1,181.999991668702,0|8,0:0|0:0,0:0:0:0:
365,358,177996,1,0,0:0:0:0:
294,265,178159,2,0,P|345:257|401:292,1,90.9999958343508
238,341,178485,1,8,0:0:0:0:
170,275,178648,6,0,P|133:235|172:119,1,181.999991668702
123,54,179137,2,0,P|78:69|31:54,1,90.9999958343508,8|0,0:0|0:0,0:0:0:0:
206,36,179463,1,2,0:0:0:0:
209,194,179626,1,2,0:0:0:0:
123,54,179789,1,10,0:0:0:0:
123,54,179952,1,10,0:0:0:0:
288,67,180115,6,0,L|388:70,1,90.9999958343508
299,185,180442,2,0,L|204:194,1,90.9999958343508,8|0,0:0|0:0,0:0:0:0:
372,139,180768,2,0,P|389:185|373:228,2,90.9999958343508
464,295,181257,6,0,L|277:321,1,181.999991668702
186,335,181746,2,0,P|139:263|187:185,1,181.999991668702,8|0,0:0|0:0,0:0:0:0:
230,262,182235,1,10,0:0:0:0:
65,203,182398,1,10,0:0:0:0:
260,148,182561,1,10,0:0:0:0:
29,210,182724,6,0,B|133:272|133:170|244:236,1,210.000008010865,4|8,0:0|0:0,0:0:0:0:
325,288,183213,1,0,0:0:0:0:
325,288,183376,2,0,P|324:198|445:156,1,210.000008010865,0|8,0:0|0:0,0:0:0:0:
308,95,183865,2,0,B|212:140|212:140|113:92,1,210.000008010865
20,44,184355,6,0,P|37:102|19:143,1,105.000004005432,8|0,0:0|0:0,0:0:0:0:
82,304,184681,2,0,P|65:246|83:205,1,105.000004005432
144,132,185007,1,8,0:0:0:0:
144,132,185170,1,8,0:0:0:0:
236,246,185333,6,0,P|286:266|340:243,1,105.000004005432
247,115,185659,2,0,L|137:132,1,105.000004005432,8|0,0:0|0:0,0:0:0:0:
395,181,185985,1,0,0:0:0:0:
347,97,186148,1,0,0:0:0:0:
332,249,186311,2,0,L|197:237,1,105.000004005432,8|0,0:0|0:0,0:0:0:0:
132,229,186637,5,0,0:0:0:0:
73,156,186800,1,0,0:0:0:0:
73,156,186882,1,0,0:0:0:0:
72,155,186963,2,0,P|49:110|64:61,1,105.000004005432,8|0,0:0|0:0,0:0:0:0:
202,58,187289,1,0,0:0:0:0:
202,58,187371,1,0,0:0:0:0:
202,58,187452,2,0,P|216:107|193:152,1,105.000004005432,0|8,0:0|0:0,0:0:0:0:
132,229,187779,1,8,0:0:0:0:
267,193,187942,6,0,P|342:188|348:303,1,210.000008010865,0|8,0:0|0:0,0:0:0:0:
411,139,188431,1,0,0:0:0:0:
411,139,188594,2,0,P|386:90|412:40,1,105.000004005432
486,35,188920,1,0,0:0:0:0:
486,205,189083,6,0,B|381:232|381:232|283:202,1,210.000008010865
187,164,189572,2,0,P|201:219|171:276,1,105.000004005432,8|0,0:0|0:0,0:0:0:0:
100,154,189898,1,0,0:0:0:0:
110,336,190061,2,0,L|226:345,2,105.000004005432,0|8|8,0:0|0:0|0:0,0:0:0:0:
183,262,190550,6,0,L|405:243,1,210.000008010865,0|8,0:0|0:0,0:0:0:0:
392,244,191202,2,0,P|406:299|382:351,1,105.000004005432
244,343,191529,2,0,P|226:294|241:244,1,105.000004005432,8|0,0:0|0:0,0:0:0:0:
318,289,191855,5,0,0:0:0:0:
327,130,192018,1,0,0:0:0:0:
464,191,192181,1,8,0:0:0:0:
314,252,192344,5,0,0:0:0:0:
359,105,192507,1,0,0:0:0:0:
465,230,192670,1,0,0:0:0:0:
310,220,192833,5,8,0:0:0:0:
389,82,192996,1,8,0:0:0:0:
454,315,193159,6,0,B|354:268|354:365|253:302,1,210.000008010865,4|8,0:0|0:0,0:0:0:0:
212,168,193648,1,0,0:0:0:0:
212,168,193811,2,0,P|184:243|62:225,1,210.000008010865,0|8,0:0|0:0,0:0:0:0:
145,102,194300,2,0,B|255:39|255:143|357:87,1,210.000008010865
368,2,194789,5,8,0:0:0:0:
439,112,194952,1,0,0:0:0:0:
290,186,195115,2,0,P|345:204|400:187,1,105.000004005432
345,92,195442,1,8,0:0:0:0:
345,92,195605,1,8,0:0:0:0:
212,160,195768,6,0,P|212:223|252:263,1,105.000004005432
260,88,196094,1,8,0:0:0:0:
126,152,196257,1,0,0:0:0:0:
236,254,196420,2,0,L|351:261,1,105.000004005432
126,152,196746,2,0,L|20:143,1,105.000004005432,8|0,0:0|0:0,0:0:0:0:
173,81,197072,5,0,0:0:0:0:
131,244,197235,1,0,0:0:0:0:
131,244,197317,1,0,0:0:0:0:
131,244,197398,2,0,L|240:254,1,105.000004005432,8|0,0:0|0:0,0:0:0:0:
277,71,197724,1,0,0:0:0:0:
277,71,197806,1,0,0:0:0:0:
277,71,197887,2,0,L|168:81,1,105.000004005432,0|8,0:0|0:0,0:0:0:0:
79,93,198213,1,8,0:0:0:0:
243,169,198376,6,0,B|342:223|356:130|451:180,1,210.000008010865,0|8,0:0|0:0,0:0:0:0:
402,252,198865,1,0,0:0:0:0:
252,265,199029,2,0,P|230:213|265:146,2,105.000004005432,0|0|8,0:0|0:0|0:0,0:0:0:0:
189,313,199518,2,0,P|165:273|192:109,1,210.000008010865
288,123,200007,5,8,0:0:0:0:
424,193,200170,1,0,0:0:0:0:
419,31,200333,2,0,L|296:38,1,105.000004005432
184,118,200659,2,0,L|307:125,1,105.000004005432,8|8,0:0|0:0,0:0:0:0:
132,201,200985,6,0,B|83:108|83:108|167:15,1,210.000008010865,0|8,0:0|0:0,0:0:0:0:
81,268,201637,2,0,P|133:288|187:266,1,105.000004005432
257,219,201963,1,8,0:0:0:0:
285,347,202126,1,0,0:0:0:0:
340,173,202289,6,0,P|429:187|383:294,1,210.000008010865,0|8,0:0|0:0,0:0:0:0:
266,120,202779,2,0,P|218:140|166:26,1,210.000008010865,0|8,0:0|0:0,0:0:0:0:
279,33,203268,1,8,0:0:0:0:
257,219,203431,1,8,0:0:0:0:
127,258,203594,6,0,L|26:285,1,90.9999958343508,4|0,0:0|0:0,0:0:0:0:
212,301,203920,2,0,L|311:315,1,90.9999958343508,8|0,0:0|0:0,0:0:0:0:
127,258,204246,1,0,0:0:0:0:
132,352,204409,1,0,0:0:0:0:
212,301,204572,2,0,P|233:252|203:203,1,90.9999958343508,8|0,0:0|0:0,0:0:0:0:
156,129,204898,6,0,P|206:144|257:124,2,90.9999958343508,0|0|8,0:0|0:0|0:0,0:0:0:0:
67,84,205387,1,0,0:0:0:0:
67,84,205550,2,0,P|78:130|60:168,1,90.9999958343508
129,225,205876,1,8,0:0:0:0:
129,225,206039,6,0,B|217:197|217:197|315:230,1,181.999991668702,8|0,0:0|0:0,0:0:0:0:
395,261,206529,2,0,P|382:213|404:172,1,90.9999958343508,8|0,0:0|0:0,0:0:0:0:
458,122,206855,1,0,0:0:0:0:
491,283,207018,1,0,0:0:0:0:
398,177,207181,2,0,P|355:162|311:177,1,90.9999958343508,8|0,0:0|0:0,0:0:0:0:
251,251,207507,5,0,0:0:0:0:
251,251,207670,1,0,0:0:0:0:
206,163,207833,2,0,P|160:183|74:97,1,181.999991668702,8|0,0:0|0:0,0:0:0:0:
253,91,208322,2,0,P|293:128|296:180,1,90.9999958343508,0|8,0:0|0:0,0:0:0:0:
251,251,208648,6,0,P|314:251|331:362,1,181.999991668702,8|0,0:0|0:0,0:0:0:0:
172,350,209137,2,0,L|160:258,1,90.9999958343508,8|0,0:0|0:0,0:0:0:0:
147,170,209463,1,0,0:0:0:0:
72,279,209626,1,0,0:0:0:0:
251,251,209789,2,0,L|237:160,1,90.9999958343508,8|0,0:0|0:0,0:0:0:0:
224,68,210115,1,0,0:0:0:0:
147,170,210279,1,0,0:0:0:0:
305,111,210442,6,0,P|356:100|406:117,1,90.9999958343508,8|0,0:0|0:0,0:0:0:0:
388,214,210768,1,0,0:0:0:0:
251,251,210931,1,0,0:0:0:0:
223,113,211094,2,0,P|233:62|274:31,1,90.9999958343508,0|8,0:0|0:0,0:0:0:0:
142,107,211420,6,0,P|89:126|39:27,1,181.999991668702,0|8,0:0|0:0,0:0:0:0:
72,215,211909,2,0,L|260:252,1,181.999991668702
345,271,212398,1,8,0:0:0:0:
272,169,212561,1,0,0:0:0:0:
204,342,212724,6,0,P|250:325|299:350,1,90.9999958343508
345,271,213050,1,8,0:0:0:0:
345,271,213213,2,0,P|356:203|476:195,1,181.999991668702
413,342,213702,1,8,0:0:0:0:
413,342,213865,1,8,0:0:0:0:
255,243,214029,6,0,P|212:230|160:248,1,90.9999958343508,4|0,0:0|0:0,0:0:0:0:
59,153,214355,2,0,P|109:168|162:147,1,90.9999958343508,8|0,0:0|0:0,0:0:0:0:
163,72,214681,1,0,0:0:0:0:
168,241,214844,1,0,0:0:0:0:
240,104,215007,2,0,P|310:96|333:110,1,90.9999958343508,8|0,0:0|0:0,0:0:0:0:
339,189,215333,5,0,0:0:0:0:
359,27,215496,1,0,0:0:0:0:
240,104,215659,2,0,P|191:117|148:98,1,90.9999958343508,8|0,0:0|0:0,0:0:0:0:
224,207,215985,2,0,P|201:255|162:273,1,90.9999958343508
80,239,216311,1,8,0:0:0:0:
80,239,216474,1,8,0:0:0:0:
154,103,216637,6,0,L|256:96,2,90.9999958343508,2|0|10,0:0|0:0|0:0,0:0:0:0:
91,34,217126,1,0,0:0:0:0:
80,201,217289,2,0,L|183:194,2,90.9999958343508,2|0|10,0:0|0:0|0:0,0:0:0:0:
24,130,217779,1,0,0:0:0:0:
47,292,217942,5,2,0:0:0:0:
47,292,218105,2,0,L|147:286,1,90.9999958343508,0|8,0:0|0:0,0:0:0:0:
265,342,218431,2,0,P|226:304|283:203,1,181.999991668702
354,247,218920,1,8,0:0:0:0:
349,96,219083,6,0,P|422:117|438:216,1,181.999991668702,8|0,0:0|0:0,0:0:0:0:
278,130,219572,2,0,P|272:82|295:42,1,90.9999958343508,8|0,0:0|0:0,0:0:0:0:
184,126,219898,2,0,P|130:137|88:122,2,90.9999958343508,0|0|8,0:0|0:0|0:0,0:0:0:0:
42,185,220387,6,0,P|17:131|101:48,1,181.999991668702
118,227,220876,2,0,P|76:264|32:268,1,90.9999958343508,8|0,0:0|0:0,0:0:0:0:
190,283,221202,2,0,L|290:299,2,90.9999958343508,0|0|8,0:0|0:0|0:0,0:0:0:0:
260,189,221692,1,8,0:0:0:0:
354,254,221855,2,0,P|371:305|352:347,1,90.9999958343508
355,145,222181,2,0,P|387:105|443:97,1,90.9999958343508,8|0,0:0|0:0,0:0:0:0:
272,93,222507,2,0,P|217:98|183:75,1,90.9999958343508
336,30,222833,1,8,0:0:0:0:
260,189,222996,6,0,L|59:204,1,181.999991668702
258,275,223485,2,0,L|442:286,1,181.999991668702,8|8,0:0|0:0,0:0:0:0:
261,103,224137,5,4,0:0:0:0:
