osu file format v14

[General]
AudioFilename: daniwellP - Nyanyanyanyanyanyanyanyanyanya~ (Alex.S - Dubstep Remix).mp3
AudioLeadIn: 0
PreviewTime: 123380
Countdown: 1
SampleSet: Soft
StackLeniency: 0.7
Mode: 3
LetterboxInBreaks: 1
SpecialStyle: 0
WidescreenStoryboard: 1

[Editor]
DistanceSpacing: 0.8
BeatDivisor: 4
GridSize: 8
TimelineZoom: 2.599999

[Metadata]
Title:Nyan Cat - (Alex S. Dubstep Remix)
TitleUnicode:Nyan Cat - (Alex S. Dubstep Remix)
Artist:daniwellP
ArtistUnicode:daniwellP
Creator:zZ_Natsu_Zz
Version:Hyper
Source:
Tags:
BeatmapID:785489
BeatmapSetID:357008

[Difficulty]
HPDrainRate:8
CircleSize:4
OverallDifficulty:8
ApproachRate:5
SliderMultiplier:1.4
SliderTickRate:1

[Events]
//Background and Video events
0,0,"Nyan_Cat_Wide.jpg",0,0
//Break Periods
//Storyboard Layer 0 (Background)
//Storyboard Layer 1 (Fail)
//Storyboard Layer 2 (Pass)
//Storyboard Layer 3 (Foreground)
//Storyboard Sound Samples

[TimingPoints]
2113,422.535211267606,4,2,0,42,1,0
29155,-100,4,2,0,42,0,1
42676,-100,4,2,0,42,0,0
49331,-100,4,2,0,42,0,1
83239,-100,4,2,0,42,0,0
123803,-100,4,2,0,42,0,1
179577,-100,4,2,0,42,0,0

[HitObjects]
448,192,1690,5,0,0:0:0:0:
64,192,1796,1,0,0:0:0:0:
192,192,2113,1,0,0:0:0:0:
320,192,2113,1,8,0:0:0:0:
448,192,2218,1,0,0:0:0:0:
64,192,2324,1,0,0:0:0:0:
320,192,2535,1,0,0:0:0:0:
64,192,2746,1,0,0:0:0:0:
320,192,2852,1,0,0:0:0:0:
448,192,2958,1,0,0:0:0:0:
64,192,2958,1,8,0:0:0:0:
192,192,3063,1,0,0:0:0:0:
320,192,3169,1,0,0:0:0:0:
192,192,3274,1,0,0:0:0:0:
64,192,3380,1,0,0:0:0:0:
192,192,3486,1,0,0:0:0:0:
320,192,3591,1,0,0:0:0:0:
448,192,3803,1,0,0:0:0:0:
192,192,4014,1,0,0:0:0:0:
320,192,4120,1,0,0:0:0:0:
192,192,4225,1,8,0:0:0:0:
64,192,4225,1,0,0:0:0:0:
448,192,4436,1,0,0:0:0:0:
192,192,4648,1,0,0:0:0:0:
320,192,4648,1,8,0:0:0:0:
64,192,4753,1,0,0:0:0:0:
448,192,4859,1,0,0:0:0:0:
320,192,4965,1,0,0:0:0:0:
64,192,5070,1,0,0:0:0:0:
192,192,5176,1,0,0:0:0:0:
448,192,5282,1,0,0:0:0:0:
64,192,5493,1,0,0:0:0:0:
192,192,5493,1,0,0:0:0:0:
320,192,5598,1,0,0:0:0:0:
448,192,5704,1,0,0:0:0:0:
192,192,5915,1,0,0:0:0:0:
448,192,6127,1,0,0:0:0:0:
192,192,6232,1,0,0:0:0:0:
64,192,6338,1,8,0:0:0:0:
448,192,6338,1,0,0:0:0:0:
320,192,6443,1,0,0:0:0:0:
448,192,6549,1,0,0:0:0:0:
192,192,6655,1,0,0:0:0:0:
320,192,6760,1,0,0:0:0:0:
192,192,6866,1,0,0:0:0:0:
64,192,6972,1,0,0:0:0:0:
448,192,7183,1,0,0:0:0:0:
320,192,7394,1,0,0:0:0:0:
64,192,7500,1,0,0:0:0:0:
448,192,7605,1,0,0:0:0:0:
192,192,7817,1,8,0:0:0:0:
64,192,7817,1,0,0:0:0:0:
448,192,8028,1,0,0:0:0:0:
320,192,8028,1,8,0:0:0:0:
192,192,8134,1,0,0:0:0:0:
64,192,8239,1,0,0:0:0:0:
448,192,8345,1,0,0:0:0:0:
320,192,8451,1,0,0:0:0:0:
192,192,8556,1,0,0:0:0:0:
64,192,8662,1,0,0:0:0:0:
320,192,8873,1,0,0:0:0:0:
192,192,8873,1,0,0:0:0:0:
448,192,8979,1,0,0:0:0:0:
192,192,9084,1,0,0:0:0:0:
320,192,9296,1,0,0:0:0:0:
64,192,9507,1,0,0:0:0:0:
320,192,9613,1,0,0:0:0:0:
448,192,9718,1,0,0:0:0:0:
64,192,9718,1,8,0:0:0:0:
320,192,9824,1,0,0:0:0:0:
192,192,9929,1,0,0:0:0:0:
64,192,10035,1,0,0:0:0:0:
192,192,10141,1,0,0:0:0:0:
448,192,10246,1,0,0:0:0:0:
320,192,10352,1,0,0:0:0:0:
64,192,10563,1,0,0:0:0:0:
448,192,10774,1,0,0:0:0:0:
192,192,10880,1,0,0:0:0:0:
64,192,10986,1,8,0:0:0:0:
320,192,10986,1,0,0:0:0:0:
192,192,11197,1,0,0:0:0:0:
64,192,11408,1,8,0:0:0:0:
448,192,11408,1,0,0:0:0:0:
192,192,11514,1,0,0:0:0:0:
320,192,11620,1,0,0:0:0:0:
448,192,11725,1,0,0:0:0:0:
64,192,11831,1,0,0:0:0:0:
192,192,11936,1,0,0:0:0:0:
64,192,12042,1,0,0:0:0:0:
320,192,12253,1,0,0:0:0:0:
448,192,12253,1,0,0:0:0:0:
192,192,12359,1,0,0:0:0:0:
64,192,12465,1,0,0:0:0:0:
320,192,12676,1,0,0:0:0:0:
64,192,12887,1,0,0:0:0:0:
192,192,12993,1,0,0:0:0:0:
448,192,13098,1,0,0:0:0:0:
64,192,13098,1,0,0:0:0:0:
320,192,13204,1,0,0:0:0:0:
192,192,13310,1,0,0:0:0:0:
64,192,13415,1,0,0:0:0:0:
320,192,13521,1,0,0:0:0:0:
448,192,13627,1,0,0:0:0:0:
64,192,13732,1,0,0:0:0:0:
320,192,13943,1,0,0:0:0:0:
192,192,14155,1,0,0:0:0:0:
320,192,14260,1,0,0:0:0:0:
192,192,14366,1,0,0:0:0:0:
448,192,14577,1,0,0:0:0:0:
64,192,14577,1,0,0:0:0:0:
192,192,14789,1,0,0:0:0:0:
320,192,14789,1,0,0:0:0:0:
64,192,14894,1,0,0:0:0:0:
448,192,15000,1,0,0:0:0:0:
320,192,15105,1,0,0:0:0:0:
192,192,15211,1,0,0:0:0:0:
64,192,15317,1,0,0:0:0:0:
448,192,15422,1,0,0:0:0:0:
64,192,15634,1,0,0:0:0:0:
320,192,15634,1,0,0:0:0:0:
192,192,15739,1,0,0:0:0:0:
320,192,15845,1,0,0:0:0:0:
448,192,16056,1,0,0:0:0:0:
320,192,16267,1,0,0:0:0:0:
192,192,16373,1,0,0:0:0:0:
320,192,16479,1,0,0:0:0:0:
64,192,16479,1,0,0:0:0:0:
448,192,16584,1,0,0:0:0:0:
192,192,16690,1,0,0:0:0:0:
320,192,16796,1,0,0:0:0:0:
192,192,16901,1,0,0:0:0:0:
64,192,17007,1,0,0:0:0:0:
192,192,17113,1,0,0:0:0:0:
448,192,17324,1,0,0:0:0:0:
320,192,17535,1,0,0:0:0:0:
192,192,17641,1,0,0:0:0:0:
64,192,17746,1,0,0:0:0:0:
320,192,17746,1,0,0:0:0:0:
448,192,17958,1,0,0:0:0:0:
192,192,18169,1,0,0:0:0:0:
64,192,18169,1,0,0:0:0:0:
320,192,18274,1,0,0:0:0:0:
448,192,18380,1,0,0:0:0:0:
64,192,18486,1,0,0:0:0:0:
192,192,18591,1,0,0:0:0:0:
320,192,18697,1,0,0:0:0:0:
448,192,18803,1,0,0:0:0:0:
192,192,19014,1,0,0:0:0:0:
64,192,19014,1,0,0:0:0:0:
320,192,19120,1,0,0:0:0:0:
448,192,19225,1,0,0:0:0:0:
192,192,19436,1,0,0:0:0:0:
448,192,19648,1,0,0:0:0:0:
320,192,19753,1,0,0:0:0:0:
64,192,19859,1,0,0:0:0:0:
192,192,19859,1,0,0:0:0:0:
320,192,19965,1,0,0:0:0:0:
192,192,20070,1,0,0:0:0:0:
320,192,20176,1,0,0:0:0:0:
64,192,20282,1,0,0:0:0:0:
448,192,20387,1,0,0:0:0:0:
320,192,20493,1,0,0:0:0:0:
192,192,20704,1,0,0:0:0:0:
448,192,20915,1,0,0:0:0:0:
320,192,21021,1,0,0:0:0:0:
192,192,21127,1,0,0:0:0:0:
64,192,21338,1,0,0:0:0:0:
320,192,21338,1,0,0:0:0:0:
448,192,21549,1,0,0:0:0:0:
192,192,21549,1,0,0:0:0:0:
320,192,21655,1,0,0:0:0:0:
192,192,21760,1,0,0:0:0:0:
320,192,21866,1,0,0:0:0:0:
192,192,21972,1,0,0:0:0:0:
64,192,22077,1,0,0:0:0:0:
320,192,22183,1,0,0:0:0:0:
64,192,22394,1,0,0:0:0:0:
192,192,22394,1,0,0:0:0:0:
448,192,22605,1,0,0:0:0:0:
320,192,22817,1,0,0:0:0:0:
192,192,22922,1,0,0:0:0:0:
64,192,23134,1,0,0:0:0:0:
192,192,23239,1,0,0:0:0:0:
448,192,23239,1,0,0:0:0:0:
320,192,23345,1,0,0:0:0:0:
448,192,23451,1,0,0:0:0:0:
192,192,23662,1,0,0:0:0:0:
320,192,23873,1,0,0:0:0:0:
448,192,24084,1,0,0:0:0:0:
64,192,24296,1,0,0:0:0:0:
320,192,24401,1,0,0:0:0:0:
192,192,24507,1,0,0:0:0:0:
64,192,24507,1,0,0:0:0:0:
448,192,24613,1,0,0:0:0:0:
320,192,24718,1,0,0:0:0:0:
192,192,24824,1,0,0:0:0:0:
64,192,24929,1,0,0:0:0:0:
448,192,24929,1,0,0:0:0:0:
320,192,25035,1,0,0:0:0:0:
448,192,25141,1,0,0:0:0:0:
64,192,25246,1,0,0:0:0:0:
192,192,25352,1,0,0:0:0:0:
448,192,25458,1,0,0:0:0:0:
320,192,25563,1,0,0:0:0:0:
64,192,25669,1,0,0:0:0:0:
192,192,25774,1,0,0:0:0:0:
448,192,25774,1,0,0:0:0:0:
64,192,25986,1,0,0:0:0:0:
320,192,26197,1,0,0:0:0:0:
192,192,26303,1,0,0:0:0:0:
448,192,26514,1,0,0:0:0:0:
320,192,26620,1,0,0:0:0:0:
192,192,26620,1,0,0:0:0:0:
64,192,26725,1,0,0:0:0:0:
192,192,26831,1,0,0:0:0:0:
64,192,26936,1,0,0:0:0:0:
192,192,27042,1,0,0:0:0:0:
320,192,27148,1,0,0:0:0:0:
448,192,27253,1,0,0:0:0:0:
192,192,27465,1,0,0:0:0:0:
448,192,27676,1,0,0:0:0:0:
320,192,27782,1,0,0:0:0:0:
192,192,27887,1,0,0:0:0:0:
64,192,27993,1,0,0:0:0:0:
448,192,28098,1,0,0:0:0:0:
320,192,28204,1,0,0:0:0:0:
192,192,28310,1,0,0:0:0:0:
320,192,28415,1,0,0:0:0:0:
192,192,28521,1,0,0:0:0:0:
64,192,28732,1,0,0:0:0:0:
320,192,29155,1,0,0:0:0:0:
448,192,29155,1,0,0:0:0:0:
64,192,29366,1,0,0:0:0:0:
448,192,29577,1,0,0:0:0:0:
320,192,29683,1,0,0:0:0:0:
64,192,29894,1,0,0:0:0:0:
320,192,30000,1,0,0:0:0:0:
448,192,30105,1,0,0:0:0:0:
192,192,30211,1,0,0:0:0:0:
320,192,30422,1,0,0:0:0:0:
448,192,30634,1,0,0:0:0:0:
64,192,30845,1,0,0:0:0:0:
448,192,31056,1,0,0:0:0:0:
320,192,31162,1,0,0:0:0:0:
64,192,31267,1,0,0:0:0:0:
192,192,31373,1,0,0:0:0:0:
320,192,31479,1,0,0:0:0:0:
448,192,31584,1,0,0:0:0:0:
192,192,31690,1,0,0:0:0:0:
64,192,31796,1,0,0:0:0:0:
320,192,31901,1,0,0:0:0:0:
448,192,32007,1,0,0:0:0:0:
320,192,32113,1,0,0:0:0:0:
192,192,32218,1,0,0:0:0:0:
64,192,32324,1,0,0:0:0:0:
448,192,32429,1,0,0:0:0:0:
320,192,32535,1,0,0:0:0:0:
64,192,32746,1,0,0:0:0:0:
192,192,32958,1,0,0:0:0:0:
320,192,33063,1,0,0:0:0:0:
448,192,33169,1,0,0:0:0:0:
320,192,33274,1,0,0:0:0:0:
192,192,33380,1,0,0:0:0:0:
64,192,33486,1,0,0:0:0:0:
320,192,33591,1,0,0:0:0:0:
448,192,33697,1,0,0:0:0:0:
64,192,33803,1,0,0:0:0:0:
192,192,33908,1,0,0:0:0:0:
320,192,34014,1,0,0:0:0:0:
448,192,34120,1,0,0:0:0:0:
320,192,34225,1,0,0:0:0:0:
64,192,34436,1,0,0:0:0:0:
192,192,34542,1,0,0:0:0:0:
448,192,34648,1,0,0:0:0:0:
320,192,34753,1,0,0:0:0:0:
192,192,34859,1,0,0:0:0:0:
448,192,34965,1,0,0:0:0:0:
320,192,35070,1,0,0:0:0:0:
64,192,35176,1,0,0:0:0:0:
320,192,35282,1,0,0:0:0:0:
448,192,35493,1,0,0:0:0:0:
192,192,35704,1,0,0:0:0:0:
320,192,35915,1,0,0:0:0:0:
64,192,35915,1,4,0:0:0:0:
448,192,36127,1,0,0:0:0:0:
320,192,36338,1,0,0:0:0:0:
192,192,36443,1,0,0:0:0:0:
64,192,36655,1,0,0:0:0:0:
192,192,36760,1,0,0:0:0:0:
448,192,36866,1,0,0:0:0:0:
320,192,36972,1,0,0:0:0:0:
192,192,37183,1,0,0:0:0:0:
320,192,37394,1,0,0:0:0:0:
448,192,37605,1,0,0:0:0:0:
192,192,37817,1,0,0:0:0:0:
320,192,37922,1,0,0:0:0:0:
448,192,38028,1,0,0:0:0:0:
64,192,38134,1,0,0:0:0:0:
320,192,38239,1,0,0:0:0:0:
192,192,38345,1,0,0:0:0:0:
448,192,38451,1,0,0:0:0:0:
320,192,38556,1,0,0:0:0:0:
64,192,38662,1,0,0:0:0:0:
192,192,38767,1,0,0:0:0:0:
320,192,38873,1,0,0:0:0:0:
448,192,38979,1,0,0:0:0:0:
192,192,39084,1,0,0:0:0:0:
64,192,39190,1,0,0:0:0:0:
320,192,39296,1,0,0:0:0:0:
448,192,39507,1,0,0:0:0:0:
320,192,39718,1,0,0:0:0:0:
192,192,39824,1,0,0:0:0:0:
64,192,39929,1,0,0:0:0:0:
192,192,40035,1,0,0:0:0:0:
320,192,40141,1,0,0:0:0:0:
448,192,40246,1,0,0:0:0:0:
64,192,40352,1,0,0:0:0:0:
192,192,40458,1,0,0:0:0:0:
320,192,40563,1,0,0:0:0:0:
192,192,40669,1,0,0:0:0:0:
448,192,40774,1,0,0:0:0:0:
320,192,40880,1,0,0:0:0:0:
192,192,40986,1,0,0:0:0:0:
448,192,41197,1,0,0:0:0:0:
320,192,41303,1,0,0:0:0:0:
64,192,41408,1,0,0:0:0:0:
192,192,41514,1,0,0:0:0:0:
448,192,41620,1,0,0:0:0:0:
320,192,41725,1,0,0:0:0:0:
448,192,41831,1,0,0:0:0:0:
192,192,41936,1,0,0:0:0:0:
64,192,42042,1,0,0:0:0:0:
320,192,42148,1,0,0:0:0:0:
448,192,42253,1,0,0:0:0:0:
192,192,42465,1,0,0:0:0:0:
320,192,42676,1,0,0:0:0:0:
448,192,42676,1,0,0:0:0:0:
192,192,43098,1,0,0:0:0:0:
64,192,43098,1,0,0:0:0:0:
320,192,43521,1,0,0:0:0:0:
448,192,43521,1,0,0:0:0:0:
192,192,43943,1,0,0:0:0:0:
64,192,43943,1,0,0:0:0:0:
320,192,44155,1,0,0:0:0:0:
448,192,44155,1,0,0:0:0:0:
192,192,44366,1,0,0:0:0:0:
64,192,44366,1,0,0:0:0:0:
320,192,44789,1,0,0:0:0:0:
448,192,44789,1,0,0:0:0:0:
192,192,45211,1,0,0:0:0:0:
64,192,45211,1,0,0:0:0:0:
320,192,45634,1,0,0:0:0:0:
448,192,45634,1,0,0:0:0:0:
192,192,45845,1,0,0:0:0:0:
64,192,45845,1,0,0:0:0:0:
320,192,46056,1,0,0:0:0:0:
448,192,46056,1,0,0:0:0:0:
192,192,46162,1,0,0:0:0:0:
64,192,46162,1,0,0:0:0:0:
320,192,46479,1,0,0:0:0:0:
448,192,46479,1,0,0:0:0:0:
192,192,46901,1,0,0:0:0:0:
64,192,46901,1,0,0:0:0:0:
320,192,47324,1,0,0:0:0:0:
448,192,47324,1,0,0:0:0:0:
192,192,47535,1,0,0:0:0:0:
64,192,47535,1,0,0:0:0:0:
320,192,47746,1,0,0:0:0:0:
448,192,47746,1,0,0:0:0:0:
192,192,47958,1,0,0:0:0:0:
64,192,47958,1,0,0:0:0:0:
320,192,48063,1,0,0:0:0:0:
448,192,48063,1,0,0:0:0:0:
192,192,48169,1,0,0:0:0:0:
64,192,48169,1,0,0:0:0:0:
320,192,48591,1,0,0:0:0:0:
448,192,48591,1,0,0:0:0:0:
64,192,49014,1,0,0:0:0:0:
192,192,49014,1,0,0:0:0:0:
320,192,49225,1,0,0:0:0:0:
448,192,49225,1,0,0:0:0:0:
192,192,49331,1,0,0:0:0:0:
64,192,49331,1,0,0:0:0:0:
320,192,49436,1,0,0:0:0:0:
448,192,49436,1,0,0:0:0:0:
192,192,49859,1,0,0:0:0:0:
64,192,49859,1,0,0:0:0:0:
192,192,50282,1,0,0:0:0:0:
448,192,50282,1,0,0:0:0:0:
64,192,50704,1,0,0:0:0:0:
320,192,50704,1,0,0:0:0:0:
320,192,51127,1,0,0:0:0:0:
448,192,51127,1,0,0:0:0:0:
192,192,51549,1,0,0:0:0:0:
64,192,51549,1,0,0:0:0:0:
64,192,51972,1,0,0:0:0:0:
448,192,51972,1,0,0:0:0:0:
320,192,52394,1,0,0:0:0:0:
192,192,52394,1,0,0:0:0:0:
64,192,52817,1,0,0:0:0:0:
448,192,52817,1,0,0:0:0:0:
320,192,53028,1,0,0:0:0:0:
64,192,53239,1,0,0:0:0:0:
192,192,53451,1,0,0:0:0:0:
320,192,53662,1,0,0:0:0:0:
192,192,53767,1,0,0:0:0:0:
64,192,53873,1,0,0:0:0:0:
448,192,53979,1,0,0:0:0:0:
64,192,54084,1,0,0:0:0:0:
192,192,54137,1,0,0:0:0:0:
320,192,54190,1,0,0:0:0:0:
448,192,54243,1,0,0:0:0:0:
64,192,54296,1,0,0:0:0:0:
192,192,54348,1,0,0:0:0:0:
320,192,54401,1,0,0:0:0:0:
448,192,54454,1,0,0:0:0:0:
64,192,54507,1,0,0:0:0:0:
448,192,54718,1,0,0:0:0:0:
320,192,54824,1,0,0:0:0:0:
64,192,54929,1,0,0:0:0:0:
320,192,55035,1,0,0:0:0:0:
192,192,55141,1,0,0:0:0:0:
448,192,55246,1,0,0:0:0:0:
320,192,55352,1,0,0:0:0:0:
64,192,55458,1,0,0:0:0:0:
192,192,55563,1,0,0:0:0:0:
448,192,55774,128,0,56197:0:0:0:0:
64,192,56197,128,0,57042:0:0:0:0:
320,192,57042,1,0,0:0:0:0:
448,192,57042,1,0,0:0:0:0:
192,192,57465,128,0,57887:0:0:0:0:
448,192,57887,128,0,58310:0:0:0:0:
320,192,57887,1,0,0:0:0:0:
320,192,58521,1,0,0:0:0:0:
64,192,58521,1,0,0:0:0:0:
192,192,58732,1,0,0:0:0:0:
448,192,58732,1,0,0:0:0:0:
320,192,58943,1,0,0:0:0:0:
192,192,59049,1,0,0:0:0:0:
64,192,59155,1,0,0:0:0:0:
320,192,59366,1,0,0:0:0:0:
448,192,59472,1,0,0:0:0:0:
64,192,59577,1,0,0:0:0:0:
320,192,59577,128,0,60845:0:0:0:0:
192,192,60211,1,0,0:0:0:0:
448,192,60422,1,0,0:0:0:0:
64,192,60422,1,0,0:0:0:0:
192,192,60845,128,0,61267:0:0:0:0:
448,192,61267,128,0,61690:0:0:0:0:
64,192,61267,128,0,61690:0:0:0:0:
320,192,61690,128,0,62113:0:0:0:0:
192,192,61901,1,0,0:0:0:0:
64,192,62113,1,0,0:0:0:0:
448,192,62113,1,0,0:0:0:0:
192,192,62324,1,0,0:0:0:0:
448,192,62535,1,0,0:0:0:0:
192,192,62641,1,0,0:0:0:0:
64,192,62746,1,0,0:0:0:0:
448,192,62746,1,0,0:0:0:0:
320,192,62852,1,0,0:0:0:0:
192,192,62958,128,0,64225:0:0:0:0:
448,192,63803,1,0,0:0:0:0:
64,192,63803,1,0,0:0:0:0:
320,192,64225,128,0,64648:0:0:0:0:
64,192,64648,128,0,64859:0:0:0:0:
448,192,64648,1,0,0:0:0:0:
192,192,64859,128,0,65070:0:0:0:0:
448,192,65070,128,0,65493:0:0:0:0:
320,192,65282,1,0,0:0:0:0:
192,192,65493,1,0,0:0:0:0:
64,192,65493,1,0,0:0:0:0:
320,192,65704,1,0,0:0:0:0:
448,192,65810,1,0,0:0:0:0:
320,192,65915,1,0,0:0:0:0:
64,192,66127,1,0,0:0:0:0:
192,192,66232,1,0,0:0:0:0:
320,192,66338,1,0,0:0:0:0:
448,192,66338,128,0,67605:0:0:0:0:
320,192,66972,1,0,0:0:0:0:
192,192,67183,1,0,0:0:0:0:
64,192,67183,1,0,0:0:0:0:
192,192,67605,128,0,68028:0:0:0:0:
320,192,68028,128,0,68345:0:0:0:0:
448,192,68028,1,0,0:0:0:0:
192,192,68345,128,0,68662:0:0:0:0:
64,192,68662,128,0,68873:0:0:0:0:
448,192,68873,1,0,0:0:0:0:
192,192,68873,1,0,0:0:0:0:
320,192,68979,1,0,0:0:0:0:
192,192,69084,1,0,0:0:0:0:
64,192,69190,1,0,0:0:0:0:
320,192,69296,1,0,0:0:0:0:
448,192,69401,1,0,0:0:0:0:
64,192,69507,1,0,0:0:0:0:
320,192,69613,1,0,0:0:0:0:
192,192,69718,1,0,0:0:0:0:
448,192,69718,128,0,70563:0:0:0:0:
64,192,70563,1,0,0:0:0:0:
320,192,70563,1,0,0:0:0:0:
192,192,70986,128,0,71408:0:0:0:0:
448,192,71408,128,0,71620:0:0:0:0:
64,192,71620,128,0,71831:0:0:0:0:
320,192,71831,128,0,72253:0:0:0:0:
448,192,72042,1,0,0:0:0:0:
192,192,72253,1,0,0:0:0:0:
64,192,72253,1,0,0:0:0:0:
448,192,72465,1,0,0:0:0:0:
192,192,72570,1,0,0:0:0:0:
64,192,72676,1,0,0:0:0:0:
192,192,72887,1,0,0:0:0:0:
448,192,72993,1,0,0:0:0:0:
64,192,73098,1,0,0:0:0:0:
192,192,73098,128,0,74366:0:0:0:0:
448,192,73732,1,0,0:0:0:0:
320,192,73943,1,0,0:0:0:0:
64,192,73943,1,0,0:0:0:0:
448,192,74366,128,0,74789:0:0:0:0:
192,192,74789,1,0,0:0:0:0:
64,192,75105,1,0,0:0:0:0:
320,192,75105,1,0,0:0:0:0:
192,192,75422,1,0,0:0:0:0:
320,192,75634,1,0,0:0:0:0:
448,192,75634,128,0,76056:0:0:0:0:
64,192,76056,1,0,0:0:0:0:
320,192,76056,1,0,0:0:0:0:
192,192,76162,1,0,0:0:0:0:
448,192,76267,1,0,0:0:0:0:
192,192,76373,1,0,0:0:0:0:
64,192,76479,1,0,0:0:0:0:
320,192,76479,128,0,77324:0:0:0:0:
64,192,77324,1,0,0:0:0:0:
448,192,77324,1,0,0:0:0:0:
320,192,77746,128,0,78169:0:0:0:0:
192,192,78169,128,0,78591:0:0:0:0:
448,192,78169,128,0,78591:0:0:0:0:
320,192,78591,128,0,79014:0:0:0:0:
64,192,78803,1,0,0:0:0:0:
192,192,79014,1,0,0:0:0:0:
448,192,79014,1,0,0:0:0:0:
320,192,79225,1,0,0:0:0:0:
192,192,79331,1,0,0:0:0:0:
64,192,79436,1,0,0:0:0:0:
192,192,79648,1,0,0:0:0:0:
320,192,79753,1,0,0:0:0:0:
448,192,79859,1,0,0:0:0:0:
64,192,79859,128,0,80704:0:0:0:0:
448,192,80493,1,0,0:0:0:0:
320,192,80704,1,0,0:0:0:0:
192,192,80704,1,0,0:0:0:0:
448,192,81127,128,0,81549:0:0:0:0:
64,192,81549,128,0,81866:0:0:0:0:
320,192,81866,1,0,0:0:0:0:
192,192,81866,1,0,0:0:0:0:
448,192,81866,128,0,82394:0:0:0:0:
320,192,82183,1,0,0:0:0:0:
192,192,82394,1,0,0:0:0:0:
64,192,82394,1,0,0:0:0:0:
320,192,82500,1,0,0:0:0:0:
448,192,82605,1,0,0:0:0:0:
64,192,82711,1,0,0:0:0:0:
192,192,82817,1,0,0:0:0:0:
448,192,82922,1,0,0:0:0:0:
320,192,83028,1,0,0:0:0:0:
192,192,83134,1,0,0:0:0:0:
64,192,83239,1,0,0:0:0:0:
448,192,83239,128,0,83451:0:0:0:0:
192,192,83662,128,0,83873:0:0:0:0:
64,192,84084,128,0,84296:0:0:0:0:
448,192,84084,1,0,0:0:0:0:
320,192,84507,128,0,84718:0:0:0:0:
448,192,84929,128,0,85141:0:0:0:0:
192,192,85352,128,0,85563:0:0:0:0:
320,192,85352,1,0,0:0:0:0:
448,192,85774,1,0,0:0:0:0:
64,192,85774,1,0,0:0:0:0:
320,192,85915,1,0,0:0:0:0:
64,192,86056,1,0,0:0:0:0:
192,192,86197,1,0,0:0:0:0:
448,192,86338,1,0,0:0:0:0:
320,192,86479,1,0,0:0:0:0:
192,192,86620,1,0,0:0:0:0:
64,192,86620,1,0,0:0:0:0:
448,192,87042,128,0,87253:0:0:0:0:
192,192,87465,128,0,87676:0:0:0:0:
64,192,87465,1,0,0:0:0:0:
448,192,87887,128,0,88098:0:0:0:0:
64,192,88310,128,0,88521:0:0:0:0:
320,192,88732,128,0,88943:0:0:0:0:
192,192,88943,1,0,0:0:0:0:
448,192,89155,1,0,0:0:0:0:
320,192,89225,1,0,0:0:0:0:
192,192,89296,1,0,0:0:0:0:
64,192,89366,1,0,0:0:0:0:
448,192,89436,1,0,0:0:0:0:
320,192,89507,1,0,0:0:0:0:
192,192,89577,1,0,0:0:0:0:
64,192,89648,1,0,0:0:0:0:
448,192,89718,1,0,0:0:0:0:
320,192,89789,1,0,0:0:0:0:
192,192,89859,1,0,0:0:0:0:
64,192,89929,1,0,0:0:0:0:
448,192,90000,1,0,0:0:0:0:
320,192,90211,1,0,0:0:0:0:
192,192,90422,1,0,0:0:0:0:
64,192,90634,1,0,0:0:0:0:
448,192,90845,1,0,0:0:0:0:
192,192,90845,1,0,0:0:0:0:
320,192,91056,1,0,0:0:0:0:
64,192,91267,1,0,0:0:0:0:
192,192,91479,1,0,0:0:0:0:
448,192,91690,1,0,0:0:0:0:
320,192,91901,1,0,0:0:0:0:
192,192,92113,1,0,0:0:0:0:
448,192,92113,1,0,0:0:0:0:
64,192,92324,1,0,0:0:0:0:
320,192,92535,1,0,0:0:0:0:
192,192,92535,1,0,0:0:0:0:
448,192,92746,1,0,0:0:0:0:
192,192,92958,1,0,0:0:0:0:
320,192,93063,1,0,0:0:0:0:
192,192,93169,1,0,0:0:0:0:
64,192,93274,1,0,0:0:0:0:
448,192,93380,128,0,93803:0:0:0:0:
320,192,93380,1,0,0:0:0:0:
192,192,93591,1,0,0:0:0:0:
64,192,93803,1,0,0:0:0:0:
192,192,94014,1,0,0:0:0:0:
320,192,94225,1,0,0:0:0:0:
64,192,94225,1,0,0:0:0:0:
448,192,94436,1,0,0:0:0:0:
320,192,94648,1,0,0:0:0:0:
64,192,94859,1,0,0:0:0:0:
192,192,95070,1,0,0:0:0:0:
320,192,95282,1,0,0:0:0:0:
448,192,95493,1,0,0:0:0:0:
320,192,95704,1,0,0:0:0:0:
64,192,95704,1,0,0:0:0:0:
64,192,95915,128,0,96338:0:0:0:0:
448,192,95915,1,0,0:0:0:0:
448,192,96338,128,0,96760:0:0:0:0:
320,192,96338,1,0,0:0:0:0:
192,192,96760,1,0,0:0:0:0:
320,192,96760,1,0,0:0:0:0:
64,192,96866,1,0,0:0:0:0:
448,192,96972,1,0,0:0:0:0:
192,192,97077,1,0,0:0:0:0:
320,192,97183,1,0,0:0:0:0:
192,192,97289,1,0,0:0:0:0:
64,192,97394,1,0,0:0:0:0:
320,192,97394,1,0,0:0:0:0:
448,192,97500,1,0,0:0:0:0:
320,192,97605,1,0,0:0:0:0:
192,192,97605,1,0,0:0:0:0:
64,192,97711,1,0,0:0:0:0:
192,192,97817,1,0,0:0:0:0:
448,192,97922,1,0,0:0:0:0:
192,192,98028,1,0,0:0:0:0:
320,192,98134,1,0,0:0:0:0:
448,192,98239,1,0,0:0:0:0:
192,192,98345,1,0,0:0:0:0:
64,192,98451,1,0,0:0:0:0:
192,192,98556,1,0,0:0:0:0:
320,192,98662,1,0,0:0:0:0:
192,192,98767,1,0,0:0:0:0:
64,192,98873,1,0,0:0:0:0:
320,192,98979,1,0,0:0:0:0:
448,192,99084,1,0,0:0:0:0:
64,192,99190,1,0,0:0:0:0:
320,192,99296,1,0,0:0:0:0:
192,192,99296,1,0,0:0:0:0:
448,192,99401,1,0,0:0:0:0:
192,192,99507,1,0,0:0:0:0:
64,192,99613,1,0,0:0:0:0:
448,192,99718,1,0,0:0:0:0:
320,192,99824,1,0,0:0:0:0:
192,192,99929,1,0,0:0:0:0:
64,192,100035,1,0,0:0:0:0:
320,192,100141,1,0,0:0:0:0:
448,192,100246,1,0,0:0:0:0:
64,192,100352,1,0,0:0:0:0:
192,192,100458,1,0,0:0:0:0:
320,192,100563,1,0,0:0:0:0:
192,192,100669,1,0,0:0:0:0:
64,192,100774,1,0,0:0:0:0:
448,192,100880,1,0,0:0:0:0:
320,192,100986,1,0,0:0:0:0:
192,192,100986,1,0,0:0:0:0:
64,192,101091,1,0,0:0:0:0:
448,192,101197,1,0,0:0:0:0:
192,192,101303,1,0,0:0:0:0:
320,192,101408,1,0,0:0:0:0:
64,192,101514,1,0,0:0:0:0:
192,192,101620,1,0,0:0:0:0:
320,192,101725,1,0,0:0:0:0:
448,192,101831,1,0,0:0:0:0:
64,192,101936,1,0,0:0:0:0:
320,192,102042,1,0,0:0:0:0:
192,192,102148,1,0,0:0:0:0:
448,192,102253,1,0,0:0:0:0:
320,192,102359,1,0,0:0:0:0:
192,192,102465,1,0,0:0:0:0:
64,192,102570,1,0,0:0:0:0:
448,192,102676,1,0,0:0:0:0:
192,192,102676,1,0,0:0:0:0:
320,192,102782,1,0,0:0:0:0:
448,192,102887,1,0,0:0:0:0:
64,192,102993,1,0,0:0:0:0:
192,192,103098,1,0,0:0:0:0:
320,192,103204,1,0,0:0:0:0:
192,192,103310,1,0,0:0:0:0:
64,192,103310,1,0,0:0:0:0:
448,192,103415,1,0,0:0:0:0:
320,192,103521,1,0,0:0:0:0:
64,192,103627,1,0,0:0:0:0:
192,192,103732,1,0,0:0:0:0:
448,192,103838,1,0,0:0:0:0:
320,192,103943,1,0,0:0:0:0:
192,192,104049,1,0,0:0:0:0:
320,192,104155,1,0,0:0:0:0:
448,192,104260,1,0,0:0:0:0:
64,192,104366,1,0,0:0:0:0:
320,192,104366,1,0,0:0:0:0:
192,192,104472,1,0,0:0:0:0:
320,192,104577,1,0,0:0:0:0:
64,192,104683,1,0,0:0:0:0:
448,192,104789,1,0,0:0:0:0:
320,192,104894,1,0,0:0:0:0:
448,192,105000,1,0,0:0:0:0:
64,192,105105,1,0,0:0:0:0:
192,192,105211,1,0,0:0:0:0:
448,192,105317,1,0,0:0:0:0:
192,192,105422,1,0,0:0:0:0:
64,192,105528,1,0,0:0:0:0:
192,192,105634,1,0,0:0:0:0:
64,192,105739,1,0,0:0:0:0:
448,192,105845,1,0,0:0:0:0:
320,192,105951,1,0,0:0:0:0:
192,192,106056,1,0,0:0:0:0:
448,192,106056,1,0,0:0:0:0:
64,192,106162,1,0,0:0:0:0:
448,192,106267,1,0,0:0:0:0:
320,192,106373,1,0,0:0:0:0:
64,192,106479,1,0,0:0:0:0:
192,192,106584,1,0,0:0:0:0:
320,192,106690,1,0,0:0:0:0:
448,192,106796,1,0,0:0:0:0:
192,192,106901,1,0,0:0:0:0:
64,192,106901,1,0,0:0:0:0:
192,192,107218,1,0,0:0:0:0:
448,192,107218,1,0,0:0:0:0:
320,192,107324,1,0,0:0:0:0:
64,192,107324,1,0,0:0:0:0:
192,192,107535,1,0,0:0:0:0:
320,192,107535,1,0,0:0:0:0:
64,192,107746,1,0,0:0:0:0:
448,192,107746,1,0,0:0:0:0:
64,192,108063,1,0,0:0:0:0:
320,192,108063,1,0,0:0:0:0:
192,192,108169,1,0,0:0:0:0:
448,192,108169,1,0,0:0:0:0:
320,192,108380,1,0,0:0:0:0:
448,192,108380,1,0,0:0:0:0:
64,192,108591,128,0,109859:0:0:0:0:
192,192,109014,128,0,109859:0:0:0:0:
320,192,109436,128,0,109859:0:0:0:0:
448,192,109436,1,0,0:0:0:0:
448,192,109859,128,0,110282:0:0:0:0:
320,192,109965,1,0,0:0:0:0:
192,192,110070,1,0,0:0:0:0:
320,192,110176,1,0,0:0:0:0:
64,192,110282,1,0,0:0:0:0:
320,192,110387,1,0,0:0:0:0:
448,192,110493,1,0,0:0:0:0:
192,192,110704,1,0,0:0:0:0:
448,192,110915,1,0,0:0:0:0:
320,192,111021,1,0,0:0:0:0:
64,192,111127,1,0,0:0:0:0:
192,192,111232,1,0,0:0:0:0:
320,192,111338,1,0,0:0:0:0:
448,192,111443,1,0,0:0:0:0:
64,192,111549,1,0,0:0:0:0:
320,192,111655,1,0,0:0:0:0:
448,192,111760,1,0,0:0:0:0:
192,192,111972,1,0,0:0:0:0:
448,192,112183,1,0,0:0:0:0:
320,192,112289,1,0,0:0:0:0:
192,192,112394,1,0,0:0:0:0:
64,192,112605,1,0,0:0:0:0:
448,192,112817,1,0,0:0:0:0:
320,192,112922,1,0,0:0:0:0:
64,192,113028,1,0,0:0:0:0:
192,192,113134,1,0,0:0:0:0:
448,192,113239,1,0,0:0:0:0:
320,192,113345,1,0,0:0:0:0:
64,192,113451,1,0,0:0:0:0:
192,192,113662,1,0,0:0:0:0:
320,192,113767,1,0,0:0:0:0:
64,192,113873,1,0,0:0:0:0:
448,192,114084,1,0,0:0:0:0:
64,192,114296,1,0,0:0:0:0:
192,192,114401,1,0,0:0:0:0:
448,192,114507,1,0,0:0:0:0:
64,192,114613,1,0,0:0:0:0:
192,192,114718,1,0,0:0:0:0:
320,192,114824,1,0,0:0:0:0:
448,192,114929,1,0,0:0:0:0:
320,192,115035,1,0,0:0:0:0:
192,192,115141,1,0,0:0:0:0:
448,192,115352,1,0,0:0:0:0:
192,192,115563,1,0,0:0:0:0:
320,192,115669,1,0,0:0:0:0:
192,192,115774,1,0,0:0:0:0:
64,192,115986,1,0,0:0:0:0:
448,192,116197,1,0,0:0:0:0:
320,192,116303,1,0,0:0:0:0:
192,192,116408,1,0,0:0:0:0:
64,192,116514,1,0,0:0:0:0:
448,192,116620,1,0,0:0:0:0:
320,192,116725,1,0,0:0:0:0:
192,192,116831,1,0,0:0:0:0:
320,192,117042,1,0,0:0:0:0:
448,192,117148,1,0,0:0:0:0:
64,192,117253,1,0,0:0:0:0:
320,192,117465,1,0,0:0:0:0:
448,192,117676,1,0,0:0:0:0:
320,192,117782,1,0,0:0:0:0:
64,192,117887,1,0,0:0:0:0:
320,192,117993,1,0,0:0:0:0:
192,192,118098,1,0,0:0:0:0:
64,192,118204,1,0,0:0:0:0:
320,192,118310,1,0,0:0:0:0:
448,192,118415,1,0,0:0:0:0:
64,192,118521,1,0,0:0:0:0:
320,192,118732,1,0,0:0:0:0:
448,192,118943,1,0,0:0:0:0:
192,192,119049,1,0,0:0:0:0:
64,192,119155,1,0,0:0:0:0:
320,192,119366,1,0,0:0:0:0:
64,192,119577,1,0,0:0:0:0:
192,192,119683,1,0,0:0:0:0:
320,192,119789,1,0,0:0:0:0:
448,192,119894,1,0,0:0:0:0:
320,192,120000,1,0,0:0:0:0:
192,192,120105,1,0,0:0:0:0:
64,192,120211,1,0,0:0:0:0:
192,192,120317,1,0,0:0:0:0:
320,192,120422,1,0,0:0:0:0:
448,192,120634,1,0,0:0:0:0:
320,192,120845,1,0,0:0:0:0:
192,192,120951,1,0,0:0:0:0:
64,192,121056,1,0,0:0:0:0:
448,192,121162,1,0,0:0:0:0:
320,192,121267,1,0,0:0:0:0:
448,192,121373,1,0,0:0:0:0:
64,192,121479,1,0,0:0:0:0:
192,192,121584,1,0,0:0:0:0:
320,192,121690,1,0,0:0:0:0:
448,192,121796,1,0,0:0:0:0:
64,192,121901,1,0,0:0:0:0:
192,192,122007,1,0,0:0:0:0:
320,192,122113,1,0,0:0:0:0:
64,192,122324,1,0,0:0:0:0:
320,192,122429,1,0,0:0:0:0:
192,192,122535,1,0,0:0:0:0:
448,192,122641,1,0,0:0:0:0:
320,192,122746,1,0,0:0:0:0:
192,192,122852,1,0,0:0:0:0:
448,192,122958,1,0,0:0:0:0:
64,192,123063,1,0,0:0:0:0:
192,192,123169,1,0,0:0:0:0:
320,192,123274,1,0,0:0:0:0:
64,192,123380,128,0,123591:0:0:0:0:
192,192,123486,128,0,123697:0:0:0:0:
320,192,123591,128,0,123803:0:0:0:0:
448,192,123697,128,0,123803:0:0:0:0:
64,192,123803,1,0,0:0:0:0:
192,192,123803,1,0,0:0:0:0:
320,192,124014,1,0,0:0:0:0:
448,192,124225,1,0,0:0:0:0:
320,192,124331,1,0,0:0:0:0:
64,192,124542,1,0,0:0:0:0:
192,192,124648,1,0,0:0:0:0:
320,192,124753,1,0,0:0:0:0:
448,192,124859,1,0,0:0:0:0:
192,192,125070,1,0,0:0:0:0:
64,192,125070,1,0,0:0:0:0:
320,192,125282,1,0,0:0:0:0:
192,192,125493,1,0,0:0:0:0:
448,192,125704,1,0,0:0:0:0:
320,192,125810,1,0,0:0:0:0:
64,192,125915,1,0,0:0:0:0:
448,192,125915,1,0,0:0:0:0:
192,192,126021,1,0,0:0:0:0:
448,192,126127,1,0,0:0:0:0:
320,192,126232,1,0,0:0:0:0:
448,192,126338,1,0,0:0:0:0:
64,192,126443,1,0,0:0:0:0:
192,192,126549,1,0,0:0:0:0:
320,192,126655,1,0,0:0:0:0:
448,192,126760,1,0,0:0:0:0:
64,192,126760,1,0,0:0:0:0:
320,192,126866,1,0,0:0:0:0:
192,192,126972,1,0,0:0:0:0:
64,192,127077,1,0,0:0:0:0:
448,192,127183,1,0,0:0:0:0:
192,192,127394,1,0,0:0:0:0:
448,192,127605,1,0,0:0:0:0:
64,192,127605,1,0,0:0:0:0:
320,192,127711,1,0,0:0:0:0:
192,192,127817,1,0,0:0:0:0:
320,192,127922,1,0,0:0:0:0:
192,192,128028,1,0,0:0:0:0:
64,192,128134,1,0,0:0:0:0:
448,192,128239,1,0,0:0:0:0:
320,192,128345,1,0,0:0:0:0:
64,192,128451,1,0,0:0:0:0:
448,192,128451,1,0,0:0:0:0:
192,192,128556,1,0,0:0:0:0:
320,192,128662,1,0,0:0:0:0:
64,192,128767,1,0,0:0:0:0:
448,192,128873,1,0,0:0:0:0:
64,192,129084,1,0,0:0:0:0:
192,192,129190,1,0,0:0:0:0:
320,192,129296,1,0,0:0:0:0:
64,192,129296,1,0,0:0:0:0:
448,192,129401,1,0,0:0:0:0:
192,192,129507,1,0,0:0:0:0:
64,192,129613,1,0,0:0:0:0:
320,192,129718,1,0,0:0:0:0:
448,192,129824,1,0,0:0:0:0:
192,192,129929,1,0,0:0:0:0:
64,192,130141,1,0,0:0:0:0:
320,192,130141,1,0,0:0:0:0:
320,192,130352,1,0,0:0:0:0:
192,192,130563,1,0,0:0:0:0:
448,192,130563,1,0,0:0:0:0:
320,192,130774,1,0,0:0:0:0:
192,192,130986,1,0,0:0:0:0:
64,192,131091,1,0,0:0:0:0:
448,192,131303,1,0,0:0:0:0:
320,192,131408,1,0,0:0:0:0:
64,192,131514,1,0,0:0:0:0:
192,192,131620,1,0,0:0:0:0:
448,192,131831,1,0,0:0:0:0:
64,192,131831,1,0,0:0:0:0:
320,192,132042,1,0,0:0:0:0:
192,192,132253,1,0,0:0:0:0:
448,192,132465,1,0,0:0:0:0:
320,192,132570,1,0,0:0:0:0:
64,192,132676,1,0,0:0:0:0:
448,192,132676,1,0,0:0:0:0:
192,192,132782,1,0,0:0:0:0:
320,192,132887,1,0,0:0:0:0:
448,192,132993,1,0,0:0:0:0:
64,192,133098,1,0,0:0:0:0:
192,192,133204,1,0,0:0:0:0:
320,192,133310,1,0,0:0:0:0:
448,192,133415,1,0,0:0:0:0:
320,192,133521,1,0,0:0:0:0:
64,192,133521,1,0,0:0:0:0:
192,192,133627,1,0,0:0:0:0:
64,192,133732,1,0,0:0:0:0:
448,192,133838,1,0,0:0:0:0:
320,192,133943,1,0,0:0:0:0:
192,192,134155,1,0,0:0:0:0:
320,192,134366,1,0,0:0:0:0:
64,192,134366,1,0,0:0:0:0:
448,192,134472,1,0,0:0:0:0:
320,192,134577,1,0,0:0:0:0:
448,192,134683,1,0,0:0:0:0:
64,192,134789,1,0,0:0:0:0:
192,192,134894,1,0,0:0:0:0:
320,192,135000,1,0,0:0:0:0:
448,192,135105,1,0,0:0:0:0:
320,192,135211,1,0,0:0:0:0:
192,192,135211,1,0,0:0:0:0:
64,192,135317,1,0,0:0:0:0:
192,192,135422,1,0,0:0:0:0:
320,192,135528,1,0,0:0:0:0:
448,192,135634,1,0,0:0:0:0:
320,192,135845,1,0,0:0:0:0:
192,192,135951,1,0,0:0:0:0:
64,192,136056,1,0,0:0:0:0:
320,192,136056,1,0,0:0:0:0:
448,192,136162,1,0,0:0:0:0:
320,192,136267,1,0,0:0:0:0:
192,192,136373,1,0,0:0:0:0:
64,192,136479,1,0,0:0:0:0:
448,192,136584,1,0,0:0:0:0:
320,192,136690,1,0,0:0:0:0:
192,192,136796,1,0,0:0:0:0:
64,192,136901,1,0,0:0:0:0:
448,192,136901,1,0,0:0:0:0:
192,192,137113,1,0,0:0:0:0:
320,192,137324,1,0,0:0:0:0:
448,192,137324,1,0,0:0:0:0:
192,192,137535,1,0,0:0:0:0:
448,192,137746,1,0,0:0:0:0:
320,192,137852,1,0,0:0:0:0:
64,192,138063,1,0,0:0:0:0:
320,192,138169,1,0,0:0:0:0:
448,192,138274,1,0,0:0:0:0:
192,192,138380,1,0,0:0:0:0:
448,192,139014,1,0,0:0:0:0:
64,192,139014,1,0,0:0:0:0:
192,192,139225,1,0,0:0:0:0:
448,192,139436,1,0,0:0:0:0:
320,192,139542,1,0,0:0:0:0:
64,192,139753,1,0,0:0:0:0:
192,192,139859,1,0,0:0:0:0:
320,192,139965,1,0,0:0:0:0:
448,192,140070,1,0,0:0:0:0:
192,192,140493,1,0,0:0:0:0:
64,192,140493,1,0,0:0:0:0:
448,192,140493,1,0,0:0:0:0:
320,192,140704,1,0,0:0:0:0:
448,192,140704,1,0,0:0:0:0:
64,192,140704,1,0,0:0:0:0:
192,192,140915,1,0,0:0:0:0:
448,192,141127,1,0,0:0:0:0:
320,192,141232,1,0,0:0:0:0:
64,192,141443,1,0,0:0:0:0:
192,192,141549,1,0,0:0:0:0:
320,192,141655,1,0,0:0:0:0:
448,192,141760,1,0,0:0:0:0:
64,192,141972,1,0,0:0:0:0:
192,192,141972,1,0,0:0:0:0:
192,192,142183,1,0,0:0:0:0:
320,192,142289,1,0,0:0:0:0:
64,192,142289,1,0,0:0:0:0:
448,192,142289,1,0,0:0:0:0:
448,192,142394,1,0,0:0:0:0:
64,192,142394,1,0,0:0:0:0:
320,192,142394,1,0,0:0:0:0:
320,192,142605,1,0,0:0:0:0:
192,192,142817,1,0,0:0:0:0:
64,192,142922,1,0,0:0:0:0:
448,192,143134,1,0,0:0:0:0:
320,192,143239,1,0,0:0:0:0:
448,192,143345,1,0,0:0:0:0:
64,192,143451,1,0,0:0:0:0:
320,192,143662,1,0,0:0:0:0:
192,192,143767,1,0,0:0:0:0:
64,192,143873,1,0,0:0:0:0:
448,192,143979,1,0,0:0:0:0:
320,192,144084,1,0,0:0:0:0:
192,192,144084,1,0,0:0:0:0:
64,192,144296,1,0,0:0:0:0:
320,192,144507,1,0,0:0:0:0:
448,192,144613,1,0,0:0:0:0:
64,192,144718,1,0,0:0:0:0:
192,192,144824,1,0,0:0:0:0:
320,192,144929,1,0,0:0:0:0:
448,192,144929,1,0,0:0:0:0:
192,192,145141,1,0,0:0:0:0:
448,192,145352,1,0,0:0:0:0:
320,192,145458,1,0,0:0:0:0:
64,192,145563,1,0,0:0:0:0:
192,192,145669,1,0,0:0:0:0:
320,192,145774,1,0,0:0:0:0:
448,192,145774,1,0,0:0:0:0:
192,192,145880,1,0,0:0:0:0:
64,192,145986,1,0,0:0:0:0:
448,192,146091,1,0,0:0:0:0:
320,192,146197,1,0,0:0:0:0:
64,192,146197,1,0,0:0:0:0:
192,192,146303,1,0,0:0:0:0:
64,192,146408,1,0,0:0:0:0:
320,192,146514,1,0,0:0:0:0:
448,192,146620,1,0,0:0:0:0:
192,192,146620,1,0,0:0:0:0:
64,192,146725,1,0,0:0:0:0:
192,192,146831,1,0,0:0:0:0:
320,192,146936,1,0,0:0:0:0:
448,192,147042,1,0,0:0:0:0:
64,192,147042,1,0,0:0:0:0:
192,192,147148,1,0,0:0:0:0:
64,192,147253,1,0,0:0:0:0:
448,192,147359,1,0,0:0:0:0:
320,192,147465,1,0,0:0:0:0:
64,192,147465,1,0,0:0:0:0:
192,192,147570,1,0,0:0:0:0:
64,192,147676,1,0,0:0:0:0:
320,192,147782,1,0,0:0:0:0:
448,192,147887,1,0,0:0:0:0:
192,192,147887,1,0,0:0:0:0:
64,192,147993,1,0,0:0:0:0:
192,192,148098,1,0,0:0:0:0:
320,192,148204,1,0,0:0:0:0:
448,192,148310,1,0,0:0:0:0:
64,192,148310,1,0,0:0:0:0:
192,192,148415,1,0,0:0:0:0:
64,192,148521,1,0,0:0:0:0:
448,192,148627,1,0,0:0:0:0:
320,192,148732,1,0,0:0:0:0:
64,192,148732,1,0,0:0:0:0:
192,192,148838,1,0,0:0:0:0:
64,192,148943,1,0,0:0:0:0:
320,192,149049,1,0,0:0:0:0:
448,192,149155,1,0,0:0:0:0:
64,192,149155,1,0,0:0:0:0:
64,192,149366,1,0,0:0:0:0:
448,192,149366,1,0,0:0:0:0:
192,192,149577,1,0,0:0:0:0:
320,192,149577,1,0,0:0:0:0:
192,192,149789,1,0,0:0:0:0:
320,192,149789,1,0,0:0:0:0:
64,192,150000,1,0,0:0:0:0:
448,192,150000,1,0,0:0:0:0:
64,192,150211,1,0,0:0:0:0:
448,192,150211,1,0,0:0:0:0:
192,192,150422,1,0,0:0:0:0:
320,192,150422,1,0,0:0:0:0:
192,192,150634,1,0,0:0:0:0:
320,192,150634,1,0,0:0:0:0:
64,192,150845,1,0,0:0:0:0:
448,192,150845,1,0,0:0:0:0:
320,192,151056,1,0,0:0:0:0:
192,192,151162,1,0,0:0:0:0:
320,192,151267,1,0,0:0:0:0:
64,192,151267,1,0,0:0:0:0:
448,192,151373,1,0,0:0:0:0:
192,192,151479,1,0,0:0:0:0:
320,192,151584,1,0,0:0:0:0:
448,192,151690,1,0,0:0:0:0:
192,192,151690,1,0,0:0:0:0:
320,192,151796,1,0,0:0:0:0:
192,192,151901,1,0,0:0:0:0:
448,192,152113,128,0,152535:0:0:0:0:
64,192,152535,128,0,153380:0:0:0:0:
192,192,152535,1,0,0:0:0:0:
192,192,153380,1,0,0:0:0:0:
448,192,153380,1,0,0:0:0:0:
320,192,153803,128,0,154225:0:0:0:0:
192,192,154225,128,0,155070:0:0:0:0:
320,192,154859,1,0,0:0:0:0:
64,192,155070,1,0,0:0:0:0:
448,192,155070,1,0,0:0:0:0:
320,192,155282,1,0,0:0:0:0:
192,192,155387,1,0,0:0:0:0:
320,192,155493,1,0,0:0:0:0:
192,192,155704,1,0,0:0:0:0:
320,192,155810,1,0,0:0:0:0:
192,192,155915,128,0,156760:0:0:0:0:
64,192,155915,1,0,0:0:0:0:
320,192,156549,1,0,0:0:0:0:
64,192,156760,1,0,0:0:0:0:
448,192,156760,1,0,0:0:0:0:
320,192,157183,128,0,157605:0:0:0:0:
64,192,157605,128,0,158028:0:0:0:0:
448,192,157605,128,0,158028:0:0:0:0:
320,192,158028,128,0,158451:0:0:0:0:
192,192,158239,1,0,0:0:0:0:
448,192,158451,1,0,0:0:0:0:
64,192,158451,1,0,0:0:0:0:
192,192,158662,1,0,0:0:0:0:
448,192,158873,1,0,0:0:0:0:
320,192,158979,1,0,0:0:0:0:
192,192,159084,1,0,0:0:0:0:
64,192,159084,1,0,0:0:0:0:
320,192,159190,1,0,0:0:0:0:
448,192,159296,1,0,0:0:0:0:
192,192,159296,128,0,160141:0:0:0:0:
448,192,160141,1,0,0:0:0:0:
64,192,160141,1,0,0:0:0:0:
320,192,160563,128,0,160986:0:0:0:0:
64,192,160986,128,0,161197:0:0:0:0:
448,192,161197,128,0,161408:0:0:0:0:
192,192,161408,128,0,161831:0:0:0:0:
320,192,161620,1,0,0:0:0:0:
448,192,161831,1,0,0:0:0:0:
64,192,161831,1,0,0:0:0:0:
320,192,162042,1,0,0:0:0:0:
192,192,162148,1,0,0:0:0:0:
64,192,162253,1,0,0:0:0:0:
192,192,162465,1,0,0:0:0:0:
320,192,162570,1,0,0:0:0:0:
448,192,162676,1,0,0:0:0:0:
64,192,162676,128,0,163521:0:0:0:0:
320,192,163310,1,0,0:0:0:0:
192,192,163521,1,0,0:0:0:0:
448,192,163521,1,0,0:0:0:0:
320,192,163943,128,0,164366:0:0:0:0:
64,192,164366,128,0,164683:0:0:0:0:
448,192,164366,128,0,164683:0:0:0:0:
192,192,164683,128,0,165000:0:0:0:0:
320,192,165000,128,0,165211:0:0:0:0:
64,192,165211,1,0,0:0:0:0:
448,192,165211,1,0,0:0:0:0:
192,192,165317,1,0,0:0:0:0:
320,192,165422,1,0,0:0:0:0:
448,192,165528,1,0,0:0:0:0:
192,192,165634,1,0,0:0:0:0:
64,192,165739,1,0,0:0:0:0:
320,192,165845,1,0,0:0:0:0:
192,192,165845,1,0,0:0:0:0:
448,192,165951,1,0,0:0:0:0:
64,192,166056,1,0,0:0:0:0:
192,192,166056,128,0,166901:0:0:0:0:
448,192,166901,1,0,0:0:0:0:
64,192,166901,1,0,0:0:0:0:
320,192,167324,128,0,167746:0:0:0:0:
192,192,167746,128,0,167958:0:0:0:0:
448,192,167958,128,0,168169:0:0:0:0:
64,192,168169,128,0,168591:0:0:0:0:
320,192,168380,1,0,0:0:0:0:
192,192,168591,1,0,0:0:0:0:
448,192,168591,1,0,0:0:0:0:
320,192,168803,1,0,0:0:0:0:
192,192,168908,1,0,0:0:0:0:
64,192,169014,1,0,0:0:0:0:
320,192,169225,1,0,0:0:0:0:
448,192,169331,1,0,0:0:0:0:
192,192,169436,128,0,170282:0:0:0:0:
320,192,169436,1,0,0:0:0:0:
320,192,170070,1,0,0:0:0:0:
64,192,170282,1,0,0:0:0:0:
448,192,170282,1,0,0:0:0:0:
320,192,170704,128,0,171127:0:0:0:0:
64,192,171127,128,0,171338:0:0:0:0:
448,192,171338,128,0,171549:0:0:0:0:
192,192,171549,128,0,171972:0:0:0:0:
320,192,171760,1,0,0:0:0:0:
64,192,171972,1,0,0:0:0:0:
448,192,171972,1,0,0:0:0:0:
320,192,172183,1,0,0:0:0:0:
192,192,172394,1,0,0:0:0:0:
320,192,172500,1,0,0:0:0:0:
448,192,172605,1,0,0:0:0:0:
64,192,172605,1,0,0:0:0:0:
192,192,172711,1,0,0:0:0:0:
64,192,172817,1,0,0:0:0:0:
320,192,172817,128,0,173662:0:0:0:0:
64,192,173662,1,0,0:0:0:0:
192,192,173662,1,0,0:0:0:0:
320,192,174084,128,0,174507:0:0:0:0:
64,192,174507,128,0,174929:0:0:0:0:
192,192,174507,128,0,174929:0:0:0:0:
448,192,174929,128,0,175352:0:0:0:0:
192,192,175141,1,0,0:0:0:0:
64,192,175352,1,0,0:0:0:0:
320,192,175352,1,0,0:0:0:0:
192,192,175563,1,0,0:0:0:0:
320,192,175669,1,0,0:0:0:0:
448,192,175774,1,0,0:0:0:0:
64,192,175986,1,0,0:0:0:0:
192,192,176091,1,0,0:0:0:0:
320,192,176197,1,0,0:0:0:0:
448,192,176197,128,0,177042:0:0:0:0:
64,192,176831,1,0,0:0:0:0:
320,192,177042,1,0,0:0:0:0:
192,192,177042,1,0,0:0:0:0:
448,192,177465,128,0,177887:0:0:0:0:
64,192,177887,1,0,0:0:0:0:
320,192,177887,1,0,0:0:0:0:
192,192,178098,1,0,0:0:0:0:
448,192,178310,1,0,0:0:0:0:
320,192,178415,1,0,0:0:0:0:
64,192,178521,1,0,0:0:0:0:
192,192,178627,1,0,0:0:0:0:
320,192,178732,1,0,0:0:0:0:
192,192,178943,1,0,0:0:0:0:
320,192,179155,1,0,0:0:0:0:
448,192,179155,1,0,0:0:0:0:
192,192,179296,1,0,0:0:0:0:
64,192,179296,1,0,0:0:0:0:
320,192,179436,1,0,0:0:0:0:
448,192,179436,1,0,0:0:0:0:
192,192,179577,1,0,0:0:0:0:
64,192,179577,1,0,0:0:0:0:
320,192,179683,1,0,0:0:0:0:
448,192,179789,1,0,0:0:0:0:
64,192,180000,1,0,0:0:0:0:
448,192,180211,1,0,0:0:0:0:
320,192,180317,1,0,0:0:0:0:
64,192,180422,1,0,0:0:0:0:
448,192,180422,1,0,0:0:0:0:
192,192,180528,1,0,0:0:0:0:
448,192,180634,1,0,0:0:0:0:
64,192,180739,1,0,0:0:0:0:
192,192,180845,1,0,0:0:0:0:
320,192,180951,1,0,0:0:0:0:
448,192,181056,1,0,0:0:0:0:
192,192,181267,1,0,0:0:0:0:
448,192,181479,1,0,0:0:0:0:
320,192,181584,1,0,0:0:0:0:
192,192,181690,1,0,0:0:0:0:
448,192,181690,1,0,0:0:0:0:
64,192,181901,1,0,0:0:0:0:
448,192,182113,1,0,0:0:0:0:
64,192,182113,1,0,0:0:0:0:
320,192,182218,1,0,0:0:0:0:
64,192,182324,1,0,0:0:0:0:
192,192,182429,1,0,0:0:0:0:
320,192,182535,1,0,0:0:0:0:
448,192,182641,1,0,0:0:0:0:
320,192,182746,1,0,0:0:0:0:
64,192,182958,1,0,0:0:0:0:
448,192,182958,1,0,0:0:0:0:
192,192,183063,1,0,0:0:0:0:
320,192,183169,1,0,0:0:0:0:
448,192,183380,1,0,0:0:0:0:
64,192,183591,1,0,0:0:0:0:
192,192,183697,1,0,0:0:0:0:
320,192,183803,1,0,0:0:0:0:
448,192,183803,1,0,0:0:0:0:
192,192,183908,1,0,0:0:0:0:
64,192,184014,1,0,0:0:0:0:
448,192,184120,1,0,0:0:0:0:
320,192,184225,1,0,0:0:0:0:
64,192,184331,1,0,0:0:0:0:
448,192,184436,1,0,0:0:0:0:
192,192,184648,1,0,0:0:0:0:
64,192,184859,1,0,0:0:0:0:
192,192,184965,1,0,0:0:0:0:
64,192,185070,1,0,0:0:0:0:
448,192,185282,1,0,0:0:0:0:
320,192,185282,1,0,0:0:0:0:
192,192,185387,1,0,0:0:0:0:
64,192,185493,1,0,0:0:0:0:
320,192,185493,1,0,0:0:0:0:
192,192,185598,1,0,0:0:0:0:
320,192,185704,1,0,0:0:0:0:
448,192,185810,1,0,0:0:0:0:
320,192,185915,1,0,0:0:0:0:
192,192,186021,1,0,0:0:0:0:
192,192,186338,1,0,0:0:0:0:
64,192,186338,1,0,0:0:0:0:
320,192,186443,1,0,0:0:0:0:
448,192,186549,1,0,0:0:0:0:
64,192,186760,1,0,0:0:0:0:
448,192,186972,1,0,0:0:0:0:
320,192,187077,1,0,0:0:0:0:
192,192,187183,1,0,0:0:0:0:
64,192,187183,1,0,0:0:0:0:
320,192,187289,1,0,0:0:0:0:
448,192,187394,1,0,0:0:0:0:
64,192,187500,1,0,0:0:0:0:
192,192,187605,1,0,0:0:0:0:
320,192,187711,1,0,0:0:0:0:
448,192,187817,1,0,0:0:0:0:
192,192,188028,1,0,0:0:0:0:
448,192,188239,1,0,0:0:0:0:
192,192,188345,1,0,0:0:0:0:
64,192,188451,1,0,0:0:0:0:
320,192,188451,1,0,0:0:0:0:
448,192,188662,1,0,0:0:0:0:
64,192,188873,1,0,0:0:0:0:
192,192,188873,1,0,0:0:0:0:
320,192,188979,1,0,0:0:0:0:
448,192,189084,1,0,0:0:0:0:
320,192,189190,1,0,0:0:0:0:
192,192,189296,1,0,0:0:0:0:
64,192,189401,1,0,0:0:0:0:
448,192,189507,1,0,0:0:0:0:
64,192,189718,1,0,0:0:0:0:
320,192,189718,1,0,0:0:0:0:
192,192,189824,1,0,0:0:0:0:
448,192,189929,1,0,0:0:0:0:
320,192,190141,1,0,0:0:0:0:
64,192,190352,1,0,0:0:0:0:
192,192,190458,1,0,0:0:0:0:
448,192,190563,1,0,0:0:0:0:
320,192,190563,1,0,0:0:0:0:
192,192,190669,1,0,0:0:0:0:
64,192,190774,1,0,0:0:0:0:
448,192,190880,1,0,0:0:0:0:
320,192,190986,1,0,0:0:0:0:
192,192,191091,1,0,0:0:0:0:
64,192,191197,1,0,0:0:0:0:
448,192,191408,1,0,0:0:0:0:
192,192,191620,1,0,0:0:0:0:
320,192,191725,1,0,0:0:0:0:
192,192,191831,1,0,0:0:0:0:
448,192,192042,1,0,0:0:0:0:
64,192,192253,1,0,0:0:0:0:
192,192,192359,1,0,0:0:0:0:
320,192,192465,1,0,0:0:0:0:
448,192,192570,1,0,0:0:0:0:
64,192,192676,1,0,0:0:0:0:
192,192,192782,1,0,0:0:0:0:
448,192,192887,1,0,0:0:0:0:
192,192,193098,1,0,0:0:0:0:
64,192,193098,1,0,0:0:0:0:
320,192,193098,1,0,0:0:0:0:
448,192,193204,1,0,0:0:0:0:
320,192,193310,1,0,0:0:0:0:
64,192,193521,1,0,0:0:0:0:
448,192,193732,1,0,0:0:0:0:
320,192,193838,1,0,0:0:0:0:
64,192,193943,1,0,0:0:0:0:
192,192,194049,1,0,0:0:0:0:
320,192,194155,1,0,0:0:0:0:
448,192,194260,1,0,0:0:0:0:
192,192,194366,1,0,0:0:0:0:
64,192,194472,1,0,0:0:0:0:
192,192,194577,1,0,0:0:0:0:
448,192,194789,1,0,0:0:0:0:
64,192,195000,1,0,0:0:0:0:
192,192,195105,1,0,0:0:0:0:
320,192,195211,1,0,0:0:0:0:
448,192,195422,1,0,0:0:0:0:
320,192,195634,1,0,0:0:0:0:
192,192,195739,1,0,0:0:0:0:
448,192,195845,1,0,0:0:0:0:
320,192,195951,1,0,0:0:0:0:
192,192,196056,1,0,0:0:0:0:
320,192,196162,1,0,0:0:0:0:
448,192,196267,1,0,0:0:0:0:
64,192,196479,1,0,0:0:0:0:
320,192,196584,1,0,0:0:0:0:
448,192,196690,1,0,0:0:0:0:
64,192,196901,1,0,0:0:0:0:
64,192,197113,1,0,0:0:0:0:
192,192,197218,1,0,0:0:0:0:
448,192,197324,1,0,0:0:0:0:
192,192,197429,1,0,0:0:0:0:
64,192,197535,1,0,0:0:0:0:
448,192,197641,1,0,0:0:0:0:
320,192,197746,1,0,0:0:0:0:
192,192,197852,1,0,0:0:0:0:
320,192,197958,1,0,0:0:0:0:
192,192,198169,1,0,0:0:0:0:
448,192,198380,1,0,0:0:0:0:
192,192,198486,1,0,0:0:0:0:
64,192,198591,1,0,0:0:0:0:
320,192,198803,1,0,0:0:0:0:
64,192,199014,1,0,0:0:0:0:
192,192,199120,1,0,0:0:0:0:
320,192,199225,1,0,0:0:0:0:
448,192,199331,1,0,0:0:0:0:
320,192,199436,1,0,0:0:0:0:
192,192,199542,1,0,0:0:0:0:
64,192,199648,1,0,0:0:0:0:
320,192,199859,1,0,0:0:0:0:
448,192,199965,1,0,0:0:0:0:
64,192,200070,1,0,0:0:0:0:
320,192,200282,1,0,0:0:0:0:
448,192,200493,1,0,0:0:0:0:
320,192,200598,1,0,0:0:0:0:
64,192,200704,1,0,0:0:0:0:
192,192,200810,1,0,0:0:0:0:
448,192,200915,1,0,0:0:0:0:
320,192,201021,1,0,0:0:0:0:
192,192,201127,1,0,0:0:0:0:
64,192,201232,1,0,0:0:0:0:
320,192,201338,1,0,0:0:0:0:
448,192,201549,1,0,0:0:0:0:
320,192,201760,1,0,0:0:0:0:
192,192,201866,1,0,0:0:0:0:
448,192,201972,1,0,0:0:0:0:
192,192,202183,1,0,0:0:0:0:
320,192,202394,1,0,0:0:0:0:
192,192,202500,1,0,0:0:0:0:
448,192,202605,1,0,0:0:0:0:
192,192,202711,1,0,0:0:0:0:
320,192,202817,1,0,0:0:0:0:
192,192,202922,1,0,0:0:0:0:
64,192,203028,1,0,0:0:0:0:
448,192,203239,1,0,0:0:0:0:
320,192,203345,1,0,0:0:0:0:
192,192,203451,1,0,0:0:0:0:
64,192,203662,1,0,0:0:0:0:
320,192,203873,1,0,0:0:0:0:
448,192,203979,1,0,0:0:0:0:
64,192,204084,1,0,0:0:0:0:
192,192,204190,1,0,0:0:0:0:
448,192,204296,1,0,0:0:0:0:
320,192,204401,1,0,0:0:0:0:
192,192,204507,1,0,0:0:0:0:
64,192,204613,1,0,0:0:0:0:
448,192,204718,1,0,0:0:0:0:
192,192,204929,1,0,0:0:0:0:
448,192,205141,1,0,0:0:0:0:
320,192,205246,1,0,0:0:0:0:
64,192,205352,1,0,0:0:0:0:
192,192,205563,1,0,0:0:0:0:
320,192,205774,1,0,0:0:0:0:
448,192,205880,1,0,0:0:0:0:
64,192,205986,1,0,0:0:0:0:
192,192,206091,1,0,0:0:0:0:
448,192,206197,1,0,0:0:0:0:
320,192,206303,1,0,0:0:0:0:
64,192,206408,1,0,0:0:0:0:
192,192,206620,1,0,0:0:0:0:
320,192,206725,1,0,0:0:0:0:
448,192,206831,1,0,0:0:0:0:
64,192,206936,1,0,0:0:0:0:
192,192,207042,1,0,0:0:0:0:
320,192,207148,1,0,0:0:0:0:
448,192,207253,1,0,0:0:0:0:
320,192,207465,1,0,0:0:0:0:
192,192,207570,1,0,0:0:0:0:
64,192,207676,1,0,0:0:0:0:
448,192,207782,1,0,0:0:0:0:
320,192,207887,1,0,0:0:0:0:
192,192,207993,1,0,0:0:0:0:
64,192,208098,1,0,0:0:0:0:
448,192,208310,1,0,0:0:0:0:
