osu file format v14

[General]
AudioFilename: audio.mp3
AudioLeadIn: 0
PreviewTime: 27025
Countdown: 0
SampleSet: None
StackLeniency: 0.7
Mode: 0
LetterboxInBreaks: 0
WidescreenStoryboard: 1

[Editor]
Bookmarks: 41079
DistanceSpacing: 1
BeatDivisor: 2
GridSize: 4
TimelineZoom: 2.5

[Metadata]
Title:UZ
TitleUnicode:UZ
Artist:daniwell
ArtistUnicode:daniwell
Creator:SacredSage
Version:Beginner
Source:
Tags:daniwell UZ vocaloid
BeatmapID:1190447
BeatmapSetID:559393

[Difficulty]
HPDrainRate:2
CircleSize:2
OverallDifficulty:3
ApproachRate:3
SliderMultiplier:0.499999999999999
SliderTickRate:1

[Events]
//Background and Video events
0,0,"uz background.jpg",0,0
Video,0,"video.avi"
//Break Periods
//Storyboard Layer 0 (Background)
//Storyboard Layer 1 (Fail)
//Storyboard Layer 2 (Pass)
//Storyboard Layer 3 (Foreground)
//Storyboard Sound Samples

[TimingPoints]
540,270.27027027027,4,3,0,15,1,0
1080,270.27027027027,4,1,0,35,1,0
3242,-100,4,1,0,50,0,0
4052,-100,4,1,0,65,0,0
5134,-100,4,1,0,80,0,0
7431,-100,4,1,0,95,0,0
9728,-100,4,3,0,95,0,0
35674,-100,4,3,0,95,0,1
39998,-100,4,3,0,95,0,0
44323,-100,4,3,0,95,0,0
52701,-100,4,3,0,95,0,0

[Colours]
Combo1 : 249,219,13
Combo2 : 249,136,232
Combo3 : 255,255,255

[HitObjects]
128,120,1080,6,0,P|180:104|314:149,1,200,0|8,0:0|0:0,0:0:0:0:
356,240,2701,1,8,0:0:0:0:
455,285,3242,6,0,P|395:341|277:313,1,200
208,256,4863,1,8,0:0:0:0:
115,218,5404,6,0,L|55:302,1,99.9999999999998,4|8,0:0|0:0,0:0:0:0:
149,336,6485,2,0,L|213:248,1,99.9999999999998,0|8,0:0|0:0,0:0:0:0:
268,175,7566,5,0,0:0:0:0:
333,250,8107,1,8,0:0:0:0:
407,183,8647,2,0,L|340:98,1,99.9999999999998
407,183,9728,5,0,0:0:0:0:
407,283,10269,1,0,0:0:0:0:
308,292,10809,2,0,P|248:304|204:276,1,99.9999999999998,4|8,0:0|0:0,0:0:0:0:
136,228,11890,6,0,L|96:192,2,49.9999999999999,0|8|0,0:0|0:0|0:0,0:0:0:0:
140,100,12971,2,0,L|96:56,2,49.9999999999999
208,172,14052,5,0,0:0:0:0:
148,252,14593,1,0,0:0:0:0:
208,172,15134,2,0,P|260:164|328:192,1,99.9999999999998,0|8,0:0|0:0,0:0:0:0:
388,232,16215,5,0,0:0:0:0:
312,296,16755,2,0,B|226:340|204:256|100:316,1,200,0|4,0:0|0:0,0:0:0:0:
36,364,18377,1,0,0:0:0:0:
60,268,18917,1,0,0:0:0:0:
88,172,19458,6,0,P|124:132|176:112,1,99.9999999999998,4|0,0:0|0:0,0:0:0:0:
264,104,20539,1,0,0:0:0:0:
360,132,21079,1,0,0:0:0:0:
432,204,21620,2,0,L|426:271,2,49.9999999999999
324,320,22701,5,0,0:0:0:0:
224,336,23242,2,4,P|168:327|134:287,1,99.9999999999998
226,235,24323,1,0,0:0:0:0:
224,336,24863,6,4,P|280:328|326:259,1,99.9999999999998
368,215,25944,2,0,P|405:184|454:179,1,99.9999999999998,4|0,0:0|0:0,0:0:0:0:
440,280,27025,6,0,P|316:296|273:226,1,200,4|0,0:0|0:0,0:0:0:0:
332,164,28647,1,0,0:0:0:0:
292,72,29188,2,0,P|224:40|120:120,1,200
176,188,30809,1,0,0:0:0:0:
264,236,31350,6,0,L|367:245,1,99.9999999999998
340,340,32431,1,0,0:0:0:0:
240,340,32971,1,0,0:0:0:0:
140,320,33512,2,0,P|92:292|76:224,1,99.9999999999998
60,152,34593,1,0,0:0:0:0:
60,152,35674,6,0,P|140:108|184:124,1,99.9999999999998,4|8,0:0|0:0,0:0:0:0:
228,160,36755,2,0,B|112:224,1,99.9999999999998,0|8,0:0|0:0,0:0:0:0:
60,248,37836,2,0,P|72:328|120:352,1,99.9999999999998,0|8,0:0|0:0,0:0:0:0:
180,344,38917,1,0,0:0:0:0:
248,268,39458,1,0,0:0:0:0:
256,168,39998,6,0,P|304:136|356:136,1,99.9999999999998
415,204,41079,2,0,P|367:236|315:236,1,99.9999999999998
440,184,42161,6,0,P|476:156|488:96,1,99.9999999999998
464,8,43242,2,0,P|408:8|344:48,1,99.9999999999998
300,96,44323,6,0,P|240:124|152:88,1,150,4|8,0:0|0:0,0:0:0:0:
128,64,45404,2,0,L|114:215,1,150,0|8,0:0|0:0,0:0:0:0:
112,264,46485,6,0,L|163:268,1,49.9999999999999
204,296,47025,2,0,L|255:300,1,49.9999999999999
296,264,47566,1,0,0:0:0:0:
384,84,48647,5,0,0:0:0:0:
292,128,49188,1,8,0:0:0:0:
200,88,49728,2,0,P|108:88|60:152,1,150,4|8,0:0|0:0,0:0:0:0:
60,176,50809,6,0,L|92:232,1,49.9999999999999,4|8,0:0|0:0,0:0:0:0:
136,220,51350,2,0,L|160:176,1,49.9999999999999,4|8,0:0|0:0,0:0:0:0:
212,176,51890,2,4,L|236:219,2,49.9999999999999
184,132,52701,5,0,0:0:0:0:
