osu file format v14

[General]
AudioFilename: -+.mp3
AudioLeadIn: 0
PreviewTime:86931
Countdown: 0
SampleSet: Soft
StackLeniency: 0.7
Mode: 0
LetterboxInBreaks: 0
WidescreenStoryboard: 1
EpilepsyWarning: 1

[Editor]
DistanceSpacing: 1.6
BeatDivisor: 4
GridSize: 4
TimelineZoom: 1.1

[Metadata]
Title:-+
TitleUnicode:-+
Artist:daisan
ArtistUnicode:daisan
Creator:Starfy
Version:wkyik's Extra
Source:BOF2013
Tags:minus plus konzertsaal - THE BMS OF FIGHTERS 2013 Dirt Art Color Teller xellox piano StarForYou Kyle Y IamKwaN happy623 -N_a_n_a_k_o- Nanako Kencho Chaoslitz [ Drop ] choikapo Regou Rizia Kawaiwkyik Nakano Itsuki StarrStyx Prophecy aabc271 Nardoxyribonucleic Skylish ll-oscar autofanboy alienflybot hokin1995 pwhk hong kong hk muse dash electronic instrumental
BeatmapID:850104
BeatmapSetID:389617

[Difficulty]
HPDrainRate:7.4
CircleSize:4
OverallDifficulty:8.4
ApproachRate:9.4
SliderMultiplier:1.8
SliderTickRate:1

[Events]
//Background and Video events
0,0,"BG.png",0,0
//Break Periods
//Storyboard Layer 0 (Background)
//Storyboard Layer 1 (Fail)
//Storyboard Layer 2 (Pass)
//Storyboard Layer 3 (Foreground)
//Storyboard Layer 4 (Overlay)
//Storyboard Sound Samples

[TimingPoints]
2607,324.324324324324,4,2,20,20,1,0
2607,-200,4,2,20,20,0,0
12985,-200,4,2,20,40,0,0
13066,-200,4,2,20,20,0,0
22715,-200,4,2,20,40,0,0
23363,-100,4,2,20,70,0,0
28552,-90.9090909090909,4,2,20,70,0,0
29850,-71.4285714285714,4,2,20,70,0,0
33742,-100,4,2,20,70,0,0
42823,-100,4,1,20,70,0,0
44120,-166.666666666667,4,2,20,70,0,0
64877,-100,4,2,20,70,0,0
84336,-100,4,1,20,70,0,0
86931,-200,4,2,20,70,0,0
88228,-83.3333333333333,4,2,20,80,0,1
98444,-83.3333333333333,4,2,20,80,0,0
98931,-55.5555555555556,4,2,20,70,0,1
101201,-83.3333333333333,4,1,20,70,0,1
102985,-83.3333333333333,4,1,20,80,0,1
103309,-83.3333333333333,4,1,20,70,0,1
103471,-83.3333333333333,4,1,20,60,0,1
103634,-83.3333333333333,4,1,20,70,0,1
104120,-83.3333333333333,4,2,20,70,0,1
104931,-83.3333333333333,4,2,20,75,0,1
106228,-83.3333333333333,4,2,20,80,0,1
107525,-83.3333333333333,4,2,20,85,0,1
108823,-83.3333333333333,4,2,20,90,0,1
110931,-83.3333333333333,4,2,20,95,0,1
112228,-83.3333333333333,4,2,0,98,0,1
114174,-100,4,2,20,70,0,0
118066,370.37037037037,4,2,20,35,1,0
118066,-200,4,2,20,35,0,0
119547,379.746835443038,4,2,20,30,1,0
120917,413.793103448276,4,2,20,25,1,0
122439,491.803278688525,4,2,20,20,1,0
124652,-100,4,2,20,5,0,0

[Colours]
Combo1 : 41,214,166
Combo2 : 128,0,255
Combo3 : 128,255,255
Combo4 : 3,90,252

[HitObjects]
84,128,2607,5,0,0:0:0:0:
256,192,3255,1,0,0:0:0:0:
428,128,3904,1,0,0:0:0:0:
256,192,4552,1,0,0:0:0:0:
340,304,5201,6,0,P|384:316|472:228,1,180
172,304,6498,2,0,P|128:316|40:228,1,180
384,56,7796,5,0,0:0:0:0:
356,232,8444,1,0,0:0:0:0:
128,56,9093,1,0,0:0:0:0:
156,232,9741,1,0,0:0:0:0:
344,152,10390,6,0,P|376:184|360:312,1,180
148,308,11688,2,0,P|121:225|168:152,1,180
400,80,12985,5,2,0:3:0:0:
112,80,13634,1,0,0:0:0:0:
364,264,14282,1,0,0:0:0:0:
148,264,14931,1,0,0:0:0:0:
256,364,15579,6,0,B|267:318|248:296|248:296|265:258|265:258|249:227|260:174,1,180
256,20,16877,2,0,B|244:65|263:87|263:87|246:125|246:125|262:156|251:209,1,180
408,152,18174,5,0,0:0:0:0:
408,152,18498,1,0,0:0:0:0:
304,252,18823,1,0,0:0:0:0:
304,252,19147,1,0,0:0:0:0:
208,132,19471,1,0,0:0:0:0:
208,132,19795,1,0,0:0:0:0:
104,232,20120,1,0,0:0:0:0:
104,232,20444,1,0,0:0:0:0:
380,328,20769,5,0,0:0:0:0:
380,328,20931,1,0,0:0:0:0:
196,216,21093,1,0,0:0:0:0:
196,216,21255,1,0,0:0:0:0:
316,216,21417,5,0,0:0:0:0:
316,216,21579,1,0,0:0:0:0:
132,328,21741,1,0,0:0:0:0:
132,328,21903,1,0,0:0:0:0:
256,384,22066,6,0,L|256:284,1,90
180,100,22715,5,2,0:0:0:0:
168,104,22796,1,2,0:0:0:0:
156,108,22877,1,2,0:0:0:0:
144,112,22958,1,2,0:0:0:0:
132,116,23039,1,2,0:0:0:0:
120,120,23120,1,2,0:0:0:0:
108,124,23201,1,2,0:0:0:0:
96,128,23282,1,2,0:0:0:0:
76,136,23363,6,0,P|68:172|96:232,1,90,4|0,1:0|1:0,0:0:0:0:
356,184,23688,2,0,L|240:168,1,90,8|2,0:0|0:0,0:0:0:0:
232,160,23931,1,2,0:0:0:0:
216,128,24012,1,2,0:0:0:0:
220,92,24093,1,2,0:0:0:0:
240,60,24174,1,2,1:2:0:0:
272,44,24255,1,2,0:0:0:0:
308,44,24336,2,0,L|360:68,1,45,10|0,0:0|0:0,0:0:0:0:
448,64,24498,2,0,L|453:121,1,45
496,204,24661,6,0,P|472:256|460:296,1,90,0|0,1:0|1:0,0:0:0:0:
360,352,24985,5,8,0:0:0:0:
336,328,25066,1,0,0:0:0:0:
304,316,25147,1,0,0:0:0:0:
268,312,25228,1,0,0:0:0:0:
228,328,25309,5,2,1:2:0:0:
196,360,25390,1,2,0:2:0:0:
152,376,25471,1,2,1:2:0:0:
108,372,25552,1,2,0:2:0:0:
68,348,25634,5,8,0:0:0:0:
52,296,25715,1,0,0:0:0:0:
68,244,25796,1,0,0:0:0:0:
84,192,25877,1,0,1:0:0:0:
100,140,25958,6,0,L|112:80,1,45,0|0,1:0|0:0,0:0:0:0:
212,84,26120,2,0,L|203:128,1,45,0|0,1:0|0:0,0:0:0:0:
260,208,26282,2,0,L|360:196,1,90,10|0,0:0|0:0,0:0:0:0:
428,184,26525,1,2,0:0:0:0:
428,184,26606,1,0,0:0:0:0:
256,78,26769,2,0,L|211:83,1,45,0|0,1:0|0:0,0:0:0:0:
112,56,26931,5,10,0:2:0:0:
108,80,27012,1,2,0:2:0:0:
100,108,27093,1,2,0:2:0:0:
92,136,27174,1,2,0:2:0:0:
88,160,27255,6,0,L|96:220,1,45,2|2,1:3|0:0,0:0:0:0:
168,260,27417,2,0,L|162:304,1,45,2|2,0:0|0:0,0:0:0:0:
254,163,27579,2,0,L|262:223,1,45,10|2,0:2|0:2,0:0:0:0:
336,300,27742,1,2,1:2:0:0:
336,300,27823,1,2,1:2:0:0:
336,300,27904,5,2,1:2:0:0:
368,328,27985,1,2,0:2:0:0:
412,336,28066,1,2,0:2:0:0:
452,320,28147,1,2,0:2:0:0:
472,280,28228,1,10,0:2:0:0:
464,236,28309,1,2,0:2:0:0:
428,212,28390,1,2,0:2:0:0:
416,168,28471,1,2,0:2:0:0:
424,124,28552,6,0,L|436:60,1,49.5000015106202,6|2,1:2|0:2,0:0:0:0:
336,36,28715,2,0,L|345:84,1,49.5000015106202,2|2,1:2|0:2,0:0:0:0:
254,163,28877,2,0,L|190:175,1,49.5000015106202,10|2,0:0|0:0,0:0:0:0:
156,80,29039,2,0,L|220:68,1,49.5000015106202,2|2,0:0|0:0,0:0:0:0:
80,224,29201,2,0,L|88:168,1,49.5000015106202,2|2,0:0|0:0,0:0:0:0:
48,36,29363,2,0,L|55:85,1,49.5000015106202,2|2,1:2|0:2,0:0:0:0:
205,172,29525,2,0,L|277:192,1,49.5000015106202,10|2,0:0|0:0,0:0:0:0:
336,36,29688,2,0,L|264:56,1,49.5000015106202,2|2,0:0|0:0,0:0:0:0:
304,300,29850,6,0,P|312:244|324:208,1,62.9999980773926,2|2,1:2|0:2,0:0:0:0:
195,109,30012,2,0,P|201:139|204:171,1,62.9999980773926,2|2,1:2|0:2,0:0:0:0:
192,268,30174,2,0,P|132:292|104:312,1,62.9999980773926,10|2,0:2|0:2,0:0:0:0:
320,148,30336,2,0,P|348:161|378:171,1,62.9999980773926,2|2,0:2|0:2,0:0:0:0:
484,144,30498,6,0,P|481:112|474:81,1,62.9999980773926,2|2,0:2|0:2,0:0:0:0:
400,0,30661,2,0,P|373:17|350:39,1,62.9999980773926,2|2,1:2|0:2,0:0:0:0:
360,248,30823,2,0,P|331:234|301:224,1,62.9999980773926,10|2,0:2|0:2,0:0:0:0:
195,109,30985,2,0,P|166:122|136:132,1,62.9999980773926,2|2,0:2|0:2,0:0:0:0:
8,132,31147,5,2,1:2:0:0:
12,156,31228,1,2,0:2:0:0:
16,180,31309,1,2,1:2:0:0:
20,204,31390,1,2,0:2:0:0:
24,228,31471,1,10,0:2:0:0:
236,368,31634,1,2,0:2:0:0:
240,344,31715,1,2,0:2:0:0:
244,320,31796,5,2,0:2:0:0:
268,276,31877,1,2,0:2:0:0:
312,248,31958,1,2,1:2:0:0:
360,248,32039,1,2,0:2:0:0:
400,280,32120,5,8,0:0:0:0:
320,264,32201,1,0,0:0:0:0:
240,248,32282,1,0,0:0:0:0:
160,232,32363,1,0,1:0:0:0:
80,212,32444,6,0,P|68:160|76:108,1,62.9999980773926,0|0,1:0|0:0,0:0:0:0:
160,32,32606,2,0,P|172:84|164:136,1,62.9999980773926,0|0,1:0|0:0,0:0:0:0:
88,200,32769,6,0,P|76:148|84:96,1,62.9999980773926,8|0,0:0|0:0,0:0:0:0:
168,20,32931,2,0,P|180:72|172:124,1,62.9999980773926,0|0,1:0|0:0,0:0:0:0:
280,184,33093,5,0,1:0:0:0:
240,248,33174,1,0,1:0:0:0:
172,280,33255,1,2,1:2:0:0:
96,272,33336,1,2,1:2:0:0:
40,220,33417,5,10,1:2:0:0:
44,188,33498,1,2,1:2:0:0:
48,156,33579,1,2,1:2:0:0:
52,124,33661,1,2,1:2:0:0:
56,92,33742,5,4,1:0:0:0:
212,124,33904,1,0,1:0:0:0:
140,20,34066,1,8,0:0:0:0:
124,184,34228,1,0,0:0:0:0:
284,88,34390,5,0,0:0:0:0:
324,248,34552,1,0,1:0:0:0:
212,124,34715,1,8,0:0:0:0:
372,60,34877,1,0,0:0:0:0:
444,216,35039,6,0,L|344:232,1,90,0|0,1:0|1:0,0:0:0:0:
288,324,35363,1,8,0:0:0:0:
364,148,35525,1,0,0:0:0:0:
196,224,35688,5,0,1:0:0:0:
376,316,35850,1,0,1:0:0:0:
192,368,36012,1,8,0:0:0:0:
324,248,36174,1,0,0:0:0:0:
324,248,36255,1,0,0:0:0:0:
324,248,36336,5,0,1:0:0:0:
120,160,36498,2,0,L|100:288,1,90,0|8,1:0|0:0,0:0:0:0:
262,83,36823,1,0,0:0:0:0:
262,83,36904,1,0,0:0:0:0:
262,83,36985,2,0,L|282:211,1,90,0|0,1:0|1:0,0:0:0:0:
416,312,37309,2,0,L|436:252,1,45,8|0,0:0|0:0,0:0:0:0:
392,192,37471,2,0,L|412:132,1,45
420,60,37634,5,0,1:0:0:0:
392,36,37715,1,0,0:0:0:0:
360,24,37796,1,0,0:0:0:0:
324,20,37877,1,0,0:0:0:0:
288,28,37958,1,8,0:0:0:0:
164,128,38120,1,0,1:0:0:0:
168,144,38201,1,0,1:0:0:0:
172,160,38282,5,0,1:0:0:0:
129,172,38363,1,0,0:0:0:0:
87,159,38444,1,0,1:0:0:0:
58,125,38525,1,0,0:0:0:0:
54,81,38606,1,8,1:2:0:0:
75,41,38687,1,0,0:0:0:0:
114,20,38768,1,0,1:0:0:0:
158,24,38849,1,0,1:0:0:0:
192,52,38930,5,4,1:0:0:0:
228,208,39093,1,0,1:0:0:0:
296,108,39255,1,8,0:0:0:0:
236,304,39417,1,0,0:0:0:0:
148,244,39579,5,0,0:0:0:0:
336,288,39742,1,0,1:0:0:0:
128,352,39904,1,8,0:0:0:0:
312,200,40066,1,0,0:0:0:0:
144,124,40228,5,0,1:0:0:0:
236,304,40390,1,0,1:0:0:0:
48,284,40552,1,8,0:0:0:0:
228,208,40715,1,0,0:0:0:0:
228,208,40796,1,0,0:0:0:0:
228,208,40877,1,0,0:0:0:0:
68,136,41039,1,0,1:0:0:0:
236,40,41201,6,0,L|224:116,1,45,8|0,0:0|0:0,0:0:0:0:
324,64,41363,2,0,L|312:140,1,45
416,88,41525,5,4,1:0:0:0:
416,88,41688,1,0,1:0:0:0:
324,216,41850,1,8,0:0:0:0:
136,180,42012,1,0,1:0:0:0:
412,172,42174,5,0,1:0:0:0:
224,328,42336,1,0,1:0:0:0:
156,88,42498,1,8,1:2:0:0:
320,312,42661,1,0,1:0:0:0:
60,352,42823,5,4,0:0:0:0:
56,324,42904,1,0,0:0:0:0:
52,296,42985,1,0,0:0:0:0:
48,268,43066,1,0,0:0:0:0:
44,240,43147,5,0,0:0:0:0:
108,248,43228,1,0,0:0:0:0:
172,256,43309,1,0,0:0:0:0:
236,264,43390,1,0,0:0:0:0:
300,272,43471,5,4,0:0:0:0:
280,192,43552,1,0,0:0:0:0:
300,112,43634,1,0,0:0:0:0:
372,76,43715,1,0,0:0:0:0:
452,76,43796,5,0,0:0:0:0:
420,160,43877,1,0,0:0:0:0:
336,196,43958,1,0,0:0:0:0:
248,188,44039,1,0,0:0:0:0:
176,136,44120,5,2,1:3:0:0:
176,36,45093,5,2,0:0:0:0:
256,64,45255,1,2,0:0:0:0:
336,36,45417,5,2,0:0:0:0:
176,136,45742,1,2,0:0:0:0:
336,136,46066,1,2,0:0:0:0:
256,232,46390,1,2,0:0:0:0:
336,348,47688,5,2,0:0:0:0:
256,320,47850,1,2,0:0:0:0:
176,348,48012,5,2,0:0:0:0:
256,220,48174,1,0,0:0:0:0:
336,348,48336,5,2,0:0:0:0:
256,208,48498,1,0,0:0:0:0:
176,348,48661,5,2,0:0:0:0:
256,196,48823,1,0,0:0:0:0:
336,348,48985,5,2,0:0:0:0:
128,208,50282,5,2,0:0:0:0:
384,208,50444,1,2,0:0:0:0:
256,96,50606,5,2,0:0:0:0:
256,360,50931,1,2,0:0:0:0:
256,272,51255,1,2,0:0:0:0:
256,184,51579,1,2,0:0:0:0:
164,88,52715,5,2,0:0:0:0:
256,184,52877,1,2,0:0:0:0:
348,88,53039,1,2,0:0:0:0:
177,35,53201,6,0,L|164:88,1,53.9999983520508,2|0,0:0|0:0,0:0:0:0:
348,88,53525,2,0,L|334:35,1,53.9999983520508,2|0,0:0|0:0,0:0:0:0:
164,180,53850,2,0,L|177:232,1,53.9999983520508,2|0,0:0|0:0,0:0:0:0:
334,232,54174,2,0,L|348:180,1,53.9999983520508,2|0,0:0|0:0,0:0:0:0:
256,92,54498,6,0,P|216:68|48:128,1,215.999993408203,2|0,0:3|0:0,0:0:0:0:
36,184,55309,1,0,0:0:0:0:
52,264,55471,2,0,L|64:332,1,53.9999983520508,2|0,0:0|0:0,0:0:0:0:
132,236,55796,6,0,L|141:182,1,53.9999983520508,2|0,0:0|0:0,0:0:0:0:
284,324,56120,2,0,L|224:324,1,53.9999983520508,2|0,0:0|0:0,0:0:0:0:
370,182,56444,2,0,L|380:236,1,53.9999983520508,2|0,0:0|0:0,0:0:0:0:
228,112,56769,2,0,L|282:112,1,53.9999983520508,2|0,0:0|0:0,0:0:0:0:
452,184,57093,6,0,P|428:240|296:220,1,215.999993408203
300,140,57904,1,0,0:0:0:0:
356,80,58066,2,0,L|424:92,1,53.9999983520508,2|0,0:0|0:0,0:0:0:0:
300,140,58390,6,0,L|246:130,1,53.9999983520508,2|0,0:0|0:0,0:0:0:0:
212,244,58715,2,0,L|265:253,1,53.9999983520508,2|0,0:0|0:0,0:0:0:0:
168,84,59039,2,0,P|156:120|152:156,1,53.9999983520508,2|0,0:0|0:0,0:0:0:0:
344,300,59363,2,0,P|356:264|360:228,1,53.9999983520508,2|0,0:0|0:0,0:0:0:0:
112,292,59688,5,0,0:0:0:0:
236,336,60012,1,0,0:0:0:0:
200,156,60336,1,0,0:0:0:0:
324,200,60660,1,0,0:0:0:0:
404,224,60985,5,0,0:0:0:0:
280,268,61309,1,0,0:0:0:0:
316,88,61633,1,0,0:0:0:0:
192,132,61957,1,0,0:0:0:0:
324,200,62282,5,0,0:0:0:0:
340,120,62444,1,0,0:0:0:0:
368,44,62606,5,0,0:0:0:0:
192,132,62769,1,0,0:0:0:0:
268,104,62931,5,0,0:0:0:0:
112,148,63093,1,0,0:0:0:0:
216,24,63255,6,0,L|208:76,1,26.9999991760254
248,220,63417,2,0,L|252:193,1,26.9999991760254
380,124,63579,5,0,0:0:0:0:
384,152,63661,1,0,0:0:0:0:
388,180,63742,1,0,0:0:0:0:
392,208,63823,1,0,0:0:0:0:
396,236,63904,1,0,0:0:0:0:
400,264,63985,1,0,0:0:0:0:
404,292,64066,1,0,0:0:0:0:
408,320,64147,1,0,0:0:0:0:
412,348,64228,6,0,L|408:368,15,13.4999995880127,2|2|2|2|2|2|2|2|2|2|2|2|2|2|2|2,0:0|0:0|0:0|0:0|0:0|0:0|0:0|0:0|0:0|0:0|0:0|0:0|0:0|0:0|0:0|0:0,0:0:0:0:
372,372,64877,6,0,L|192:344,1,180,4|0,1:2|0:0,0:0:0:0:
56,316,65363,1,0,1:0:0:0:
216,56,65688,6,0,L|220:84,11,22.5,2|2|2|2|2|2|2|2|2|2|2|2,0:0|0:0|0:0|0:0|0:0|0:0|0:0|0:0|0:0|0:0|0:0|0:0,0:0:0:0:
228,96,66174,6,0,P|272:112|368:24,1,180,4|0,1:2|0:0,0:0:0:0:
464,264,66661,1,0,1:0:0:0:
192,296,66985,6,0,L|204:268,11,22.5,2|2|2|2|2|2|2|2|2|2|2|2,0:0|0:0|0:0|0:0|0:0|0:0|0:0|0:0|0:0|0:0|0:0|0:0,0:0:0:0:
204,312,67471,6,0,P|192:252|136:144,1,180,4|0,1:2|0:0,0:0:0:0:
320,356,67958,1,4,1:2:0:0:
384,28,68282,6,0,L|380:52,11,22.5,2|2|2|2|2|2|2|2|2|2|2|2,0:0|0:0|0:0|0:0|0:0|0:0|0:0|0:0|0:0|0:0|0:0|0:0,0:0:0:0:
392,68,68769,6,0,L|400:116,1,45,4|0,1:2|0:0,0:0:0:0:
312,100,68931,2,0,L|320:148,1,45
228,136,69093,2,0,L|236:184,1,45
148,168,69255,2,0,L|156:216,1,45
320,356,69418,6,0,L|328:308,1,45,4|0,1:2|0:0,0:0:0:0:
240,324,69580,2,0,L|248:276,1,45
156,288,69742,2,0,L|164:240,1,45
76,256,69904,2,0,L|84:208,1,45
384,148,70066,6,0,P|432:200|408:308,1,180,4|0,1:2|0:0,0:0:0:0:
164,80,70552,1,0,1:0:0:0:
96,360,70877,6,0,L|120:356,11,22.5,2|2|2|2|2|2|2|2|2|2|2|2,0:0|0:0|0:0|0:0|0:0|0:0|0:0|0:0|0:0|0:0|0:0|0:0,0:0:0:0:
144,352,71363,6,0,B|0:332|0:332|40:296,1,180,4|0,1:2|0:0,0:0:0:0:
332,284,71850,1,0,1:0:0:0:
64,116,72174,6,2,L|88:120,11,22.5
112,112,72661,6,0,P|96:160|68:292,1,180,4|0,1:2|0:0,0:0:0:0:
252,88,73147,1,0,1:0:0:0:
344,312,73471,6,0,L|352:280,11,22.5,2|2|2|2|2|2|2|2|2|2|2|2,0:0|0:0|0:0|0:0|0:0|0:0|0:0|0:0|0:0|0:0|0:0|0:0,0:0:0:0:
380,284,73958,6,0,L|436:296,1,45,4|0,1:2|0:0,0:0:0:0:
412,208,74120,2,0,L|468:220,1,45
185,164,74282,6,0,L|176:120,1,45
261,132,74444,2,0,L|252:88,1,45
212,280,74606,5,8,0:0:0:0:
176,288,74688,1,8,0:0:0:0:
140,296,74769,1,8,0:0:0:0:
104,304,74850,1,8,0:0:0:0:
68,304,74931,5,8,0:0:0:0:
36,288,75012,1,8,0:0:0:0:
20,256,75093,1,8,0:0:0:0:
24,220,75174,1,8,0:0:0:0:
44,188,75255,6,0,P|80:168|132:168,1,90,6|0,1:0|0:0,0:0:0:0:
324,188,75579,2,0,P|279:187|240:166,1,90,0|0,1:0|0:0,0:0:0:0:
289,15,75904,2,0,L|305:143,1,90,0|0,1:0|0:0,0:0:0:0:
223,369,76228,2,0,L|207:241,1,90,0|0,1:0|0:0,0:0:0:0:
176,112,76552,5,2,1:0:0:0:
336,272,76715,1,0,0:0:0:0:
256,78,76877,1,0,1:0:0:0:
256,305,77040,1,0,0:0:0:0:
336,111,77201,1,2,1:0:0:0:
176,272,77364,1,0,0:0:0:0:
369,191,77525,1,0,1:0:0:0:
142,192,77688,1,8,0:0:0:0:
256,305,77850,6,0,L|140:324,1,90,2|0,1:0|0:0,0:0:0:0:
256,78,78174,2,0,L|372:60,1,90,8|0,1:2|0:0,0:0:0:0:
142,192,78498,2,0,L|124:76,1,90,2|0,1:0|0:0,0:0:0:0:
369,192,78822,2,0,L|388:308,1,90,0|8,1:0|0:0,0:0:0:0:
168,340,79147,6,0,P|132:300|8:304,1,180,2|8,1:0|1:2,0:0:0:0:
167,63,79634,1,8,0:0:0:0:
167,63,79715,1,8,0:0:0:0:
167,63,79796,2,0,P|171:111|127:211,2,135,8|8|8,0:0|0:0|0:0,0:0:0:0:
60,156,80444,5,4,1:0:0:0:
82,177,80525,1,0,0:0:0:0:
109,193,80606,1,0,0:0:0:0:
139,203,80687,1,0,0:0:0:0:
170,205,80768,1,8,0:0:0:0:
201,200,80849,1,0,0:0:0:0:
230,188,80930,1,0,0:0:0:0:
256,170,81011,1,0,0:0:0:0:
276,146,81093,6,0,L|272:88,1,45,0|0,1:0|0:0,0:0:0:0:
352,68,81255,2,0,L|355:112,1,45,0|0,1:0|0:0,0:0:0:0:
432,128,81417,2,0,L|412:168,1,45,8|0,0:0|0:0,0:0:0:0:
476,220,81579,2,0,L|439:245,1,45,0|0,1:0|0:0,0:0:0:0:
408,328,81742,5,4,1:0:0:0:
372,308,81823,1,0,0:0:0:0:
332,296,81904,1,0,1:0:0:0:
292,292,81985,1,0,0:0:0:0:
252,304,82066,1,8,0:0:0:0:
220,332,82147,1,0,0:0:0:0:
184,348,82228,1,0,1:0:0:0:
144,352,82309,1,0,0:0:0:0:
104,348,82390,6,0,L|92:292,1,45,0|0,1:0|0:0,0:0:0:0:
156,228,82552,5,0,0:0:0:0:
156,228,82634,2,0,L|144:172,1,45,0|8,1:0|0:0,0:0:0:0:
216,124,82796,5,0,0:0:0:0:
216,124,82877,2,0,L|204:68,1,45,0|0,1:0|0:0,0:0:0:0:
308,24,83039,5,4,1:0:0:0:
352,12,83120,1,0,0:0:0:0:
396,24,83201,1,0,0:0:0:0:
424,56,83282,1,0,0:0:0:0:
436,100,83363,1,8,1:2:0:0:
416,140,83444,1,0,0:0:0:0:
400,180,83525,1,0,0:0:0:0:
392,224,83606,1,0,0:0:0:0:
399,267,83688,5,0,0:0:0:0:
441,282,83769,1,0,0:0:0:0:
484,270,83850,1,0,0:0:0:0:
511,236,83931,1,0,0:0:0:0:
512,192,84012,1,8,1:2:0:0:
490,154,84093,1,0,0:0:0:0:
449,138,84174,1,0,1:0:0:0:
406,148,84255,1,0,0:0:0:0:
377,182,84336,5,4,1:0:0:0:
344,224,84417,1,0,0:0:0:0:
292,240,84498,1,0,0:0:0:0:
240,228,84579,1,0,0:0:0:0:
200,192,84661,1,8,0:2:0:0:
192,140,84742,1,0,0:0:0:0:
160,96,84823,1,0,1:0:0:0:
108,76,84904,1,0,1:0:0:0:
56,84,84985,5,4,1:0:0:0:
24,147,85066,1,0,0:0:0:0:
30,218,85147,1,0,1:0:0:0:
71,276,85228,1,0,1:0:0:0:
137,305,85309,1,0,0:0:0:0:
207,296,85390,1,0,0:0:0:0:
263,252,85471,1,0,1:0:0:0:
289,186,85552,1,0,0:0:0:0:
268,116,85634,6,0,L|264:148,31,22.5
276,152,86931,6,0,L|288:292,2,135,4|2|0,1:0|0:1|0:0,0:0:0:0:
364,220,88228,5,4,1:0:0:0:
232,268,88390,1,0,1:0:0:0:
116,188,88552,1,8,0:0:0:0:
148,52,88715,1,0,0:0:0:0:
148,52,88796,1,0,0:0:0:0:
148,52,88877,2,0,P|143:106|136:168,1,107.999996704102,0|0,1:0|1:0,0:0:0:0:
330,223,89201,2,0,P|324:169|320:116,1,107.999996704102,8|0,0:0|0:0,0:0:0:0:
128,276,89525,5,0,1:0:0:0:
296,320,89688,1,0,1:0:0:0:
204,160,89850,1,8,0:0:0:0:
148,352,90012,1,0,0:0:0:0:
148,352,90093,1,0,1:0:0:0:
148,352,90174,1,0,1:0:0:0:
52,244,90336,1,0,1:0:0:0:
256,104,90498,2,0,B|280:152|280:152|264:216,1,107.999996704102,8|0,0:0|0:0,0:0:0:0:
107,100,90823,5,0,1:0:0:0:
372,64,90985,1,2,0:0:0:0:
115,87,91147,1,10,0:0:0:0:
382,75,91309,1,2,0:0:0:0:
72,240,91634,5,2,1:2:0:0:
344,280,91796,1,10,0:0:0:0:
84,229,91958,1,2,0:0:0:0:
352,296,92120,6,0,P|384:256|364:136,1,161.999995056153,0|0,1:0|1:0,0:0:0:0:
352,124,92444,2,0,L|236:136,1,107.999996704102,8|0,0:0|1:0,0:0:0:0:
196,160,92688,1,0,1:0:0:0:
144,140,92769,1,0,1:0:0:0:
128,88,92850,1,0,1:0:0:0:
152,40,92931,2,0,L|212:52,1,53.9999983520508,0|0,1:0|0:0,0:0:0:0:
260,212,93093,2,0,L|240:336,1,107.999996704102,8|0,0:0|1:0,0:0:0:0:
176,356,93336,1,0,1:0:0:0:
103,372,93417,6,0,P|50:373|8:341,1,107.999996704102,0|0,1:0|1:0,0:0:0:0:
80,164,93742,1,8,0:0:0:0:
242,318,93904,1,0,0:0:0:0:
242,318,93985,1,0,0:0:0:0:
242,318,94066,1,0,1:0:0:0:
80,288,94228,1,0,1:0:0:0:
224,120,94390,2,0,L|344:140,1,107.999996704102,8|0,0:0|0:0,0:0:0:0:
448,264,94715,6,0,L|328:284,2,107.999996704102,0|0|8,1:0|1:0|0:0,0:0:0:0:
341,30,95201,1,0,0:0:0:0:
341,30,95282,1,0,1:0:0:0:
341,30,95363,2,0,L|329:146,1,107.999996704102,0|0,1:0|1:0,0:0:0:0:
242,318,95688,1,8,0:0:0:0:
136,120,95850,1,0,0:0:0:0:
136,120,95931,1,0,0:0:0:0:
136,120,96012,5,0,1:0:0:0:
216,224,96174,1,0,0:0:0:0:
56,96,96336,1,8,0:0:0:0:
248,48,96498,1,0,0:0:0:0:
248,48,96579,1,0,0:0:0:0:
248,48,96661,1,0,1:0:0:0:
128,216,96823,1,0,1:0:0:0:
328,272,96985,5,8,0:0:0:0:
372,268,97066,1,0,0:0:0:0:
416,264,97147,1,0,1:0:0:0:
460,260,97228,1,0,1:0:0:0:
504,256,97309,5,4,1:0:0:0:
352,120,97471,5,0,1:0:0:0:
308,124,97552,1,0,1:0:0:0:
264,128,97633,1,0,1:0:0:0:
220,132,97714,1,0,1:0:0:0:
176,136,97795,1,0,1:0:0:0:
132,140,97877,1,0,1:0:0:0:
88,144,97958,5,4,1:0:0:0:
192,280,98120,1,0,1:0:0:0:
192,280,98201,1,0,1:0:0:0:
192,280,98282,1,0,1:0:0:0:
248,48,98444,1,4,1:0:0:0:
248,48,98931,6,0,P|292:88|276:204,1,161.999995056153,6|0,1:0|0:0,0:0:0:0:
104,276,99255,2,0,L|24:268,1,80.9999975280763,0|0,0:0|1:0,0:0:0:0:
139,123,99417,2,0,L|219:131,1,80.9999975280763,0|0,1:0|0:0,0:0:0:0:
44,180,99579,2,0,L|52:100,1,80.9999975280763,8|0,1:2|0:0,0:0:0:0:
197,215,99741,2,0,L|189:295,1,80.9999975280763
280,360,99904,5,4,1:0:0:0:
324,340,99985,1,0,0:0:0:0:
372,336,100066,1,0,1:0:0:0:
420,344,100147,1,0,0:0:0:0:
464,364,100228,1,8,0:0:0:0:
456,316,100309,1,0,0:0:0:0:
456,268,100390,1,0,1:0:0:0:
468,220,100471,1,0,1:0:0:0:
496,180,100552,5,0,1:0:0:0:
492,132,100634,1,0,1:0:0:0:
468,88,100715,1,0,1:0:0:0:
424,68,100796,1,0,0:0:0:0:
376,76,100877,6,0,L|368:176,1,80.9999975280763,8|0,1:2|0:0,0:0:0:0:
280,192,101039,2,0,L|288:92,1,80.9999975280763,0|0,1:0|1:0,0:0:0:0:
212,32,101201,5,4,1:0:0:0:
116,104,101363,1,0,0:0:0:0:
84,112,101444,1,0,0:0:0:0:
52,120,101525,1,2,0:0:0:0:
224,136,101688,5,4,0:0:0:0:
184,300,101850,1,0,0:0:0:0:
233,286,101931,1,0,0:0:0:0:
283,274,102012,1,2,0:0:0:0:
80,60,102174,5,4,0:0:0:0:
21,116,102255,1,0,0:0:0:0:
2,193,102336,1,0,0:0:0:0:
11,271,102417,1,0,0:0:0:0:
56,336,102498,6,0,L|112:344,3,53.9999983520508,2|2|2|2,0:0|0:0|0:0|0:0,0:0:0:0:
148,320,102823,1,2,0:0:0:0:
184,300,102904,1,2,0:0:0:0:
228,304,102985,1,2,0:0:0:0:
268,324,103066,1,2,0:0:0:0:
308,340,103147,1,2,0:0:0:0:
352,340,103228,1,2,0:0:0:0:
380,308,103309,1,2,0:0:0:0:
384,264,103390,1,2,0:0:0:0:
364,224,103471,1,2,0:0:0:0:
324,208,103552,1,2,0:0:0:0:
284,224,103634,6,0,P|236:188|384:80,1,323.999990112305,4|8,1:0|0:0,0:0:0:0:
468,202,104282,1,0,0:0:0:0:
468,202,104363,1,0,0:0:0:0:
468,202,104444,2,0,P|404:222|324:218,1,107.999996704102,0|0,1:0|1:0,0:0:0:0:
252,120,104769,1,8,0:0:0:0:
104,68,104931,6,0,B|120:116|104:172|104:172|124:220|124:220|92:300|136:384,1,323.999990112305,4|8,1:0|0:0,0:0:0:0:
240,292,105579,1,0,0:0:0:0:
240,292,105661,1,0,0:0:0:0:
240,292,105742,2,0,L|312:280,1,53.9999983520508,0|0,1:0|0:0,0:0:0:0:
392,264,105904,1,0,1:0:0:0:
304,176,106066,1,8,0:0:0:0:
440,100,106228,6,0,B|376:104|312:56|312:56|344:136|324:248,1,323.999990112305,4|8,1:0|0:0,0:0:0:0:
164,288,106877,1,0,1:0:0:0:
48,184,107039,1,0,0:0:0:0:
25,135,107120,1,0,0:0:0:0:
28,82,107201,1,0,1:0:0:0:
55,36,107282,1,0,0:0:0:0:
101,9,107363,1,8,1:2:0:0:
155,7,107444,1,0,0:0:0:0:
204,28,107525,6,0,B|244:88|200:185|200:185|148:133,1,215.999993408203,4|0,1:0|0:0,0:0:0:0:
60,288,108012,6,0,L|72:380,1,53.9999983520508,8|0,0:0|0:0,0:0:0:0:
152,356,108174,2,0,L|145:302,1,53.9999983520508
200,224,108336,1,0,1:0:0:0:
268,188,108417,1,0,0:0:0:0:
344,196,108498,1,0,1:0:0:0:
404,244,108579,1,0,0:0:0:0:
436,312,108661,2,0,L|416:372,1,53.9999983520508,8|0,0:0|0:0,0:0:0:0:
300,260,108823,6,0,P|280:208|376:68,1,215.999993408203,4|0,1:0|0:0,0:0:0:0:
484,116,109309,1,8,0:0:0:0:
420,152,109390,1,0,0:0:0:0:
348,180,109471,1,0,0:0:0:0:
272,184,109552,1,0,0:0:0:0:
200,160,109634,5,0,1:0:0:0:
172,88,109715,1,0,0:0:0:0:
212,24,109796,1,0,1:0:0:0:
288,24,109877,1,0,0:0:0:0:
336,80,109958,2,0,L|320:172,1,53.9999983520508,8|0,0:0|0:0,0:0:0:0:
212,240,110120,6,0,L|224:380,1,107.999996704102,4|0,1:0|0:0,0:0:0:0:
388,372,110444,2,0,L|392:336,10,26.9999991760254,2|2|2|2|2|2|2|2|2|2|2,0:0|0:0|0:0|0:0|0:0|0:0|0:0|0:0|0:0|0:0|0:0,0:0:0:0:
412,352,110931,6,0,L|480:360,1,53.9999983520508,4|0,1:0|0:0,0:0:0:0:
265,233,111093,2,0,L|197:241,1,53.9999983520508,0|0,1:0|0:0,0:0:0:0:
420,152,111255,2,0,L|488:160,1,53.9999983520508,0|0,1:0|0:0,0:0:0:0:
272,44,111417,5,4,1:0:0:0:
272,44,111742,5,0,1:0:0:0:
96,140,111904,1,0,1:0:0:0:
432,252,112066,1,0,1:0:0:0:
112,344,112228,5,4,1:0:0:0:
344,132,112471,1,4,1:0:0:0:
48,28,112715,1,4,1:0:0:0:
256,192,112796,12,0,114012,0:0:0:0:
256,48,114174,5,4,1:3:0:0:
304,156,114336,1,0,0:0:0:0:
208,228,114498,1,0,0:0:0:0:
256,336,114660,1,2,0:0:0:0:
492,172,115471,5,2,0:0:0:0:
388,120,115634,1,0,0:0:0:0:
280,160,115796,1,0,0:0:0:0:
384,216,115958,1,2,0:0:0:0:
40,232,116769,5,2,0:0:0:0:
64,116,116931,1,0,0:0:0:0:
176,144,117093,1,0,0:0:0:0:
152,260,117255,1,2,0:0:0:0:
416,328,118066,6,0,L|212:356,1,180,2|2,0:0|0:0,0:0:0:0:
260,56,119547,5,2,0:0:0:0:
348,40,119736,1,0,0:0:0:0:
428,84,119926,1,0,0:0:0:0:
460,168,120116,1,2,0:0:0:0:
96,356,120917,5,2,0:0:0:0:
104,268,121123,1,0,0:0:0:0:
140,184,121330,1,0,0:0:0:0:
200,116,121537,1,2,0:0:0:0:
472,304,122439,5,2,0:0:0:0:
384,324,122684,1,0,0:0:0:0:
408,236,122930,1,0,0:0:0:0:
384,324,123176,2,0,L|228:308,2,157.5,2|2|2,0:0|0:0|0:0,0:0:0:0:
256,192,124652,12,0,126865,0:0:0:0:
