osu file format v14

[General]
AudioFilename: -+.mp3
AudioLeadIn: 0
PreviewTime:86931
Countdown: 0
SampleSet: Soft
StackLeniency: 0.7
Mode: 3
LetterboxInBreaks: 0
WidescreenStoryboard: 1
EpilepsyWarning: 1
SpecialStyle: 0

[Editor]
Bookmarks: 57739
DistanceSpacing: 0.5
BeatDivisor: 4
GridSize: 4
TimelineZoom: 1.5

[Metadata]
Title:-+
TitleUnicode:-+
Artist:daisan
ArtistUnicode:daisan
Creator:Starfy
Version:pw's 7K Hyper
Source:BOF2013
Tags:minus plus konzertsaal - THE BMS OF FIGHTERS 2013 Dirt Art Color Teller xellox piano StarForYou Kyle Y IamKwaN happy623 -N_a_n_a_k_o- Nanako Kencho Chaoslitz [ Drop ] choikapo Regou Rizia Kawaiwkyik Nakano Itsuki StarrStyx Prophecy aabc271 Nardoxyribonucleic Skylish ll-oscar autofanboy alienflybot hokin1995 pwhk hong kong hk muse dash electronic instrumental
BeatmapID:892052
BeatmapSetID:389617

[Difficulty]
HPDrainRate:8
CircleSize:7
OverallDifficulty:8
ApproachRate:9.7
SliderMultiplier:1.9
SliderTickRate:1

[Events]
//Background and Video events
0,0,"BG.png",0,0
//Break Periods
//Storyboard Layer 0 (Background)
//Storyboard Layer 1 (Fail)
//Storyboard Layer 2 (Pass)
//Storyboard Layer 3 (Foreground)
//Storyboard Layer 4 (Overlay)
//Storyboard Sound Samples

[TimingPoints]
2607,324.324324324324,4,2,1,20,1,0
2607,-200,4,2,1,20,0,0
11688,-181.818181818182,4,2,1,20,0,0
12012,-166.666666666667,4,2,1,20,0,0
12336,-153.846153846154,4,2,1,20,0,0
12661,-142.857142857143,4,2,1,20,0,0
12985,-133.333333333333,4,2,1,20,0,0
18174,-120.481927710843,4,2,1,20,0,0
20769,-109.89010989011,4,2,1,20,0,0
22715,-100,4,2,1,20,0,0
23363,-100,4,2,1,20,0,1
33742,-100,4,2,1,20,0,0
44120,-111.111111111111,4,2,1,20,0,0
45417,-125,4,2,1,20,0,0
46715,-142.857142857143,4,2,1,20,0,0
48012,-166.666666666667,4,2,1,20,0,0
49309,-200,4,2,1,20,0,0
54498,-175.438596491228,4,2,1,20,0,0
57093,-156.25,4,2,1,20,0,0
59688,-140.845070422535,4,2,1,20,0,0
60985,-128.205128205128,4,2,1,20,0,0
62282,-117.647058823529,4,2,1,20,0,0
62931,-108.695652173913,4,2,1,20,0,0
63579,-100,4,2,1,20,0,0
98931,-100,4,2,1,20,0,1
114174,-133.333333333333,4,2,1,20,0,0
118066,370.37037037037,4,2,1,20,1,0
119547,379.746835443038,4,2,1,20,1,0
120917,413.793103448276,4,2,1,20,1,0
122439,491.803278688525,4,2,1,20,1,0

[Colours]
Combo1 : 41,214,166
Combo2 : 128,0,255
Combo3 : 128,255,255
Combo4 : 3,90,252

[HitObjects]
109,192,2607,5,0,0:0:0:0:
475,192,2607,1,0,0:0:0:0:
182,192,3255,1,0,0:0:0:0:
329,192,3904,1,0,0:0:0:0:
475,192,4552,1,0,0:0:0:0:
402,192,5201,1,0,0:0:0:0:
182,192,5201,1,0,0:0:0:0:
36,192,6498,1,0,0:0:0:0:
109,192,7796,1,0,0:0:0:0:
329,192,7796,1,0,0:0:0:0:
182,192,8444,1,0,0:0:0:0:
329,192,9093,1,0,0:0:0:0:
475,192,9742,1,0,0:0:0:0:
256,192,10390,1,0,0:0:0:0:
109,192,10390,1,0,0:0:0:0:
402,192,11688,1,0,0:0:0:0:
36,192,12985,1,4,0:0:0:0:
475,192,12985,1,0,0:0:0:0:
256,192,12985,1,0,0:0:0:0:
182,192,13634,1,0,0:0:0:0:
329,192,14282,1,0,0:0:0:0:
475,192,14931,1,0,0:0:0:0:
402,192,15579,1,0,0:0:0:0:
109,192,16877,1,0,0:0:0:0:
36,192,18174,1,0,0:0:0:0:
182,192,18823,1,0,0:0:0:0:
329,192,19471,1,0,0:0:0:0:
475,192,20120,1,0,0:0:0:0:
109,192,20769,1,0,0:0:0:0:
402,192,22066,1,0,0:0:0:0:
36,192,22715,1,0,0:0:0:0:
182,192,22796,1,0,0:0:0:0:
329,192,22877,1,0,0:0:0:0:
475,192,22958,1,0,0:0:0:0:
36,192,23039,1,0,0:0:0:0:
109,192,23079,1,0,0:0:0:0:
182,192,23120,1,0,0:0:0:0:
256,192,23161,1,0,0:0:0:0:
475,192,23201,1,0,0:0:0:0:
402,192,23242,1,0,0:0:0:0:
329,192,23282,1,0,0:0:0:0:
256,192,23323,1,0,0:0:0:0:
36,192,23363,1,0,0:0:0:0:
475,192,23363,1,0,0:0:0:0:
36,192,23688,1,0,0:0:0:0:
182,192,23769,1,0,0:0:0:0:
256,192,23850,1,0,0:0:0:0:
402,192,23931,1,0,0:0:0:0:
329,192,24012,1,0,0:0:0:0:
475,192,24093,1,0,0:0:0:0:
329,192,24174,1,0,0:0:0:0:
182,192,24255,1,0,0:0:0:0:
402,192,24336,1,0,0:0:0:0:
256,192,24417,1,0,0:0:0:0:
109,192,24498,1,0,0:0:0:0:
36,192,24579,1,0,0:0:0:0:
329,192,24661,1,0,0:0:0:0:
36,192,24823,1,0,0:0:0:0:
182,192,24904,1,0,0:0:0:0:
329,192,24985,1,0,0:0:0:0:
256,192,25066,1,0,0:0:0:0:
109,192,25147,1,0,0:0:0:0:
256,192,25228,1,0,0:0:0:0:
475,192,25309,1,0,0:0:0:0:
402,192,25390,1,0,0:0:0:0:
256,192,25471,1,0,0:0:0:0:
182,192,25552,1,0,0:0:0:0:
402,192,25634,1,0,0:0:0:0:
329,192,25715,1,0,0:0:0:0:
182,192,25796,1,0,0:0:0:0:
109,192,25877,1,0,0:0:0:0:
256,192,25958,1,0,0:0:0:0:
36,192,26120,1,0,0:0:0:0:
109,192,26174,1,0,0:0:0:0:
256,192,26228,1,0,0:0:0:0:
329,192,26282,1,0,0:0:0:0:
109,192,26444,1,0,0:0:0:0:
182,192,26498,1,0,0:0:0:0:
329,192,26552,1,0,0:0:0:0:
402,192,26606,1,0,0:0:0:0:
182,192,26769,1,0,0:0:0:0:
256,192,26823,1,0,0:0:0:0:
402,192,26877,1,0,0:0:0:0:
475,192,26931,1,0,0:0:0:0:
109,192,27012,1,0,0:0:0:0:
256,192,27093,1,0,0:0:0:0:
402,192,27174,1,0,0:0:0:0:
475,192,27255,1,0,0:0:0:0:
329,192,27336,1,0,0:0:0:0:
182,192,27417,1,0,0:0:0:0:
109,192,27498,1,0,0:0:0:0:
36,192,27579,1,0,0:0:0:0:
182,192,27661,1,0,0:0:0:0:
475,192,27742,1,0,0:0:0:0:
256,192,27823,1,0,0:0:0:0:
402,192,27904,1,0,0:0:0:0:
329,192,27985,1,0,0:0:0:0:
182,192,28066,1,0,0:0:0:0:
109,192,28147,1,0,0:0:0:0:
329,192,28228,1,0,0:0:0:0:
182,192,28282,1,0,0:0:0:0:
36,192,28336,1,0,0:0:0:0:
402,192,28390,1,0,0:0:0:0:
256,192,28444,1,0,0:0:0:0:
109,192,28498,1,0,0:0:0:0:
36,192,28552,1,0,0:0:0:0:
475,192,28552,1,0,0:0:0:0:
182,192,28634,1,0,0:0:0:0:
402,192,28715,1,0,0:0:0:0:
182,192,28796,1,0,0:0:0:0:
475,192,28877,1,0,0:0:0:0:
109,192,28958,1,0,0:0:0:0:
329,192,29039,1,0,0:0:0:0:
109,192,29120,1,0,0:0:0:0:
402,192,29201,1,0,0:0:0:0:
182,192,29282,1,0,0:0:0:0:
475,192,29363,1,0,0:0:0:0:
182,192,29444,1,0,0:0:0:0:
329,192,29525,1,0,0:0:0:0:
36,192,29579,1,0,0:0:0:0:
109,192,29634,1,0,0:0:0:0:
182,192,29688,1,0,0:0:0:0:
256,192,29742,1,0,0:0:0:0:
329,192,29796,1,0,0:0:0:0:
402,192,29850,1,0,0:0:0:0:
256,192,29931,1,0,0:0:0:0:
475,192,30012,1,0,0:0:0:0:
182,192,30093,1,0,0:0:0:0:
402,192,30174,1,0,0:0:0:0:
109,192,30255,1,0,0:0:0:0:
329,192,30336,1,0,0:0:0:0:
36,192,30417,1,0,0:0:0:0:
402,192,30498,1,0,0:0:0:0:
109,192,30579,1,0,0:0:0:0:
475,192,30661,1,0,0:0:0:0:
182,192,30742,1,0,0:0:0:0:
402,192,30823,1,0,0:0:0:0:
256,192,30904,1,0,0:0:0:0:
329,192,30985,1,0,0:0:0:0:
475,192,31066,1,0,0:0:0:0:
402,192,31147,1,0,0:0:0:0:
329,192,31228,1,0,0:0:0:0:
256,192,31309,1,0,0:0:0:0:
182,192,31390,1,0,0:0:0:0:
109,192,31471,1,0,0:0:0:0:
36,192,31552,1,0,0:0:0:0:
402,192,31634,1,0,0:0:0:0:
329,192,31715,1,0,0:0:0:0:
256,192,31796,1,0,0:0:0:0:
182,192,31877,1,0,0:0:0:0:
256,192,31958,1,0,0:0:0:0:
109,192,32039,1,0,0:0:0:0:
402,192,32120,1,0,0:0:0:0:
256,192,32201,1,0,0:0:0:0:
182,192,32282,1,0,0:0:0:0:
36,192,32363,1,0,0:0:0:0:
329,192,32444,1,0,0:0:0:0:
182,192,32525,1,0,0:0:0:0:
402,192,32606,1,0,0:0:0:0:
109,192,32688,1,0,0:0:0:0:
475,192,32769,1,0,0:0:0:0:
36,192,32850,1,0,0:0:0:0:
402,192,32931,1,0,0:0:0:0:
109,192,33012,1,0,0:0:0:0:
182,192,33093,1,0,0:0:0:0:
329,192,33174,1,0,0:0:0:0:
182,192,33255,1,0,0:0:0:0:
329,192,33336,1,0,0:0:0:0:
36,192,33417,1,0,0:0:0:0:
182,192,33417,1,0,0:0:0:0:
329,192,33498,1,0,0:0:0:0:
475,192,33498,1,0,0:0:0:0:
182,192,33579,1,0,0:0:0:0:
36,192,33579,1,0,0:0:0:0:
329,192,33661,1,0,0:0:0:0:
475,192,33661,1,0,0:0:0:0:
36,192,33742,5,4,0:0:0:0:
402,192,33742,1,0,0:0:0:0:
182,192,33742,1,0,0:0:0:0:
256,192,33904,1,0,0:0:0:0:
109,192,34066,1,8,0:0:0:0:
329,192,34066,1,0,0:0:0:0:
402,192,34228,1,0,0:0:0:0:
182,192,34390,1,0,0:0:0:0:
256,192,34552,1,0,0:0:0:0:
36,192,34552,1,4,0:0:0:0:
402,192,34715,1,0,0:0:0:0:
109,192,34715,1,8,0:0:0:0:
475,192,34877,1,0,0:0:0:0:
182,192,35039,1,0,0:0:0:0:
36,192,35039,1,4,0:0:0:0:
36,192,35201,1,4,0:0:0:0:
256,192,35201,1,0,0:0:0:0:
109,192,35363,1,8,0:0:0:0:
329,192,35363,1,0,0:0:0:0:
402,192,35525,1,0,0:0:0:0:
36,192,35606,1,4,0:0:0:0:
182,192,35688,1,0,0:0:0:0:
329,192,35850,1,0,0:0:0:0:
36,192,35850,1,4,0:0:0:0:
402,192,36012,1,0,0:0:0:0:
109,192,36012,1,8,0:0:0:0:
475,192,36174,1,0,0:0:0:0:
109,192,36255,1,4,0:0:0:0:
36,192,36336,1,4,0:0:0:0:
182,192,36336,1,0,0:0:0:0:
36,192,36498,1,4,0:0:0:0:
256,192,36498,1,0,0:0:0:0:
329,192,36661,1,0,0:0:0:0:
109,192,36661,1,8,0:0:0:0:
402,192,36823,1,0,0:0:0:0:
36,192,36904,1,4,0:0:0:0:
256,192,36985,1,0,0:0:0:0:
329,192,37147,1,0,0:0:0:0:
36,192,37147,1,4,0:0:0:0:
402,192,37309,1,0,0:0:0:0:
109,192,37309,1,8,0:0:0:0:
475,192,37471,1,0,0:0:0:0:
36,192,37634,1,4,0:0:0:0:
182,192,37634,1,0,0:0:0:0:
256,192,37796,1,0,0:0:0:0:
36,192,37877,1,4,0:0:0:0:
329,192,37958,1,0,0:0:0:0:
109,192,37958,1,8,0:0:0:0:
475,192,38120,1,0,0:0:0:0:
36,192,38120,1,4,0:0:0:0:
182,192,38201,1,8,0:0:0:0:
402,192,38282,1,0,0:0:0:0:
36,192,38282,1,4,0:0:0:0:
182,192,38363,1,8,0:0:0:0:
329,192,38444,1,0,0:0:0:0:
36,192,38444,1,4,0:0:0:0:
109,192,38525,1,4,0:0:0:0:
256,192,38606,1,0,0:0:0:0:
182,192,38606,1,8,0:0:0:0:
329,192,38769,1,0,0:0:0:0:
182,192,38769,1,8,0:0:0:0:
109,192,38850,1,4,0:0:0:0:
36,192,38931,1,0,0:0:0:0:
475,192,38931,1,4,0:0:0:0:
256,192,38931,1,0,0:0:0:0:
109,192,39093,1,0,0:0:0:0:
475,192,39093,1,4,0:0:0:0:
256,192,39255,1,0,0:0:0:0:
402,192,39255,1,8,0:0:0:0:
329,192,39417,1,0,0:0:0:0:
109,192,39579,1,0,0:0:0:0:
182,192,39742,1,0,0:0:0:0:
475,192,39742,1,4,0:0:0:0:
402,192,39904,1,8,0:0:0:0:
256,192,39904,1,0,0:0:0:0:
329,192,40066,1,0,0:0:0:0:
36,192,40228,1,0,0:0:0:0:
475,192,40228,1,4,0:0:0:0:
109,192,40390,1,0,0:0:0:0:
475,192,40390,1,4,0:0:0:0:
182,192,40552,1,0,0:0:0:0:
402,192,40552,1,8,0:0:0:0:
256,192,40715,1,0,0:0:0:0:
475,192,40796,1,4,0:0:0:0:
109,192,40877,1,0,0:0:0:0:
182,192,41039,1,0,0:0:0:0:
475,192,41039,1,4,0:0:0:0:
256,192,41201,1,0,0:0:0:0:
402,192,41201,1,8,0:0:0:0:
329,192,41363,1,0,0:0:0:0:
36,192,41525,1,4,0:0:0:0:
475,192,41525,1,4,0:0:0:0:
109,192,41688,1,0,0:0:0:0:
475,192,41688,1,4,0:0:0:0:
402,192,41850,1,8,0:0:0:0:
182,192,41850,1,0,0:0:0:0:
329,192,42012,1,0,0:0:0:0:
402,192,42012,1,8,0:0:0:0:
182,192,42174,1,0,0:0:0:0:
109,192,42174,1,8,0:0:0:0:
256,192,42336,1,0,0:0:0:0:
109,192,42336,1,8,0:0:0:0:
329,192,42498,1,0,0:0:0:0:
109,192,42498,1,8,0:0:0:0:
402,192,42661,1,0,0:0:0:0:
109,192,42661,1,8,0:0:0:0:
475,192,42823,1,8,0:0:0:0:
36,192,42823,1,0,0:0:0:0:
329,192,42904,1,8,0:0:0:0:
475,192,42985,1,8,0:0:0:0:
109,192,42985,1,0,0:0:0:0:
329,192,43147,1,8,0:0:0:0:
182,192,43147,1,0,0:0:0:0:
475,192,43228,1,8,0:0:0:0:
329,192,43309,1,8,0:0:0:0:
256,192,43309,1,0,0:0:0:0:
475,192,43390,1,8,0:0:0:0:
329,192,43471,1,8,0:0:0:0:
36,192,43471,1,0,0:0:0:0:
475,192,43634,1,8,0:0:0:0:
109,192,43634,1,0,0:0:0:0:
329,192,43715,1,8,0:0:0:0:
475,192,43796,1,8,0:0:0:0:
182,192,43796,1,0,0:0:0:0:
329,192,43877,1,8,0:0:0:0:
475,192,43958,1,8,0:0:0:0:
256,192,43958,1,0,0:0:0:0:
329,192,44039,1,8,0:0:0:0:
109,192,44120,1,4,0:0:0:0:
402,192,44120,1,4,0:0:0:0:
36,192,45093,1,0,0:0:0:0:
256,192,45255,1,0,0:0:0:0:
402,192,45417,1,0,0:0:0:0:
475,192,45742,1,0,0:0:0:0:
329,192,46066,1,0,0:0:0:0:
109,192,46390,1,0,0:0:0:0:
182,192,47688,1,0,0:0:0:0:
329,192,47850,1,0,0:0:0:0:
256,192,48012,1,0,0:0:0:0:
475,192,48336,1,0,0:0:0:0:
402,192,48661,1,0,0:0:0:0:
329,192,48985,1,0,0:0:0:0:
109,192,50282,1,0,0:0:0:0:
402,192,50444,1,0,0:0:0:0:
256,192,50606,1,0,0:0:0:0:
475,192,50931,1,0,0:0:0:0:
329,192,51255,1,0,0:0:0:0:
36,192,51579,1,0,0:0:0:0:
109,192,52715,1,0,0:0:0:0:
256,192,52877,1,0,0:0:0:0:
402,192,53039,1,0,0:0:0:0:
475,192,53201,1,0,0:0:0:0:
329,192,53525,1,0,0:0:0:0:
182,192,53850,1,0,0:0:0:0:
329,192,54174,1,0,0:0:0:0:
36,192,54498,1,2,0:0:0:0:
109,192,55471,1,0,0:0:0:0:
256,192,55634,1,0,0:0:0:0:
402,192,55796,1,0,0:0:0:0:
475,192,56120,1,0,0:0:0:0:
182,192,56444,1,0,0:0:0:0:
329,192,56769,1,0,0:0:0:0:
182,192,58066,1,0,0:0:0:0:
329,192,58228,1,0,0:0:0:0:
256,192,58390,1,0,0:0:0:0:
475,192,58715,1,0,0:0:0:0:
329,192,59039,1,0,0:0:0:0:
402,192,59363,1,0,0:0:0:0:
109,192,60661,1,0,0:0:0:0:
256,192,60823,1,0,0:0:0:0:
329,192,60985,1,0,0:0:0:0:
182,192,61147,1,0,0:0:0:0:
402,192,61309,1,0,0:0:0:0:
109,192,61471,1,0,0:0:0:0:
475,192,61634,1,0,0:0:0:0:
182,192,61796,1,0,0:0:0:0:
402,192,61958,1,0,0:0:0:0:
182,192,62282,1,0,0:0:0:0:
329,192,62444,1,0,0:0:0:0:
182,192,62606,1,0,0:0:0:0:
329,192,62769,1,0,0:0:0:0:
182,192,62931,1,0,0:0:0:0:
329,192,63093,1,0,0:0:0:0:
182,192,63255,1,0,0:0:0:0:
329,192,63417,1,0,0:0:0:0:
109,192,63579,1,0,0:0:0:0:
402,192,63661,1,0,0:0:0:0:
109,192,63742,1,0,0:0:0:0:
402,192,63823,1,0,0:0:0:0:
109,192,63904,1,0,0:0:0:0:
402,192,63985,1,0,0:0:0:0:
109,192,64066,1,0,0:0:0:0:
402,192,64147,1,0,0:0:0:0:
475,192,64228,1,0,0:0:0:0:
402,192,64269,1,0,0:0:0:0:
329,192,64309,1,0,0:0:0:0:
256,192,64350,1,0,0:0:0:0:
182,192,64390,1,0,0:0:0:0:
109,192,64431,1,0,0:0:0:0:
36,192,64471,1,0,0:0:0:0:
475,192,64512,1,0,0:0:0:0:
402,192,64552,1,0,0:0:0:0:
329,192,64593,1,0,0:0:0:0:
256,192,64634,1,0,0:0:0:0:
182,192,64674,1,0,0:0:0:0:
109,192,64715,1,0,0:0:0:0:
36,192,64755,1,0,0:0:0:0:
475,192,64796,1,0,0:0:0:0:
402,192,64836,1,0,0:0:0:0:
329,192,64877,1,4,0:0:0:0:
256,192,64877,1,0,0:0:0:0:
182,192,64877,1,4,0:0:0:0:
329,192,65363,1,4,0:0:0:0:
182,192,65363,1,4,0:0:0:0:
256,192,65363,1,0,0:0:0:0:
109,192,66174,1,4,0:0:0:0:
402,192,66174,1,4,0:0:0:0:
256,192,66174,1,0,0:0:0:0:
109,192,66661,1,4,0:0:0:0:
402,192,66661,1,4,0:0:0:0:
256,192,66661,1,0,0:0:0:0:
256,192,67471,1,0,0:0:0:0:
475,192,67471,1,4,0:0:0:0:
36,192,67471,1,4,0:0:0:0:
36,192,67958,1,4,0:0:0:0:
475,192,67958,1,4,0:0:0:0:
256,192,67958,1,0,0:0:0:0:
109,192,68769,1,4,0:0:0:0:
402,192,68769,1,4,0:0:0:0:
256,192,68769,1,0,0:0:0:0:
182,192,69417,1,4,0:0:0:0:
475,192,69417,1,4,0:0:0:0:
329,192,69417,1,0,0:0:0:0:
402,192,70066,1,4,0:0:0:0:
475,192,70066,1,0,0:0:0:0:
256,192,70066,1,4,0:0:0:0:
475,192,70552,1,0,0:0:0:0:
402,192,70552,1,4,0:0:0:0:
256,192,70552,1,4,0:0:0:0:
182,192,71363,1,4,0:0:0:0:
329,192,71363,1,4,0:0:0:0:
402,192,71363,1,0,0:0:0:0:
329,192,71850,1,4,0:0:0:0:
182,192,71850,1,4,0:0:0:0:
402,192,71850,1,0,0:0:0:0:
256,192,72661,1,4,0:0:0:0:
109,192,72661,1,4,0:0:0:0:
329,192,72661,1,0,0:0:0:0:
329,192,73147,1,0,0:0:0:0:
256,192,73147,1,4,0:0:0:0:
109,192,73147,1,4,0:0:0:0:
36,192,73958,1,4,0:0:0:0:
475,192,73958,1,4,0:0:0:0:
256,192,73958,1,0,0:0:0:0:
182,192,74606,1,4,0:0:0:0:
329,192,74606,1,4,0:0:0:0:
256,192,74606,1,0,0:0:0:0:
256,192,75255,1,4,0:0:0:0:
402,192,75255,1,0,0:0:0:0:
36,192,75255,1,4,0:0:0:0:
36,192,75579,1,4,0:0:0:0:
36,192,75904,1,4,0:0:0:0:
36,192,76228,1,4,0:0:0:0:
109,192,76552,1,0,0:0:0:0:
36,192,76552,1,4,0:0:0:0:
36,192,76877,1,4,0:0:0:0:
402,192,77201,1,0,0:0:0:0:
36,192,77201,1,4,0:0:0:0:
36,192,77525,1,4,0:0:0:0:
475,192,77688,1,8,0:0:0:0:
256,192,77850,1,0,0:0:0:0:
36,192,77850,1,4,0:0:0:0:
36,192,78174,1,4,0:0:0:0:
475,192,78174,1,8,0:0:0:0:
36,192,78498,1,4,0:0:0:0:
182,192,78498,1,0,0:0:0:0:
36,192,78823,1,4,0:0:0:0:
475,192,78985,1,8,0:0:0:0:
256,192,79147,1,0,0:0:0:0:
36,192,79147,1,4,0:0:0:0:
475,192,79471,1,8,0:0:0:0:
36,192,79471,1,4,0:0:0:0:
475,192,79634,1,8,0:0:0:0:
402,192,79715,1,8,0:0:0:0:
36,192,79796,1,4,0:0:0:0:
329,192,79796,1,0,0:0:0:0:
475,192,79796,1,8,0:0:0:0:
475,192,80039,1,8,0:0:0:0:
36,192,80120,1,4,0:0:0:0:
475,192,80282,1,8,0:0:0:0:
475,192,80444,1,0,0:0:0:0:
36,192,80444,1,4,0:0:0:0:
182,192,80525,1,0,0:0:0:0:
329,192,80606,1,0,0:0:0:0:
402,192,80688,1,0,0:0:0:0:
36,192,80769,1,0,0:0:0:0:
182,192,80850,1,0,0:0:0:0:
329,192,80931,1,0,0:0:0:0:
402,192,81012,1,0,0:0:0:0:
36,192,81093,1,0,0:0:0:0:
182,192,81174,1,0,0:0:0:0:
329,192,81255,1,0,0:0:0:0:
402,192,81336,1,0,0:0:0:0:
36,192,81417,1,0,0:0:0:0:
182,192,81498,1,0,0:0:0:0:
329,192,81579,1,0,0:0:0:0:
402,192,81661,1,0,0:0:0:0:
36,192,81742,1,4,0:0:0:0:
475,192,81742,1,0,0:0:0:0:
329,192,81823,1,0,0:0:0:0:
182,192,81904,1,0,0:0:0:0:
109,192,81985,1,0,0:0:0:0:
475,192,82066,1,0,0:0:0:0:
329,192,82147,1,0,0:0:0:0:
182,192,82228,1,0,0:0:0:0:
109,192,82309,1,0,0:0:0:0:
402,192,82390,1,0,0:0:0:0:
475,192,82390,1,0,0:0:0:0:
329,192,82471,1,0,0:0:0:0:
182,192,82552,1,0,0:0:0:0:
109,192,82634,1,0,0:0:0:0:
475,192,82715,1,0,0:0:0:0:
329,192,82796,1,0,0:0:0:0:
182,192,82877,1,0,0:0:0:0:
109,192,82958,1,0,0:0:0:0:
36,192,83039,1,0,0:0:0:0:
402,192,83039,1,4,0:0:0:0:
182,192,83120,1,0,0:0:0:0:
329,192,83201,1,0,0:0:0:0:
475,192,83282,1,0,0:0:0:0:
36,192,83363,1,0,0:0:0:0:
182,192,83444,1,0,0:0:0:0:
329,192,83525,1,0,0:0:0:0:
475,192,83606,1,0,0:0:0:0:
36,192,83688,1,0,0:0:0:0:
182,192,83769,1,0,0:0:0:0:
329,192,83850,1,0,0:0:0:0:
475,192,83931,1,0,0:0:0:0:
36,192,84012,1,0,0:0:0:0:
182,192,84093,1,0,0:0:0:0:
329,192,84174,1,0,0:0:0:0:
475,192,84255,1,0,0:0:0:0:
256,192,84336,1,4,0:0:0:0:
109,192,84336,1,0,0:0:0:0:
182,192,84417,1,0,0:0:0:0:
329,192,84498,1,0,0:0:0:0:
402,192,84579,1,0,0:0:0:0:
109,192,84661,1,0,0:0:0:0:
182,192,84742,1,0,0:0:0:0:
329,192,84823,1,0,0:0:0:0:
402,192,84904,1,0,0:0:0:0:
109,192,84985,1,0,0:0:0:0:
475,192,84985,1,0,0:0:0:0:
182,192,85066,1,0,0:0:0:0:
329,192,85147,1,0,0:0:0:0:
402,192,85228,1,0,0:0:0:0:
109,192,85309,1,0,0:0:0:0:
182,192,85390,1,0,0:0:0:0:
329,192,85471,1,0,0:0:0:0:
402,192,85552,1,0,0:0:0:0:
256,192,85634,1,0,0:0:0:0:
36,192,85634,128,0,86931:0:0:0:0:
475,192,85634,128,0,86931:0:0:0:0:
256,192,86931,1,4,0:0:0:0:
402,192,86931,1,4,0:0:0:0:
109,192,86931,1,4,0:0:0:0:
475,192,87417,128,0,87904:0:0:0:0:
329,192,87904,128,0,88228:0:0:0:0:
256,192,88228,128,0,88715:0:0:0:0:
36,192,88228,1,4,0:0:0:0:
475,192,88228,1,0,0:0:0:0:
475,192,88552,1,8,0:0:0:0:
182,192,88715,128,0,89363:0:0:0:0:
36,192,89039,1,4,0:0:0:0:
475,192,89201,1,8,0:0:0:0:
36,192,89525,1,4,0:0:0:0:
329,192,89525,128,0,90174:0:0:0:0:
36,192,89688,1,4,0:0:0:0:
475,192,89850,1,8,0:0:0:0:
36,192,90093,1,4,0:0:0:0:
475,192,90174,128,0,90823:0:0:0:0:
36,192,90336,1,4,0:0:0:0:
182,192,90498,1,8,0:0:0:0:
402,192,90823,128,0,92120:0:0:0:0:
36,192,90823,1,4,0:0:0:0:
256,192,90985,1,0,0:0:0:0:
182,192,91147,1,0,0:0:0:0:
109,192,91309,1,0,0:0:0:0:
329,192,91634,1,0,0:0:0:0:
182,192,91796,1,0,0:0:0:0:
256,192,91958,1,0,0:0:0:0:
36,192,92120,1,4,0:0:0:0:
36,192,92363,1,4,0:0:0:0:
329,192,92444,1,0,0:0:0:0:
475,192,92444,1,8,0:0:0:0:
36,192,92606,1,4,0:0:0:0:
475,192,92688,1,8,0:0:0:0:
256,192,92769,1,0,0:0:0:0:
36,192,92769,1,4,0:0:0:0:
475,192,92850,1,8,0:0:0:0:
36,192,92931,1,4,0:0:0:0:
109,192,93012,1,4,0:0:0:0:
182,192,93093,1,0,0:0:0:0:
475,192,93093,1,8,0:0:0:0:
475,192,93255,1,8,0:0:0:0:
402,192,93336,1,8,0:0:0:0:
182,192,93417,128,0,93904:0:0:0:0:
475,192,93417,1,4,0:0:0:0:
475,192,93579,1,4,0:0:0:0:
402,192,93742,1,8,0:0:0:0:
109,192,93904,128,0,94715:0:0:0:0:
475,192,94228,1,4,0:0:0:0:
402,192,94390,1,8,0:0:0:0:
36,192,94715,128,0,95039:0:0:0:0:
475,192,94715,1,4,0:0:0:0:
475,192,94877,1,4,0:0:0:0:
402,192,95039,1,8,0:0:0:0:
329,192,95201,128,0,95525:0:0:0:0:
475,192,95282,1,4,0:0:0:0:
256,192,95525,128,0,95850:0:0:0:0:
475,192,95525,1,4,0:0:0:0:
402,192,95688,1,8,0:0:0:0:
182,192,95850,1,0,0:0:0:0:
402,192,95931,1,8,0:0:0:0:
182,192,96012,128,0,96498:0:0:0:0:
475,192,96012,1,4,0:0:0:0:
475,192,96174,1,4,0:0:0:0:
402,192,96336,1,8,0:0:0:0:
109,192,96498,128,0,96985:0:0:0:0:
475,192,96579,1,4,0:0:0:0:
475,192,96823,1,4,0:0:0:0:
256,192,96985,128,0,97309:0:0:0:0:
402,192,96985,1,8,0:0:0:0:
475,192,97147,1,4,0:0:0:0:
402,192,97228,1,8,0:0:0:0:
36,192,97309,1,4,0:0:0:0:
329,192,97309,1,8,0:0:0:0:
182,192,97390,1,8,0:0:0:0:
329,192,97471,1,8,0:0:0:0:
182,192,97552,1,8,0:0:0:0:
256,192,97634,1,8,0:0:0:0:
109,192,97715,1,8,0:0:0:0:
256,192,97796,1,8,0:0:0:0:
109,192,97877,1,8,0:0:0:0:
36,192,97958,1,4,0:0:0:0:
329,192,97958,1,4,0:0:0:0:
182,192,98039,1,4,0:0:0:0:
475,192,98120,1,8,0:0:0:0:
329,192,98201,1,8,0:0:0:0:
402,192,98282,1,8,0:0:0:0:
36,192,98444,1,4,0:0:0:0:
402,192,98444,1,8,0:0:0:0:
109,192,98931,1,0,0:0:0:0:
329,192,98931,1,0,0:0:0:0:
182,192,98931,1,4,0:0:0:0:
402,192,98931,1,4,0:0:0:0:
329,192,99255,1,0,0:0:0:0:
475,192,99336,1,0,0:0:0:0:
402,192,99417,1,0,0:0:0:0:
329,192,99498,1,0,0:0:0:0:
256,192,99579,1,0,0:0:0:0:
182,192,99661,1,0,0:0:0:0:
109,192,99742,1,0,0:0:0:0:
36,192,99823,1,0,0:0:0:0:
402,192,99904,1,0,0:0:0:0:
109,192,99904,1,0,0:0:0:0:
329,192,99985,1,0,0:0:0:0:
256,192,100066,1,0,0:0:0:0:
182,192,100147,1,0,0:0:0:0:
256,192,100228,1,0,0:0:0:0:
329,192,100309,1,0,0:0:0:0:
256,192,100390,1,0,0:0:0:0:
182,192,100471,1,0,0:0:0:0:
109,192,100552,1,0,0:0:0:0:
182,192,100634,1,0,0:0:0:0:
109,192,100715,1,0,0:0:0:0:
182,192,100796,1,0,0:0:0:0:
256,192,100877,1,0,0:0:0:0:
329,192,100958,1,0,0:0:0:0:
256,192,101039,1,0,0:0:0:0:
329,192,101120,1,0,0:0:0:0:
256,192,101201,1,0,0:0:0:0:
109,192,101201,1,4,0:0:0:0:
402,192,101201,1,0,0:0:0:0:
182,192,101363,1,8,0:0:0:0:
329,192,101444,1,8,0:0:0:0:
182,192,101525,1,8,0:0:0:0:
109,192,101688,1,4,0:0:0:0:
402,192,101688,1,0,0:0:0:0:
256,192,101688,1,0,0:0:0:0:
329,192,101850,1,8,0:0:0:0:
182,192,101931,1,8,0:0:0:0:
329,192,102012,1,8,0:0:0:0:
256,192,102174,1,0,0:0:0:0:
475,192,102174,1,0,0:0:0:0:
36,192,102174,1,4,0:0:0:0:
182,192,102336,1,0,0:0:0:0:
329,192,102417,1,0,0:0:0:0:
182,192,102498,1,0,0:0:0:0:
475,192,102579,1,0,0:0:0:0:
402,192,102661,1,0,0:0:0:0:
36,192,102661,1,0,0:0:0:0:
329,192,102742,1,0,0:0:0:0:
256,192,102823,1,0,0:0:0:0:
182,192,102904,1,0,0:0:0:0:
475,192,102985,1,0,0:0:0:0:
402,192,103039,1,0,0:0:0:0:
329,192,103093,1,0,0:0:0:0:
256,192,103147,1,0,0:0:0:0:
36,192,103147,1,0,0:0:0:0:
182,192,103201,1,0,0:0:0:0:
109,192,103255,1,0,0:0:0:0:
402,192,103309,1,0,0:0:0:0:
329,192,103363,1,0,0:0:0:0:
256,192,103417,1,0,0:0:0:0:
182,192,103471,1,0,0:0:0:0:
109,192,103525,1,0,0:0:0:0:
36,192,103579,1,0,0:0:0:0:
329,192,103634,1,0,0:0:0:0:
475,192,103634,1,4,0:0:0:0:
36,192,103958,1,0,0:0:0:0:
109,192,104120,1,0,0:0:0:0:
182,192,104282,1,0,0:0:0:0:
256,192,104444,1,0,0:0:0:0:
329,192,104606,1,0,0:0:0:0:
402,192,104769,1,0,0:0:0:0:
109,192,104931,1,0,0:0:0:0:
475,192,104931,1,4,0:0:0:0:
36,192,105255,1,0,0:0:0:0:
109,192,105417,1,0,0:0:0:0:
182,192,105579,1,0,0:0:0:0:
256,192,105742,1,0,0:0:0:0:
329,192,105904,1,0,0:0:0:0:
402,192,106066,1,0,0:0:0:0:
475,192,106228,1,4,0:0:0:0:
182,192,106228,1,0,0:0:0:0:
36,192,106552,1,0,0:0:0:0:
182,192,106634,1,0,0:0:0:0:
329,192,106715,1,0,0:0:0:0:
402,192,106796,1,0,0:0:0:0:
109,192,106877,1,0,0:0:0:0:
256,192,106958,1,0,0:0:0:0:
475,192,107039,1,0,0:0:0:0:
329,192,107120,1,0,0:0:0:0:
182,192,107201,1,0,0:0:0:0:
329,192,107282,1,0,0:0:0:0:
475,192,107363,1,0,0:0:0:0:
402,192,107525,1,4,0:0:0:0:
109,192,107525,1,0,0:0:0:0:
36,192,107850,1,0,0:0:0:0:
182,192,107931,1,0,0:0:0:0:
256,192,108012,1,0,0:0:0:0:
329,192,108093,1,0,0:0:0:0:
402,192,108174,1,0,0:0:0:0:
109,192,108255,1,0,0:0:0:0:
256,192,108336,1,0,0:0:0:0:
402,192,108417,1,0,0:0:0:0:
182,192,108498,1,0,0:0:0:0:
256,192,108579,1,0,0:0:0:0:
329,192,108661,1,0,0:0:0:0:
402,192,108742,1,0,0:0:0:0:
475,192,108823,1,4,0:0:0:0:
182,192,108823,1,0,0:0:0:0:
109,192,109147,1,0,0:0:0:0:
182,192,109228,1,0,0:0:0:0:
329,192,109309,1,0,0:0:0:0:
402,192,109390,1,0,0:0:0:0:
109,192,109471,1,0,0:0:0:0:
182,192,109525,1,0,0:0:0:0:
256,192,109579,1,0,0:0:0:0:
402,192,109634,1,0,0:0:0:0:
329,192,109688,1,0,0:0:0:0:
256,192,109742,1,0,0:0:0:0:
182,192,109796,1,0,0:0:0:0:
256,192,109850,1,0,0:0:0:0:
329,192,109904,1,0,0:0:0:0:
402,192,109958,1,0,0:0:0:0:
475,192,110012,1,0,0:0:0:0:
36,192,110120,1,0,0:0:0:0:
402,192,110120,1,4,0:0:0:0:
475,192,110444,1,0,0:0:0:0:
402,192,110498,1,0,0:0:0:0:
329,192,110552,1,0,0:0:0:0:
256,192,110606,1,0,0:0:0:0:
182,192,110688,1,0,0:0:0:0:
109,192,110769,1,0,0:0:0:0:
475,192,110877,1,0,0:0:0:0:
329,192,110931,1,0,0:0:0:0:
36,192,110931,1,4,0:0:0:0:
256,192,110985,1,0,0:0:0:0:
182,192,111039,1,0,0:0:0:0:
109,192,111093,1,0,0:0:0:0:
402,192,111147,1,0,0:0:0:0:
329,192,111201,1,0,0:0:0:0:
256,192,111255,1,0,0:0:0:0:
36,192,111255,1,4,0:0:0:0:
182,192,111309,1,0,0:0:0:0:
109,192,111363,1,0,0:0:0:0:
36,192,111417,1,0,0:0:0:0:
475,192,111417,1,4,0:0:0:0:
256,192,111417,1,0,0:0:0:0:
36,192,111742,1,4,0:0:0:0:
475,192,111742,1,4,0:0:0:0:
256,192,111742,1,0,0:0:0:0:
36,192,111904,1,4,0:0:0:0:
475,192,111904,1,4,0:0:0:0:
256,192,111904,1,0,0:0:0:0:
36,192,112066,1,4,0:0:0:0:
256,192,112066,1,0,0:0:0:0:
475,192,112066,1,4,0:0:0:0:
36,192,112228,1,4,0:0:0:0:
475,192,112228,1,4,0:0:0:0:
256,192,112228,1,0,0:0:0:0:
36,192,112471,1,4,0:0:0:0:
475,192,112471,1,4,0:0:0:0:
256,192,112471,1,0,0:0:0:0:
182,192,112715,128,4,114174:0:0:0:0:
329,192,112715,128,4,114174:0:0:0:0:
256,192,112715,1,0,0:0:0:0:
256,192,114174,1,0,0:0:0:0:
36,192,114174,1,4,0:0:0:0:
475,192,114174,1,4,0:0:0:0:
109,192,114336,1,0,0:0:0:0:
256,192,114498,1,0,0:0:0:0:
402,192,114661,1,0,0:0:0:0:
182,192,115471,1,0,0:0:0:0:
256,192,115634,1,0,0:0:0:0:
402,192,115796,1,0,0:0:0:0:
475,192,115958,1,0,0:0:0:0:
256,192,116769,1,0,0:0:0:0:
329,192,116931,1,0,0:0:0:0:
402,192,117093,1,0,0:0:0:0:
475,192,117255,1,0,0:0:0:0:
402,192,118066,1,0,0:0:0:0:
182,192,118806,1,0,0:0:0:0:
402,192,119547,1,0,0:0:0:0:
109,192,119736,1,0,0:0:0:0:
182,192,119926,1,0,0:0:0:0:
329,192,120116,1,0,0:0:0:0:
329,192,120917,1,0,0:0:0:0:
36,192,121123,1,0,0:0:0:0:
109,192,121330,1,0,0:0:0:0:
256,192,121537,1,0,0:0:0:0:
402,192,122439,1,0,0:0:0:0:
36,192,122684,1,0,0:0:0:0:
109,192,122930,1,0,0:0:0:0:
182,192,123176,1,0,0:0:0:0:
329,192,123607,1,0,0:0:0:0:
475,192,124006,1,0,0:0:0:0:
402,192,124590,1,0,0:0:0:0:
