osu file format v14

[General]
AudioFilename: -+.mp3
AudioLeadIn: 0
PreviewTime:86931
Countdown: 0
SampleSet: Soft
StackLeniency: 0.7
Mode: 3
LetterboxInBreaks: 0
WidescreenStoryboard: 1
EpilepsyWarning: 1
SpecialStyle: 0

[Editor]
Bookmarks: 57739
DistanceSpacing: 0.5
BeatDivisor: 4
GridSize: 4
TimelineZoom: 1.9

[Metadata]
Title:-+
TitleUnicode:-+
Artist:daisan
ArtistUnicode:daisan
Creator:Starfy
Version:pw's 7K Beginner
Source:BOF2013
Tags:minus plus konzertsaal - THE BMS OF FIGHTERS 2013 Dirt Art Color Teller xellox piano StarForYou Kyle Y IamKwaN happy623 -N_a_n_a_k_o- Nanako Kencho Chaoslitz [ Drop ] choikapo Regou Rizia Kawaiwkyik Nakano Itsuki StarrStyx Prophecy aabc271 Nardoxyribonucleic Skylish ll-oscar autofanboy alienflybot hokin1995 pwhk hong kong hk muse dash electronic instrumental
BeatmapID:971350
BeatmapSetID:389617

[Difficulty]
HPDrainRate:6
CircleSize:7
OverallDifficulty:5
ApproachRate:9.7
SliderMultiplier:1.9
SliderTickRate:1

[Events]
//Background and Video events
0,0,"BG.png",0,0
//Break Periods
//Storyboard Layer 0 (Background)
//Storyboard Layer 1 (Fail)
//Storyboard Layer 2 (Pass)
//Storyboard Layer 3 (Foreground)
//Storyboard Layer 4 (Overlay)
//Storyboard Sound Samples

[TimingPoints]
2607,324.324324324324,4,2,1,20,1,0
23363,-100,4,2,1,20,0,1
33742,-100,4,2,1,20,0,0
86931,-100,4,2,1,20,0,1
112877,-100,4,2,1,20,0,0
118066,370.37037037037,4,2,1,20,1,0
119547,379.746835443038,4,2,1,20,1,0
120917,413.793103448276,4,2,1,20,1,0
122439,491.803278688525,4,2,1,20,1,0

[Colours]
Combo1 : 41,214,166
Combo2 : 128,0,255
Combo3 : 128,255,255
Combo4 : 3,90,252

[HitObjects]
109,192,2607,5,0,0:0:0:0:
182,192,3255,1,0,0:0:0:0:
329,192,3904,1,0,0:0:0:0:
475,192,4552,1,0,0:0:0:0:
256,192,5201,1,0,0:0:0:0:
36,192,6498,1,0,0:0:0:0:
109,192,7796,1,0,0:0:0:0:
182,192,8444,1,0,0:0:0:0:
329,192,9093,1,0,0:0:0:0:
475,192,9742,1,0,0:0:0:0:
256,192,10390,1,0,0:0:0:0:
402,192,11688,1,0,0:0:0:0:
36,192,12985,1,4,0:0:0:0:
475,192,12985,1,0,0:0:0:0:
182,192,13634,1,0,0:0:0:0:
329,192,14282,1,0,0:0:0:0:
475,192,14931,1,0,0:0:0:0:
402,192,15579,1,0,0:0:0:0:
109,192,16877,1,0,0:0:0:0:
36,192,18174,1,0,0:0:0:0:
182,192,18823,1,0,0:0:0:0:
329,192,19471,1,0,0:0:0:0:
475,192,20120,1,0,0:0:0:0:
109,192,20769,1,0,0:0:0:0:
402,192,22066,1,0,0:0:0:0:
182,192,22715,128,0,23039:0:0:0:0:
475,192,23039,128,0,23363:0:0:0:0:
36,192,23363,1,4,0:0:0:0:
402,192,23688,1,8,0:0:0:0:
36,192,24174,1,4,0:0:0:0:
402,192,24336,1,8,0:0:0:0:
36,192,24661,1,4,0:0:0:0:
402,192,24985,1,8,0:0:0:0:
36,192,25228,1,4,0:0:0:0:
402,192,25634,1,8,0:0:0:0:
36,192,25958,5,4,0:0:0:0:
402,192,26282,1,8,0:0:0:0:
36,192,26525,1,4,0:0:0:0:
402,192,26931,1,8,0:0:0:0:
36,192,27255,1,4,0:0:0:0:
402,192,27579,1,8,0:0:0:0:
36,192,27742,1,0,0:0:0:0:
402,192,28228,1,0,0:0:0:0:
475,192,28552,1,4,0:0:0:0:
109,192,28877,1,8,0:0:0:0:
475,192,29363,1,4,0:0:0:0:
109,192,29525,1,8,0:0:0:0:
475,192,29850,1,4,0:0:0:0:
109,192,30174,1,8,0:0:0:0:
475,192,30417,1,4,0:0:0:0:
109,192,30661,1,8,0:0:0:0:
475,192,31147,1,4,0:0:0:0:
109,192,31471,1,8,0:0:0:0:
475,192,31715,1,4,0:0:0:0:
109,192,32120,1,8,0:0:0:0:
475,192,32444,1,4,0:0:0:0:
109,192,32769,1,0,0:0:0:0:
256,192,33093,128,0,33742:0:0:0:0:
36,192,33742,1,4,0:0:0:0:
182,192,34066,1,0,0:0:0:0:
329,192,34390,1,0,0:0:0:0:
475,192,34715,1,0,0:0:0:0:
36,192,35039,1,0,0:0:0:0:
109,192,35363,1,0,0:0:0:0:
256,192,35688,1,0,0:0:0:0:
402,192,36012,1,0,0:0:0:0:
36,192,36336,1,0,0:0:0:0:
182,192,36661,1,0,0:0:0:0:
256,192,36985,1,0,0:0:0:0:
402,192,37309,1,0,0:0:0:0:
109,192,37634,1,0,0:0:0:0:
256,192,37958,1,0,0:0:0:0:
475,192,38282,1,0,0:0:0:0:
329,192,38606,1,0,0:0:0:0:
36,192,38931,1,0,0:0:0:0:
475,192,38931,1,0,0:0:0:0:
182,192,39255,1,0,0:0:0:0:
329,192,39579,1,0,0:0:0:0:
475,192,39904,1,0,0:0:0:0:
36,192,40228,1,0,0:0:0:0:
182,192,40552,1,0,0:0:0:0:
256,192,40877,1,0,0:0:0:0:
402,192,41201,1,0,0:0:0:0:
36,192,41525,1,0,0:0:0:0:
475,192,41525,1,0,0:0:0:0:
109,192,41850,1,0,0:0:0:0:
256,192,42174,1,0,0:0:0:0:
402,192,42498,1,0,0:0:0:0:
109,192,42823,1,0,0:0:0:0:
475,192,42823,1,0,0:0:0:0:
256,192,43147,1,0,0:0:0:0:
402,192,43471,1,0,0:0:0:0:
475,192,43796,1,0,0:0:0:0:
182,192,44120,1,0,0:0:0:0:
329,192,44120,1,0,0:0:0:0:
36,192,45093,1,0,0:0:0:0:
402,192,45417,1,0,0:0:0:0:
475,192,45742,1,0,0:0:0:0:
329,192,46066,1,0,0:0:0:0:
109,192,46390,1,0,0:0:0:0:
182,192,47688,1,0,0:0:0:0:
256,192,48012,1,0,0:0:0:0:
475,192,48336,1,0,0:0:0:0:
402,192,48661,1,0,0:0:0:0:
329,192,48985,1,0,0:0:0:0:
109,192,50282,1,0,0:0:0:0:
256,192,50606,1,0,0:0:0:0:
475,192,50931,1,0,0:0:0:0:
329,192,51255,1,0,0:0:0:0:
36,192,51579,1,0,0:0:0:0:
109,192,52715,1,0,0:0:0:0:
475,192,53201,1,0,0:0:0:0:
329,192,53525,1,0,0:0:0:0:
182,192,53850,1,0,0:0:0:0:
329,192,54174,1,0,0:0:0:0:
36,192,54498,1,0,0:0:0:0:
109,192,55471,1,0,0:0:0:0:
402,192,55796,1,0,0:0:0:0:
475,192,56120,1,0,0:0:0:0:
182,192,56444,1,0,0:0:0:0:
329,192,56769,1,0,0:0:0:0:
182,192,58066,1,0,0:0:0:0:
256,192,58390,1,0,0:0:0:0:
475,192,58715,1,0,0:0:0:0:
329,192,59039,1,0,0:0:0:0:
402,192,59363,1,0,0:0:0:0:
109,192,60661,1,0,0:0:0:0:
329,192,60985,1,0,0:0:0:0:
402,192,61309,1,0,0:0:0:0:
475,192,61634,1,0,0:0:0:0:
402,192,61958,1,0,0:0:0:0:
36,192,62282,128,0,64877:0:0:0:0:
475,192,63579,128,0,64877:0:0:0:0:
182,192,64877,1,4,0:0:0:0:
329,192,64877,1,4,0:0:0:0:
329,192,65363,1,4,0:0:0:0:
182,192,65363,1,4,0:0:0:0:
109,192,66174,1,4,0:0:0:0:
402,192,66174,1,4,0:0:0:0:
109,192,66661,1,4,0:0:0:0:
402,192,66661,1,4,0:0:0:0:
36,192,67471,1,4,0:0:0:0:
475,192,67471,1,4,0:0:0:0:
475,192,67958,1,4,0:0:0:0:
36,192,67958,1,4,0:0:0:0:
109,192,68769,1,4,0:0:0:0:
402,192,68769,1,4,0:0:0:0:
182,192,69417,1,4,0:0:0:0:
475,192,69417,1,4,0:0:0:0:
256,192,70066,1,4,0:0:0:0:
402,192,70066,1,4,0:0:0:0:
402,192,70552,1,4,0:0:0:0:
256,192,70552,1,4,0:0:0:0:
182,192,71363,1,4,0:0:0:0:
329,192,71363,1,4,0:0:0:0:
329,192,71850,1,4,0:0:0:0:
182,192,71850,1,4,0:0:0:0:
256,192,72661,1,4,0:0:0:0:
109,192,72661,1,4,0:0:0:0:
256,192,73147,1,4,0:0:0:0:
109,192,73147,1,4,0:0:0:0:
36,192,73958,1,4,0:0:0:0:
475,192,73958,1,4,0:0:0:0:
182,192,74606,1,4,0:0:0:0:
329,192,74606,1,4,0:0:0:0:
256,192,75255,1,4,0:0:0:0:
109,192,76552,1,0,0:0:0:0:
402,192,77201,1,0,0:0:0:0:
329,192,77850,1,0,0:0:0:0:
182,192,78498,1,0,0:0:0:0:
329,192,79147,1,0,0:0:0:0:
402,192,79796,1,0,0:0:0:0:
475,192,80444,1,0,0:0:0:0:
36,192,80444,1,4,0:0:0:0:
402,192,81742,1,0,0:0:0:0:
109,192,81742,1,4,0:0:0:0:
475,192,82390,1,0,0:0:0:0:
182,192,83039,1,4,0:0:0:0:
402,192,83039,1,0,0:0:0:0:
109,192,84336,1,4,0:0:0:0:
329,192,84336,1,0,0:0:0:0:
402,192,84985,1,0,0:0:0:0:
36,192,85634,128,0,86931:0:0:0:0:
475,192,85634,128,0,86931:0:0:0:0:
256,192,86931,1,4,0:0:0:0:
475,192,87417,128,0,87904:0:0:0:0:
329,192,87904,128,0,88228:0:0:0:0:
256,192,88228,128,0,88715:0:0:0:0:
36,192,88228,1,4,0:0:0:0:
182,192,88715,128,0,89363:0:0:0:0:
329,192,89525,128,0,90174:0:0:0:0:
475,192,90174,128,0,90823:0:0:0:0:
402,192,90823,128,0,92120:0:0:0:0:
329,192,92444,1,0,0:0:0:0:
256,192,92769,1,0,0:0:0:0:
182,192,93093,1,0,0:0:0:0:
182,192,93417,128,0,93904:0:0:0:0:
109,192,93904,128,0,94715:0:0:0:0:
36,192,94715,128,0,95039:0:0:0:0:
475,192,95201,128,0,95525:0:0:0:0:
329,192,95525,128,0,95850:0:0:0:0:
256,192,95850,128,0,96498:0:0:0:0:
109,192,96498,128,0,96985:0:0:0:0:
256,192,96985,128,0,97309:0:0:0:0:
36,192,97309,1,4,0:0:0:0:
329,192,97309,1,0,0:0:0:0:
402,192,97958,1,0,0:0:0:0:
36,192,97958,1,4,0:0:0:0:
36,192,98444,1,4,0:0:0:0:
475,192,98444,1,0,0:0:0:0:
402,192,98931,1,4,0:0:0:0:
109,192,98931,128,0,99904:0:0:0:0:
256,192,98931,1,0,0:0:0:0:
36,192,99904,128,0,100552:0:0:0:0:
256,192,100552,128,0,101201:0:0:0:0:
182,192,101201,1,4,0:0:0:0:
329,192,101201,1,0,0:0:0:0:
109,192,101688,1,4,0:0:0:0:
402,192,101688,1,0,0:0:0:0:
36,192,102174,1,4,0:0:0:0:
475,192,102174,1,0,0:0:0:0:
256,192,102661,1,0,0:0:0:0:
109,192,103147,128,0,103634:0:0:0:0:
256,192,103634,128,0,104606:0:0:0:0:
36,192,103634,1,4,0:0:0:0:
109,192,104606,1,0,0:0:0:0:
36,192,104931,1,4,0:0:0:0:
329,192,104931,128,0,105904:0:0:0:0:
182,192,105904,1,0,0:0:0:0:
109,192,106228,1,4,0:0:0:0:
402,192,106228,128,0,107201:0:0:0:0:
256,192,107201,1,0,0:0:0:0:
475,192,107525,128,0,108174:0:0:0:0:
182,192,107525,1,4,0:0:0:0:
36,192,108174,1,0,0:0:0:0:
329,192,108823,128,0,109634:0:0:0:0:
182,192,108823,1,4,0:0:0:0:
36,192,109634,1,0,0:0:0:0:
402,192,110120,128,0,110931:0:0:0:0:
109,192,110120,1,4,0:0:0:0:
475,192,110931,128,4,111417:0:0:0:0:
36,192,110931,128,4,111417:0:0:0:0:
109,192,111417,128,4,112715:0:0:0:0:
402,192,111417,128,4,112715:0:0:0:0:
182,192,112715,128,4,114174:0:0:0:0:
329,192,112715,128,4,114174:0:0:0:0:
36,192,114174,1,4,0:0:0:0:
475,192,114174,1,4,0:0:0:0:
182,192,115471,1,0,0:0:0:0:
256,192,116769,1,0,0:0:0:0:
402,192,118066,1,0,0:0:0:0:
182,192,118806,1,0,0:0:0:0:
402,192,119547,1,0,0:0:0:0:
329,192,120917,1,0,0:0:0:0:
402,192,122439,1,0,0:0:0:0:
402,192,124590,1,0,0:0:0:0:
