osu file format v14

[General]
AudioFilename: -+.mp3
AudioLeadIn: 0
PreviewTime:86931
Countdown: 0
SampleSet: Normal
StackLeniency: 0.7
Mode: 1
LetterboxInBreaks: 0
WidescreenStoryboard: 0
EpilepsyWarning: 1

[Editor]
DistanceSpacing: 2
BeatDivisor: 4
GridSize: 32
TimelineZoom: 2.000001

[Metadata]
Title:-+
TitleUnicode:-+
Artist:daisan
ArtistUnicode:daisan
Creator:Starfy
Version:ll-oscar's Inner Oni
Source:BOF2013
Tags:minus plus konzertsaal - THE BMS OF FIGHTERS 2013 Dirt Art Color Teller xellox piano StarForYou Kyle Y IamKwaN happy623 -N_a_n_a_k_o- Nanako Kencho Chaoslitz [ Drop ] choikapo Regou Rizia Kawaiwkyik Nakano Itsuki StarrStyx Prophecy aabc271 Nardoxyribonucleic Skylish ll-oscar autofanboy alienflybot hokin1995 pwhk hong kong hk muse dash electronic instrumental
BeatmapID:855480
BeatmapSetID:389617

[Difficulty]
HPDrainRate:5
CircleSize:4
OverallDifficulty:5.5
ApproachRate:5
SliderMultiplier:1.4
SliderTickRate:1

[Events]
//Background and Video events
0,0,"BG.png",0,0
//Break Periods
//Storyboard Layer 0 (Background)
//Storyboard Layer 1 (Fail)
//Storyboard Layer 2 (Pass)
//Storyboard Layer 3 (Foreground)
//Storyboard Layer 4 (Overlay)
//Storyboard Sound Samples

[TimingPoints]
2607,324.324324324324,4,1,0,25,1,0
2607,-133.333333333333,4,1,0,25,0,0
12985,-117.647058823529,4,1,0,35,0,0
18174,-111.111111111111,4,1,0,50,0,0
18498,-109.89010989011,4,1,0,50,0,0
18823,-108.695652173913,4,1,0,51,0,0
19147,-107.52688172043,4,1,0,52,0,0
19471,-106.382978723404,4,1,0,53,0,0
19796,-105.263157894737,4,1,0,54,0,0
20120,-104.166666666667,4,1,0,56,0,0
20444,-103.092783505155,4,1,0,58,0,0
20769,-102.040816326531,4,1,0,60,0,0
21093,-101.010101010101,4,1,0,60,0,0
21417,-100,4,1,0,60,0,0
22634,-100,4,1,0,65,0,0
23363,-100,4,1,0,80,0,0
44282,-133.333333333333,4,1,0,25,0,0
52715,-131.578947368421,4,1,0,25,0,0
53525,-129.87012987013,4,1,0,25,0,0
53850,-128.205128205128,4,1,0,25,0,0
54174,-126.582278481013,4,1,0,25,0,0
54498,-123.456790123457,4,1,0,35,0,0
55147,-119.047619047619,4,1,0,35,0,0
55471,-117.647058823529,4,1,0,35,0,0
56120,-116.279069767442,4,1,0,35,0,0
56444,-114.942528735632,4,1,0,35,0,0
56769,-113.636363636364,4,1,0,35,0,0
57093,-112.359550561798,4,1,0,35,0,0
57742,-111.111111111111,4,1,0,35,0,0
58066,-109.89010989011,4,1,0,35,0,0
58715,-108.695652173913,4,1,0,35,0,0
59039,-107.52688172043,4,1,0,35,0,0
59363,-106.382978723404,4,1,0,35,0,0
59688,-105.263157894737,4,1,0,45,0,0
60012,-104.166666666667,4,1,0,45,0,0
60336,-103.092783505155,4,1,0,45,0,0
60661,-102.040816326531,4,1,0,46,0,0
60823,-102.040816326531,4,1,0,47,0,0
60985,-101.010101010101,4,1,0,48,0,0
61147,-101.010101010101,4,1,0,49,0,0
61309,-100,4,1,0,50,0,0
61471,-100,4,1,0,51,0,0
61634,-100,4,1,0,52,0,0
61796,-100,4,1,0,53,0,0
61958,-100,4,1,0,54,0,0
62282,-100,4,1,0,60,0,0
62606,-100,4,1,0,70,0,0
63579,-100,4,1,0,80,0,0
87012,-100,4,1,0,50,0,0
88147,-100,4,1,0,90,0,0
88228,-100,4,1,0,90,0,1
98444,-100,4,1,0,90,0,0
98931,-100,4,1,0,90,0,1
112715,-100,4,1,0,90,0,0
114093,-111.111111111111,4,1,0,20,0,0
114255,-125,4,1,0,20,0,0
118066,370.37037037037,4,1,0,15,1,0
118066,-125,4,1,0,15,0,0
119547,379.746835443038,4,1,0,10,1,0
119547,-125,4,1,0,10,0,0
120917,413.793103448276,4,1,0,5,1,0
120917,-131.578947368421,4,1,0,5,0,0
122439,491.803278688525,4,1,0,5,1,0
122439,-125,4,1,0,5,0,0
124406,-142.857142857143,4,1,0,5,0,0

[Colours]
Combo1 : 41,214,166
Combo2 : 128,0,255
Combo3 : 128,255,255
Combo4 : 3,90,252

[HitObjects]
232,140,2607,5,0,0:0:0:0:
224,160,3255,1,0,0:0:0:0:
232,140,3904,1,8,0:0:0:0:
224,160,4552,1,8,0:0:0:0:
224,160,5201,1,8,0:0:0:0:
224,160,6498,1,0,0:0:0:0:
224,160,7796,1,0,0:0:0:0:
224,160,8444,1,0,0:0:0:0:
224,160,9093,1,8,0:0:0:0:
224,160,9742,1,8,0:0:0:0:
224,160,10390,1,0,0:0:0:0:
224,160,11688,1,8,0:0:0:0:
224,160,12985,1,4,0:0:0:0:
224,160,13634,1,0,0:0:0:0:
224,160,14282,1,8,0:0:0:0:
224,160,14931,1,8,0:0:0:0:
224,160,15579,1,8,0:0:0:0:
224,160,16228,1,8,0:0:0:0:
224,160,16877,1,0,0:0:0:0:
224,160,17525,1,0,0:0:0:0:
224,160,18174,1,0,0:0:0:0:
224,160,18498,1,8,0:0:0:0:
224,160,18823,1,0,0:0:0:0:
224,160,19147,1,0,0:0:0:0:
224,160,19471,1,8,0:0:0:0:
224,160,19796,1,0,0:0:0:0:
224,160,20120,1,8,0:0:0:0:
224,160,20444,1,8,0:0:0:0:
224,160,20769,1,0,0:0:0:0:
224,160,20931,1,8,0:0:0:0:
224,160,21093,1,0,0:0:0:0:
224,160,21255,1,0,0:0:0:0:
224,160,21417,1,8,0:0:0:0:
224,160,21579,1,8,0:0:0:0:
224,160,21742,1,0,0:0:0:0:
224,160,21904,1,0,0:0:0:0:
224,160,22066,1,8,0:0:0:0:
224,160,22715,1,0,0:0:0:0:
224,160,22796,1,8,0:0:0:0:
224,160,22877,1,0,0:0:0:0:
224,160,22958,1,8,0:0:0:0:
224,160,23039,1,8,0:0:0:0:
224,160,23120,1,8,0:0:0:0:
224,160,23201,1,0,0:0:0:0:
224,160,23363,1,12,0:0:0:0:
224,160,23525,1,0,0:0:0:0:
224,160,23688,1,0,0:0:0:0:
224,160,23769,1,8,0:0:0:0:
224,160,23850,1,0,0:0:0:0:
224,160,23931,1,0,0:0:0:0:
224,160,24012,1,8,0:0:0:0:
224,160,24093,1,8,0:0:0:0:
224,160,24174,1,8,0:0:0:0:
224,160,24255,1,8,0:0:0:0:
224,160,24336,1,0,0:0:0:0:
224,160,24417,1,0,0:0:0:0:
224,160,24498,1,8,0:0:0:0:
224,160,24661,1,8,0:0:0:0:
224,160,24823,1,0,0:0:0:0:
224,160,24904,1,0,0:0:0:0:
224,160,24985,1,8,0:0:0:0:
224,160,25147,1,0,0:0:0:0:
224,160,25228,1,0,0:0:0:0:
224,160,25309,1,8,0:0:0:0:
224,160,25390,1,8,0:0:0:0:
224,160,25471,1,8,0:0:0:0:
224,160,25552,1,0,0:0:0:0:
224,160,25634,1,8,0:0:0:0:
224,160,25715,1,8,0:0:0:0:
224,160,25796,1,0,0:0:0:0:
224,160,25877,1,8,0:0:0:0:
224,160,25958,1,0,0:0:0:0:
192,160,26120,1,0,0:0:0:0:
224,160,26201,1,0,0:0:0:0:
192,160,26282,1,8,0:0:0:0:
192,160,26444,1,0,0:0:0:0:
224,160,26525,1,8,0:0:0:0:
192,160,26606,1,8,0:0:0:0:
192,160,26769,1,0,0:0:0:0:
224,160,26850,1,8,0:0:0:0:
192,160,26931,1,8,0:0:0:0:
192,160,27012,1,8,0:0:0:0:
224,160,27093,1,0,0:0:0:0:
192,160,27255,1,8,0:0:0:0:
224,160,27336,1,8,0:0:0:0:
224,160,27417,1,0,0:0:0:0:
224,160,27498,1,0,0:0:0:0:
224,160,27579,1,8,0:0:0:0:
192,160,27742,1,8,0:0:0:0:
192,160,27823,1,0,0:0:0:0:
192,160,27904,1,8,0:0:0:0:
192,160,27985,1,8,0:0:0:0:
192,160,28066,1,0,0:0:0:0:
192,160,28147,1,0,0:0:0:0:
192,160,28228,1,8,0:0:0:0:
192,160,28390,1,8,0:0:0:0:
224,160,28552,1,0,0:0:0:0:
224,160,28634,1,0,0:0:0:0:
224,160,28715,1,8,0:0:0:0:
192,160,28796,1,0,0:0:0:0:
192,160,28877,1,8,0:0:0:0:
192,160,29039,1,0,0:0:0:0:
192,160,29201,1,8,0:0:0:0:
192,160,29282,1,0,0:0:0:0:
192,160,29363,1,8,0:0:0:0:
192,160,29525,1,0,0:0:0:0:
192,160,29688,1,8,0:0:0:0:
224,160,29850,1,0,0:0:0:0:
224,160,29931,1,0,0:0:0:0:
224,160,30012,1,8,0:0:0:0:
192,160,30093,1,0,0:0:0:0:
192,160,30174,1,8,0:0:0:0:
192,160,30336,1,0,0:0:0:0:
192,160,30498,1,8,0:0:0:0:
192,160,30579,1,0,0:0:0:0:
192,160,30661,1,8,0:0:0:0:
192,160,30823,1,0,0:0:0:0:
192,192,30985,1,8,0:0:0:0:
160,160,31147,1,8,0:0:0:0:
160,160,31228,1,0,0:0:0:0:
160,160,31309,1,8,0:0:0:0:
160,160,31390,1,8,0:0:0:0:
160,160,31471,1,0,0:0:0:0:
192,160,31634,1,8,0:0:0:0:
160,160,31715,1,8,0:0:0:0:
160,160,31796,1,0,0:0:0:0:
192,192,31877,1,8,0:0:0:0:
160,160,31958,1,0,0:0:0:0:
160,160,32120,1,0,0:0:0:0:
160,160,32282,1,8,0:0:0:0:
160,160,32444,1,8,0:0:0:0:
160,160,32525,1,0,0:0:0:0:
192,160,32606,1,0,0:0:0:0:
192,160,32688,1,0,0:0:0:0:
192,160,32769,1,8,0:0:0:0:
160,160,32850,1,8,0:0:0:0:
192,160,32931,1,0,0:0:0:0:
192,160,33093,1,8,0:0:0:0:
192,160,33174,1,0,0:0:0:0:
192,160,33255,1,8,0:0:0:0:
192,160,33336,1,0,0:0:0:0:
192,160,33417,1,8,0:0:0:0:
192,160,33498,1,8,0:0:0:0:
192,160,33579,1,0,0:0:0:0:
160,160,33742,1,4,0:0:0:0:
192,160,33904,1,0,0:0:0:0:
160,160,33985,1,0,0:0:0:0:
192,160,34066,1,0,0:0:0:0:
192,160,34228,1,8,0:0:0:0:
192,160,34390,1,0,0:0:0:0:
160,160,34471,1,0,0:0:0:0:
192,160,34552,1,8,0:0:0:0:
192,160,34715,1,8,0:0:0:0:
192,160,34796,1,0,0:0:0:0:
192,160,34877,1,8,0:0:0:0:
192,160,35039,1,0,0:0:0:0:
192,160,35201,1,0,0:0:0:0:
224,160,35282,1,0,0:0:0:0:
192,160,35363,1,0,0:0:0:0:
192,160,35525,1,8,0:0:0:0:
192,160,35688,1,0,0:0:0:0:
192,160,35769,1,0,0:0:0:0:
192,160,35850,1,8,0:0:0:0:
192,160,36012,1,8,0:0:0:0:
192,160,36093,1,0,0:0:0:0:
192,160,36174,1,8,0:0:0:0:
160,160,36336,1,0,0:0:0:0:
160,160,36498,1,0,0:0:0:0:
160,160,36579,1,0,0:0:0:0:
160,160,36661,1,0,0:0:0:0:
160,160,36823,1,8,0:0:0:0:
192,160,36985,1,0,0:0:0:0:
192,160,37066,1,0,0:0:0:0:
192,160,37147,1,8,0:0:0:0:
192,160,37309,1,8,0:0:0:0:
192,160,37390,1,0,0:0:0:0:
192,160,37471,1,8,0:0:0:0:
192,160,37634,1,0,0:0:0:0:
192,160,37796,1,0,0:0:0:0:
160,160,37877,1,8,0:0:0:0:
160,160,37958,1,0,0:0:0:0:
192,160,38120,1,8,0:0:0:0:
192,160,38282,1,8,0:0:0:0:
192,160,38363,1,8,0:0:0:0:
192,160,38444,1,0,0:0:0:0:
192,160,38525,1,0,0:0:0:0:
192,160,38606,1,8,0:0:0:0:
192,160,38688,1,0,0:0:0:0:
192,160,38769,1,8,0:0:0:0:
192,160,38931,1,4,0:0:0:0:
224,160,39093,1,8,0:0:0:0:
224,160,39174,1,0,0:0:0:0:
224,160,39255,1,0,0:0:0:0:
160,160,39417,1,8,0:0:0:0:
192,160,39579,1,8,0:0:0:0:
192,160,39661,1,8,0:0:0:0:
192,160,39742,1,8,0:0:0:0:
192,160,39904,1,8,0:0:0:0:
192,160,39985,1,8,0:0:0:0:
192,160,40066,1,8,0:0:0:0:
192,160,40228,1,0,0:0:0:0:
192,160,40390,1,8,0:0:0:0:
192,160,40471,1,0,0:0:0:0:
192,160,40552,1,0,0:0:0:0:
192,160,40715,1,8,0:0:0:0:
192,160,40877,1,8,0:0:0:0:
192,160,40958,1,8,0:0:0:0:
192,160,41039,1,8,0:0:0:0:
192,160,41201,1,8,0:0:0:0:
192,160,41282,1,8,0:0:0:0:
192,160,41363,1,8,0:0:0:0:
192,160,41525,1,0,0:0:0:0:
192,160,41688,1,8,0:0:0:0:
192,160,41769,1,0,0:0:0:0:
192,160,41850,1,0,0:0:0:0:
192,160,42012,1,8,0:0:0:0:
192,160,42174,1,8,0:0:0:0:
192,160,42255,1,8,0:0:0:0:
192,160,42336,1,8,0:0:0:0:
192,160,42498,1,8,0:0:0:0:
192,160,42579,1,8,0:0:0:0:
192,160,42661,1,8,0:0:0:0:
192,160,42823,1,0,0:0:0:0:
192,160,42904,1,0,0:0:0:0:
192,160,42985,1,8,0:0:0:0:
192,160,43066,1,8,0:0:0:0:
192,160,43147,1,0,0:0:0:0:
192,160,43309,1,8,0:0:0:0:
160,160,43471,1,8,0:0:0:0:
160,160,43552,1,8,0:0:0:0:
160,160,43634,1,0,0:0:0:0:
160,160,43715,1,0,0:0:0:0:
160,160,43796,1,8,0:0:0:0:
160,160,43877,1,0,0:0:0:0:
160,160,43958,1,8,0:0:0:0:
160,160,44120,1,4,0:0:0:0:
160,160,45093,1,0,0:0:0:0:
160,160,45255,1,0,0:0:0:0:
160,160,45417,1,8,0:0:0:0:
160,160,45742,1,8,0:0:0:0:
160,160,46066,1,8,0:0:0:0:
160,160,46390,1,8,0:0:0:0:
160,160,47688,1,8,0:0:0:0:
160,160,47850,1,8,0:0:0:0:
160,160,48012,1,8,0:0:0:0:
160,160,48336,1,8,0:0:0:0:
160,160,48661,1,8,0:0:0:0:
160,160,48985,1,8,0:0:0:0:
160,160,50282,1,0,0:0:0:0:
160,160,50444,1,8,0:0:0:0:
160,160,50606,1,8,0:0:0:0:
160,160,50931,1,8,0:0:0:0:
160,128,51255,1,8,0:0:0:0:
160,128,51579,1,8,0:0:0:0:
160,128,52715,1,8,0:0:0:0:
160,128,52877,1,8,0:0:0:0:
160,128,53039,1,8,0:0:0:0:
160,128,53201,1,8,0:0:0:0:
160,128,53525,1,8,0:0:0:0:
160,128,53850,1,0,0:0:0:0:
160,128,54174,1,8,0:0:0:0:
160,128,54498,1,0,0:0:0:0:
160,128,55147,1,0,0:0:0:0:
160,128,55471,1,0,0:0:0:0:
160,128,55634,1,0,0:0:0:0:
160,128,55796,1,8,0:0:0:0:
160,128,56120,1,8,0:0:0:0:
160,128,56444,1,0,0:0:0:0:
160,128,56769,1,8,0:0:0:0:
160,128,57093,1,0,0:0:0:0:
160,128,57742,1,0,0:0:0:0:
160,128,58066,1,8,0:0:0:0:
160,128,58228,1,8,0:0:0:0:
160,128,58390,1,8,0:0:0:0:
160,128,58715,1,8,0:0:0:0:
160,128,59039,1,0,0:0:0:0:
160,128,59363,1,8,0:0:0:0:
160,128,59688,1,0,0:0:0:0:
161,102,60012,1,0,0:0:0:0:
160,96,60336,1,0,0:0:0:0:
160,96,60661,1,0,0:0:0:0:
160,96,60823,1,0,0:0:0:0:
160,96,60985,1,8,0:0:0:0:
160,96,61147,1,0,0:0:0:0:
160,96,61309,1,8,0:0:0:0:
160,96,61471,1,0,0:0:0:0:
160,96,61634,1,8,0:0:0:0:
160,96,61796,1,0,0:0:0:0:
160,96,61958,1,8,0:0:0:0:
160,96,62282,1,0,0:0:0:0:
160,96,62444,1,0,0:0:0:0:
160,96,62606,1,8,0:0:0:0:
160,96,62769,1,0,0:0:0:0:
160,96,62850,1,0,0:0:0:0:
160,96,62931,1,8,0:0:0:0:
160,96,63012,1,8,0:0:0:0:
160,96,63093,1,8,0:0:0:0:
160,96,63255,1,8,0:0:0:0:
160,96,63417,1,0,0:0:0:0:
160,96,63579,1,0,0:0:0:0:
160,96,63661,1,0,0:0:0:0:
160,96,63742,1,8,0:0:0:0:
160,96,63904,1,0,0:0:0:0:
160,96,63985,1,0,0:0:0:0:
160,96,64066,1,8,0:0:0:0:
160,96,64228,1,0,0:0:0:0:
160,96,64309,1,0,0:0:0:0:
160,96,64390,1,8,0:0:0:0:
160,96,64471,1,0,0:0:0:0:
160,96,64552,1,8,0:0:0:0:
160,96,64634,1,8,0:0:0:0:
160,96,64715,1,0,0:0:0:0:
160,96,64877,1,12,0:0:0:0:
160,128,65201,1,0,0:0:0:0:
160,96,65363,1,12,0:0:0:0:
160,96,65688,1,0,0:0:0:0:
160,96,65769,1,0,0:0:0:0:
160,96,65850,1,8,0:0:0:0:
160,96,65931,1,0,0:0:0:0:
160,96,66012,1,0,0:0:0:0:
160,96,66174,1,12,0:0:0:0:
160,96,66498,1,0,0:0:0:0:
160,96,66661,1,12,0:0:0:0:
160,96,66985,1,8,0:0:0:0:
160,96,67066,1,8,0:0:0:0:
160,96,67147,1,0,0:0:0:0:
160,96,67228,1,8,0:0:0:0:
160,96,67309,1,8,0:0:0:0:
160,96,67471,1,12,0:0:0:0:
160,128,67796,1,0,0:0:0:0:
160,96,67958,1,12,0:0:0:0:
160,96,68282,1,8,0:0:0:0:
160,96,68363,1,8,0:0:0:0:
160,96,68444,1,0,0:0:0:0:
160,96,68525,1,0,0:0:0:0:
160,96,68606,1,8,0:0:0:0:
160,128,68769,1,8,0:0:0:0:
160,128,68850,1,8,0:0:0:0:
160,128,68931,1,0,0:0:0:0:
160,96,69012,1,8,0:0:0:0:
160,96,69093,1,0,0:0:0:0:
160,96,69174,1,0,0:0:0:0:
160,96,69255,1,8,0:0:0:0:
160,96,69336,1,0,0:0:0:0:
160,96,69417,1,8,0:0:0:0:
128,96,69498,1,8,0:0:0:0:
192,128,69579,1,0,0:0:0:0:
160,96,69661,1,8,0:0:0:0:
160,96,69742,1,0,0:0:0:0:
160,96,69823,1,0,0:0:0:0:
160,96,69904,1,8,0:0:0:0:
160,96,70066,1,12,0:0:0:0:
160,96,70228,1,0,0:0:0:0:
160,96,70309,1,0,0:0:0:0:
160,96,70390,1,0,0:0:0:0:
160,96,70552,1,12,0:0:0:0:
160,64,70877,1,0,0:0:0:0:
160,64,70958,1,0,0:0:0:0:
160,64,71039,1,8,0:0:0:0:
160,64,71120,1,0,0:0:0:0:
160,64,71201,1,0,0:0:0:0:
160,64,71363,1,12,0:0:0:0:
160,96,71525,1,0,0:0:0:0:
160,96,71606,1,0,0:0:0:0:
160,64,71688,1,0,0:0:0:0:
160,64,71850,1,12,0:0:0:0:
160,64,72174,1,8,0:0:0:0:
160,64,72255,1,8,0:0:0:0:
160,64,72336,1,0,0:0:0:0:
160,64,72417,1,8,0:0:0:0:
160,64,72498,1,8,0:0:0:0:
160,64,72661,1,12,0:0:0:0:
160,96,72823,1,0,0:0:0:0:
160,96,72904,1,0,0:0:0:0:
160,64,72985,1,0,0:0:0:0:
160,64,73147,1,12,0:0:0:0:
160,96,73471,1,8,0:0:0:0:
160,64,73552,1,8,0:0:0:0:
160,64,73634,1,0,0:0:0:0:
160,64,73715,1,0,0:0:0:0:
160,64,73796,1,8,0:0:0:0:
160,96,73958,1,8,0:0:0:0:
160,96,74039,1,8,0:0:0:0:
160,96,74120,1,0,0:0:0:0:
160,96,74201,1,0,0:0:0:0:
160,96,74282,1,8,0:0:0:0:
160,96,74363,1,0,0:0:0:0:
160,96,74444,1,0,0:0:0:0:
160,96,74525,1,0,0:0:0:0:
160,96,74606,1,8,0:0:0:0:
160,96,74688,1,8,0:0:0:0:
160,96,74769,1,0,0:0:0:0:
160,96,74850,1,0,0:0:0:0:
160,96,74931,1,8,0:0:0:0:
160,96,75012,1,0,0:0:0:0:
160,96,75093,1,8,0:0:0:0:
160,96,75255,1,4,0:0:0:0:
160,96,75579,1,8,0:0:0:0:
160,96,75904,1,8,0:0:0:0:
160,96,76228,1,8,0:0:0:0:
160,96,76552,1,0,0:0:0:0:
160,96,76877,1,8,0:0:0:0:
160,96,77201,1,8,0:0:0:0:
160,96,77525,1,8,0:0:0:0:
160,96,77850,1,0,0:0:0:0:
160,96,78012,1,0,0:0:0:0:
160,96,78174,1,8,0:0:0:0:
160,96,78498,1,0,0:0:0:0:
160,96,78823,1,0,0:0:0:0:
160,96,78985,1,8,0:0:0:0:
160,96,79147,1,0,0:0:0:0:
160,128,79309,1,0,0:0:0:0:
160,96,79471,1,8,0:0:0:0:
128,96,79634,1,8,0:0:0:0:
160,128,79715,1,0,0:0:0:0:
160,96,79796,1,8,0:0:0:0:
160,128,79877,1,0,0:0:0:0:
160,96,79958,1,0,0:0:0:0:
160,96,80039,1,8,0:0:0:0:
160,96,80120,1,0,0:0:0:0:
160,128,80201,1,0,0:0:0:0:
160,128,80282,1,8,0:0:0:0:
160,96,80444,1,12,0:0:0:0:
160,96,80606,1,0,0:0:0:0:
160,96,80688,1,8,0:0:0:0:
160,96,80769,1,0,0:0:0:0:
160,96,80850,1,0,0:0:0:0:
160,96,80931,1,8,0:0:0:0:
128,96,81093,1,0,0:0:0:0:
160,96,81255,1,8,0:0:0:0:
128,96,81336,1,8,0:0:0:0:
128,96,81417,1,0,0:0:0:0:
128,96,81579,1,8,0:0:0:0:
160,96,81742,1,4,0:0:0:0:
160,96,81904,1,0,0:0:0:0:
160,96,81985,1,0,0:0:0:0:
160,96,82066,1,8,0:0:0:0:
192,96,82147,1,8,0:0:0:0:
160,128,82228,1,0,0:0:0:0:
160,96,82390,1,8,0:0:0:0:
160,96,82552,1,0,0:0:0:0:
160,128,82634,1,0,0:0:0:0:
160,96,82715,1,8,0:0:0:0:
160,128,82877,1,8,0:0:0:0:
160,128,83039,1,12,0:0:0:0:
128,96,83201,1,8,0:0:0:0:
160,96,83282,1,8,0:0:0:0:
160,96,83363,1,0,0:0:0:0:
160,96,83444,1,0,0:0:0:0:
160,96,83525,1,8,0:0:0:0:
160,96,83688,1,0,0:0:0:0:
160,96,83769,1,0,0:0:0:0:
160,96,83850,1,8,0:0:0:0:
160,96,83931,1,0,0:0:0:0:
128,96,84012,1,8,0:0:0:0:
128,96,84093,1,8,0:0:0:0:
160,96,84174,1,0,0:0:0:0:
160,96,84336,1,4,0:0:0:0:
160,96,84498,1,8,0:0:0:0:
160,96,84579,1,8,0:0:0:0:
160,96,84661,1,0,0:0:0:0:
160,96,84742,1,0,0:0:0:0:
160,96,84823,1,8,0:0:0:0:
160,96,84985,1,8,0:0:0:0:
160,96,85066,1,0,0:0:0:0:
160,96,85147,1,8,0:0:0:0:
160,96,85228,1,8,0:0:0:0:
160,96,85309,1,0,0:0:0:0:
160,96,85390,1,0,0:0:0:0:
160,96,85471,1,8,0:0:0:0:
160,96,85634,1,8,0:0:0:0:
160,96,85715,1,8,0:0:0:0:
160,96,85796,1,0,0:0:0:0:
128,96,85877,1,0,0:0:0:0:
128,96,85958,1,8,0:0:0:0:
128,96,86039,1,0,0:0:0:0:
128,96,86120,1,8,0:0:0:0:
128,96,86201,1,8,0:0:0:0:
160,96,86282,1,0,0:0:0:0:
160,96,86363,1,8,0:0:0:0:
160,96,86444,1,0,0:0:0:0:
160,96,86525,1,0,0:0:0:0:
160,96,86606,1,8,0:0:0:0:
160,96,86688,1,8,0:0:0:0:
160,96,86769,1,0,0:0:0:0:
160,96,86931,1,12,0:0:0:0:
160,96,88228,1,12,0:0:0:0:
160,96,88390,1,8,0:0:0:0:
160,96,88471,1,8,0:0:0:0:
160,96,88552,1,0,0:0:0:0:
160,96,88715,1,8,0:0:0:0:
128,96,88877,1,0,0:0:0:0:
128,96,88958,1,8,0:0:0:0:
128,96,89039,1,0,0:0:0:0:
160,96,89120,1,0,0:0:0:0:
192,128,89201,1,8,0:0:0:0:
160,96,89363,1,0,0:0:0:0:
160,96,89525,1,8,0:0:0:0:
160,96,89688,1,0,0:0:0:0:
160,96,89769,1,0,0:0:0:0:
160,96,89850,1,8,0:0:0:0:
128,96,90012,1,0,0:0:0:0:
160,96,90174,1,8,0:0:0:0:
160,96,90336,1,8,0:0:0:0:
160,96,90417,1,8,0:0:0:0:
160,96,90498,1,8,0:0:0:0:
160,96,90661,1,8,0:0:0:0:
160,96,90823,1,0,0:0:0:0:
160,96,90985,1,8,0:0:0:0:
128,128,91066,1,0,0:0:0:0:
160,96,91147,1,8,0:0:0:0:
128,128,91228,1,0,0:0:0:0:
160,96,91309,1,8,0:0:0:0:
160,96,91471,1,0,0:0:0:0:
160,96,91634,1,0,0:0:0:0:
192,96,91715,1,0,0:0:0:0:
160,96,91796,1,8,0:0:0:0:
160,96,91877,1,8,0:0:0:0:
128,96,91958,1,0,0:0:0:0:
160,96,92120,1,0,0:0:0:0:
186,132,92363,1,0,0:0:0:0:
160,96,92444,1,8,0:0:0:0:
168,120,92606,1,8,0:0:0:0:
160,96,92769,1,8,0:0:0:0:
160,96,92850,1,0,0:0:0:0:
160,96,92931,1,0,0:0:0:0:
171,118,93012,1,0,0:0:0:0:
160,96,93093,1,8,0:0:0:0:
160,96,93255,1,0,0:0:0:0:
160,96,93417,1,8,0:0:0:0:
128,96,93579,1,8,0:0:0:0:
184,112,93661,1,8,0:0:0:0:
128,96,93742,1,0,0:0:0:0:
128,96,93904,1,8,0:0:0:0:
160,96,94066,1,0,0:0:0:0:
160,96,94147,1,0,0:0:0:0:
160,96,94228,1,8,0:0:0:0:
160,96,94309,1,0,0:0:0:0:
160,96,94390,1,8,0:0:0:0:
160,96,94552,1,8,0:0:0:0:
160,96,94715,1,0,0:0:0:0:
160,96,94796,1,0,0:0:0:0:
160,96,94877,1,0,0:0:0:0:
160,96,94958,1,8,0:0:0:0:
160,96,95039,1,0,0:0:0:0:
160,96,95201,1,8,0:0:0:0:
160,96,95282,1,0,0:0:0:0:
160,96,95363,1,0,0:0:0:0:
160,96,95444,1,0,0:0:0:0:
160,96,95525,1,8,0:0:0:0:
160,128,95688,1,0,0:0:0:0:
160,96,95850,1,8,0:0:0:0:
160,64,95931,1,0,0:0:0:0:
160,96,96012,1,8,0:0:0:0:
160,128,96174,1,0,0:0:0:0:
128,96,96336,1,8,0:0:0:0:
160,96,96498,1,8,0:0:0:0:
160,96,96579,1,0,0:0:0:0:
160,96,96661,1,0,0:0:0:0:
160,96,96823,1,0,0:0:0:0:
160,96,96985,1,8,0:0:0:0:
160,96,97066,1,8,0:0:0:0:
160,96,97147,1,8,0:0:0:0:
160,96,97309,1,4,0:0:0:0:
128,96,97471,1,0,0:0:0:0:
128,96,97552,1,8,0:0:0:0:
128,96,97634,1,0,0:0:0:0:
128,96,97715,1,0,0:0:0:0:
160,96,97796,1,8,0:0:0:0:
160,96,97958,1,12,0:0:0:0:
128,96,98120,1,0,0:0:0:0:
128,96,98201,1,0,0:0:0:0:
128,96,98282,1,0,0:0:0:0:
160,96,98444,1,12,0:0:0:0:
160,96,98931,1,12,0:0:0:0:
160,96,99255,1,8,0:0:0:0:
160,96,99417,1,0,0:0:0:0:
160,96,99498,1,8,0:0:0:0:
160,96,99579,1,8,0:0:0:0:
160,96,99661,1,8,0:0:0:0:
160,96,99742,1,0,0:0:0:0:
160,96,99904,1,0,0:0:0:0:
160,96,99985,1,8,0:0:0:0:
160,96,100066,1,0,0:0:0:0:
160,96,100147,1,0,0:0:0:0:
160,96,100228,1,8,0:0:0:0:
160,96,100309,1,8,0:0:0:0:
160,96,100390,1,0,0:0:0:0:
160,96,100552,1,8,0:0:0:0:
160,96,100634,1,8,0:0:0:0:
160,96,100715,1,0,0:0:0:0:
160,96,100796,1,0,0:0:0:0:
160,96,100877,1,8,0:0:0:0:
160,96,100958,1,0,0:0:0:0:
160,96,101039,1,8,0:0:0:0:
160,96,101201,1,4,0:0:0:0:
160,96,101363,1,8,0:0:0:0:
160,96,101444,1,0,0:0:0:0:
160,96,101525,1,0,0:0:0:0:
160,96,101688,1,12,0:0:0:0:
160,96,101850,1,0,0:0:0:0:
160,96,101931,1,8,0:0:0:0:
160,96,102012,1,0,0:0:0:0:
160,96,102174,1,12,0:0:0:0:
119,116,102336,1,0,0:0:0:0:
160,96,102498,1,8,0:0:0:0:
160,96,102579,1,0,0:0:0:0:
160,96,102661,1,8,0:0:0:0:
160,96,102742,1,8,0:0:0:0:
160,96,102823,1,0,0:0:0:0:
160,96,102904,1,8,0:0:0:0:
160,96,102985,1,0,0:0:0:0:
160,96,103066,1,0,0:0:0:0:
160,96,103147,1,8,0:0:0:0:
160,96,103228,1,0,0:0:0:0:
160,96,103309,1,8,0:0:0:0:
175,109,103390,1,8,0:0:0:0:
175,109,103471,1,0,0:0:0:0:
160,96,103634,1,12,0:0:0:0:
160,96,103958,1,0,0:0:0:0:
160,96,104120,1,8,0:0:0:0:
160,96,104282,1,0,0:0:0:0:
160,96,104444,1,8,0:0:0:0:
160,96,104525,1,8,0:0:0:0:
160,96,104606,1,0,0:0:0:0:
160,96,104768,1,0,0:0:0:0:
160,96,104931,1,12,0:0:0:0:
160,128,105255,1,0,0:0:0:0:
160,128,105417,1,8,0:0:0:0:
160,128,105579,1,0,0:0:0:0:
160,128,105742,1,8,0:0:0:0:
160,128,105823,1,8,0:0:0:0:
160,128,105904,1,0,0:0:0:0:
128,128,105985,1,8,0:0:0:0:
160,128,106066,1,0,0:0:0:0:
160,128,106228,1,12,0:0:0:0:
128,128,106552,1,0,0:0:0:0:
128,128,106715,1,8,0:0:0:0:
160,128,106796,1,8,0:0:0:0:
160,128,106877,1,0,0:0:0:0:
160,128,107039,1,8,0:0:0:0:
160,128,107120,1,8,0:0:0:0:
128,128,107201,1,0,0:0:0:0:
160,128,107282,1,8,0:0:0:0:
128,128,107363,1,0,0:0:0:0:
128,128,107525,1,12,0:0:0:0:
128,128,107850,1,0,0:0:0:0:
128,128,107931,1,0,0:0:0:0:
128,128,108012,1,8,0:0:0:0:
128,128,108174,1,0,0:0:0:0:
128,128,108336,1,8,0:0:0:0:
160,128,108417,1,0,0:0:0:0:
128,128,108498,1,8,0:0:0:0:
128,96,108579,1,8,0:0:0:0:
160,128,108661,1,0,0:0:0:0:
128,128,108823,1,12,0:0:0:0:
160,128,109147,1,0,0:0:0:0:
128,128,109309,1,0,0:0:0:0:
128,128,109390,1,0,0:0:0:0:
128,128,109471,1,8,0:0:0:0:
64,192,109552,1,0,0:0:0:0:
64,224,109634,1,8,0:0:0:0:
32,224,109715,1,8,0:0:0:0:
224,192,109796,1,0,0:0:0:0:
224,192,109877,1,0,0:0:0:0:
224,192,109958,1,8,0:0:0:0:
224,192,110120,1,12,0:0:0:0:
275,206,110444,1,8,0:0:0:0:
224,192,110606,1,8,0:0:0:0:
224,192,110688,1,0,0:0:0:0:
224,192,110769,1,8,0:0:0:0:
224,192,110850,1,8,0:0:0:0:
224,192,110931,1,0,0:0:0:0:
224,192,111012,1,0,0:0:0:0:
224,192,111093,1,8,0:0:0:0:
224,192,111174,1,0,0:0:0:0:
224,192,111255,1,8,0:0:0:0:
224,192,111417,1,12,0:0:0:0:
224,192,111742,1,12,0:0:0:0:
224,192,111904,1,12,0:0:0:0:
224,192,112066,1,12,0:0:0:0:
224,192,112228,1,12,0:0:0:0:
224,192,112471,1,12,0:0:0:0:
224,192,112715,1,4,0:0:0:0:
256,192,112877,12,0,113850,0:0:0:0:
224,192,114174,5,4,0:0:0:0:
192,192,115471,1,8,0:0:0:0:
192,192,116769,1,0,0:0:0:0:
192,192,118066,1,8,0:0:0:0:
192,192,118806,1,0,0:0:0:0:
192,192,119547,1,8,0:0:0:0:
192,192,120917,1,0,0:0:0:0:
192,192,122439,1,8,0:0:0:0:
192,192,124590,1,0,0:0:0:0:
