osu file format v14

[General]
AudioFilename: -+.mp3
AudioLeadIn: 0
PreviewTime:86931
Countdown: 0
SampleSet: Soft
StackLeniency: 0.7
Mode: 3
LetterboxInBreaks: 0
WidescreenStoryboard: 1
EpilepsyWarning: 1
SpecialStyle: 0

[Editor]
Bookmarks: 31144
DistanceSpacing: 0.5
BeatDivisor: 4
GridSize: 4
TimelineZoom: 1.1

[Metadata]
Title:-+
TitleUnicode:-+
Artist:daisan
ArtistUnicode:daisan
Creator:Starfy
Version:hk's 4K Normal
Source:BOF2013
Tags:minus plus konzertsaal - THE BMS OF FIGHTERS 2013 Dirt Art Color Teller xellox piano StarForYou Kyle Y IamKwaN happy623 -N_a_n_a_k_o- Nanako Kencho Chaoslitz [ Drop ] choikapo Regou Rizia Kawaiwkyik Nakano Itsuki StarrStyx Prophecy aabc271 Nardoxyribonucleic Skylish ll-oscar autofanboy alienflybot hokin1995 pwhk hong kong hk muse dash electronic instrumental
BeatmapID:883088
BeatmapSetID:389617

[Difficulty]
HPDrainRate:7
CircleSize:4
OverallDifficulty:7
ApproachRate:8
SliderMultiplier:1.2
SliderTickRate:1

[Events]
//Background and Video events
0,0,"BG.png",0,0
//Break Periods
//Storyboard Layer 0 (Background)
//Storyboard Layer 1 (Fail)
//Storyboard Layer 2 (Pass)
//Storyboard Layer 3 (Foreground)
//Storyboard Layer 4 (Overlay)
//Storyboard Sound Samples

[TimingPoints]
2607,324.324324324324,4,2,1,20,1,0
23363,-100,4,2,1,20,0,1
33742,-100,4,2,1,20,0,0
86931,-100,4,2,1,20,0,1
114012,-100,4,2,1,20,0,1
114174,-100,4,2,1,20,0,0
118066,370.37037037037,4,2,1,20,1,0
119547,379.746835443038,4,2,1,20,1,0
120917,413.793103448276,4,2,1,20,1,0
122439,491.803278688525,4,2,1,20,1,0

[Colours]
Combo1 : 41,214,166
Combo2 : 128,0,255
Combo3 : 128,255,255
Combo4 : 3,90,252

[HitObjects]
64,192,2607,5,0,0:0:0:0:
448,192,2607,1,0,0:0:0:0:
192,192,3255,1,0,0:0:0:0:
320,192,3904,1,0,0:0:0:0:
448,192,4552,1,0,0:0:0:0:
64,192,5201,1,0,0:0:0:0:
320,192,5201,1,0,0:0:0:0:
192,192,6498,1,0,0:0:0:0:
320,192,6498,1,0,0:0:0:0:
192,192,7796,1,0,0:0:0:0:
448,192,7796,1,0,0:0:0:0:
320,192,8444,1,0,0:0:0:0:
192,192,9093,1,0,0:0:0:0:
64,192,9742,1,0,0:0:0:0:
448,192,10390,1,0,0:0:0:0:
320,192,10390,1,0,0:0:0:0:
64,192,11688,1,0,0:0:0:0:
192,192,11688,1,0,0:0:0:0:
64,192,12985,1,0,0:0:0:0:
448,192,12985,1,0,0:0:0:0:
192,192,13634,1,0,0:0:0:0:
320,192,14282,1,0,0:0:0:0:
448,192,14931,1,0,0:0:0:0:
64,192,15579,1,0,0:0:0:0:
320,192,15579,1,0,0:0:0:0:
192,192,16228,1,0,0:0:0:0:
448,192,16877,1,0,0:0:0:0:
64,192,16877,1,0,0:0:0:0:
320,192,17525,1,0,0:0:0:0:
192,192,18174,1,0,0:0:0:0:
448,192,18174,1,0,0:0:0:0:
64,192,18498,1,0,0:0:0:0:
192,192,18823,1,0,0:0:0:0:
448,192,19147,1,0,0:0:0:0:
320,192,19471,1,0,0:0:0:0:
192,192,19796,1,0,0:0:0:0:
64,192,20120,1,0,0:0:0:0:
320,192,20444,1,0,0:0:0:0:
448,192,20769,1,0,0:0:0:0:
192,192,20769,1,0,0:0:0:0:
64,192,20931,1,0,0:0:0:0:
320,192,21093,1,0,0:0:0:0:
192,192,21255,1,0,0:0:0:0:
448,192,21417,1,0,0:0:0:0:
64,192,21579,1,0,0:0:0:0:
192,192,21742,1,0,0:0:0:0:
448,192,21904,1,0,0:0:0:0:
320,192,22066,1,0,0:0:0:0:
64,192,22066,128,0,22715:0:0:0:0:
448,192,22715,128,0,23363:0:0:0:0:
320,192,23039,128,0,23363:0:0:0:0:
64,192,23363,1,4,0:0:0:0:
192,192,23525,1,4,0:0:0:0:
320,192,23688,1,8,0:0:0:0:
192,192,24174,1,4,0:0:0:0:
320,192,24336,1,8,0:0:0:0:
448,192,24661,1,4,0:0:0:0:
320,192,24823,1,4,0:0:0:0:
192,192,24985,1,8,0:0:0:0:
64,192,25228,1,4,0:0:0:0:
320,192,25471,1,4,0:0:0:0:
192,192,25634,1,8,0:0:0:0:
448,192,25877,1,4,0:0:0:0:
64,192,25958,1,4,0:0:0:0:
192,192,26120,1,4,0:0:0:0:
320,192,26282,1,8,0:0:0:0:
64,192,26525,1,0,0:0:0:0:
320,192,26769,1,4,0:0:0:0:
192,192,26931,1,8,0:0:0:0:
448,192,27255,1,4,0:0:0:0:
192,192,27498,1,4,0:0:0:0:
320,192,27579,1,8,0:0:0:0:
64,192,27742,128,0,28228:0:0:0:20:normal-hitnormal.wav
192,192,28228,1,8,0:0:0:0:
448,192,28390,1,8,0:0:0:0:
64,192,28471,1,8,0:0:0:0:
448,192,28552,1,8,0:0:0:0:
320,192,28715,1,4,0:0:0:0:
192,192,28877,1,8,0:0:0:0:
320,192,29363,1,4,0:0:0:0:
192,192,29525,1,8,0:0:0:0:
64,192,29850,1,4,0:0:0:0:
192,192,30012,1,4,0:0:0:0:
320,192,30174,1,8,0:0:0:0:
448,192,30417,1,4,0:0:0:0:
192,192,30661,1,4,0:0:0:0:
320,192,30823,1,8,0:0:0:0:
448,192,31066,1,4,0:0:0:0:
64,192,31147,1,4,0:0:0:0:
192,192,31309,1,8,0:0:0:0:
320,192,31471,1,4,0:0:0:0:
448,192,31715,1,4,0:0:0:0:
192,192,31958,1,4,0:0:0:0:
320,192,32120,1,8,0:0:0:0:
64,192,32282,1,0,0:0:0:20:normal-hitnormal.wav
192,192,32363,1,8,0:0:0:0:
320,192,32444,1,4,0:0:0:0:
448,192,32444,128,4,33093:0:0:0:0:
192,192,33093,1,0,0:0:0:20:normal-hitnormal.wav
64,192,33093,128,0,33742:0:0:0:20:normal-hitnormal.wav
448,192,33742,5,0,0:0:0:20:normal-hitnormal.wav
192,192,33742,1,4,0:0:0:0:
320,192,33904,1,4,0:0:0:0:
64,192,34066,1,8,0:0:0:0:
192,192,34228,1,0,0:0:0:0:
448,192,34390,1,0,0:0:0:0:
320,192,34552,1,4,0:0:0:0:
192,192,34715,1,8,0:0:0:0:
64,192,34877,1,0,0:0:0:20:normal-hitnormal.wav
192,192,35039,1,4,0:0:0:0:
320,192,35039,1,0,0:0:0:20:normal-hitnormal.wav
448,192,35201,1,4,0:0:0:0:
64,192,35363,1,8,0:0:0:0:
320,192,35525,1,0,0:0:0:20:normal-hitnormal.wav
448,192,35688,1,0,0:0:0:20:normal-hitnormal.wav
192,192,35850,1,4,0:0:0:0:
320,192,36012,1,8,0:0:0:0:
64,192,36174,1,0,0:0:0:20:normal-hitnormal.wav
448,192,36336,1,0,0:0:0:20:normal-hitnormal.wav
320,192,36336,1,4,0:0:0:0:
192,192,36498,1,4,0:0:0:0:
320,192,36661,1,8,0:0:0:0:
64,192,36823,1,0,0:0:0:20:normal-hitnormal.wav
320,192,36985,1,0,0:0:0:20:normal-hitnormal.wav
192,192,37147,1,4,0:0:0:0:
448,192,37309,1,8,0:0:0:0:
320,192,37471,1,0,0:0:0:20:normal-hitnormal.wav
64,192,37634,1,4,0:0:0:0:
448,192,37634,1,0,0:0:0:20:normal-hitnormal.wav
192,192,37796,1,0,0:0:0:20:normal-hitnormal.wav
448,192,37958,5,8,0:0:0:0:
320,192,38120,1,4,0:0:0:0:
192,192,38282,1,4,0:0:0:0:
64,192,38444,1,4,0:0:0:0:
320,192,38606,1,8,0:0:0:0:
448,192,38769,1,8,0:0:0:0:
320,192,38931,5,0,0:0:0:20:normal-hitnormal.wav
64,192,38931,1,4,0:0:0:0:
448,192,39093,1,4,0:0:0:0:
192,192,39255,1,8,0:0:0:0:
64,192,39417,1,0,0:0:0:20:normal-hitnormal.wav
320,192,39579,1,0,0:0:0:0:
192,192,39742,1,4,0:0:0:0:
448,192,39904,1,8,0:0:0:0:
64,192,40066,1,0,0:0:0:20:normal-hitnormal.wav
192,192,40228,1,4,0:0:0:0:
320,192,40228,1,0,0:0:0:20:normal-hitnormal.wav
448,192,40390,1,4,0:0:0:0:
64,192,40552,1,8,0:0:0:0:
320,192,40715,1,0,0:0:0:20:normal-hitnormal.wav
448,192,40877,1,0,0:0:0:20:normal-hitnormal.wav
192,192,41039,1,4,0:0:0:0:
320,192,41201,1,8,0:0:0:0:
64,192,41363,1,0,0:0:0:20:normal-hitnormal.wav
448,192,41525,1,0,0:0:0:20:normal-hitnormal.wav
320,192,41525,1,4,0:0:0:0:
192,192,41688,1,4,0:0:0:0:
320,192,41850,1,8,0:0:0:0:
64,192,42012,1,8,0:0:0:0:
320,192,42174,1,8,0:0:0:0:
192,192,42336,1,8,0:0:0:0:
448,192,42498,1,8,0:0:0:0:
320,192,42661,1,8,0:0:0:0:
64,192,42823,5,8,0:0:0:0:
192,192,42823,1,8,0:0:0:0:
320,192,42985,1,8,0:0:0:0:
448,192,43147,1,8,0:0:0:0:
64,192,43309,1,8,0:0:0:0:
192,192,43471,1,8,0:0:0:0:
320,192,43634,1,8,0:0:0:0:
448,192,43796,1,8,0:0:0:0:
192,192,43958,1,8,0:0:0:0:
448,192,44120,1,4,0:0:0:0:
64,192,44120,1,4,0:0:0:0:
64,192,45093,1,0,0:0:0:0:
448,192,45255,1,0,0:0:0:0:
192,192,45417,1,0,0:0:0:0:
320,192,45742,1,0,0:0:0:0:
192,192,46066,1,0,0:0:0:0:
64,192,46390,1,0,0:0:0:0:
448,192,47688,1,0,0:0:0:0:
64,192,47850,1,0,0:0:0:0:
320,192,48012,1,0,0:0:0:0:
192,192,48336,1,0,0:0:0:0:
320,192,48661,1,0,0:0:0:0:
448,192,48985,1,0,0:0:0:0:
192,192,50282,1,0,0:0:0:0:
448,192,50444,1,0,0:0:0:0:
320,192,50606,1,0,0:0:0:0:
64,192,50931,1,0,0:0:0:0:
192,192,51255,1,0,0:0:0:0:
320,192,51579,1,0,0:0:0:0:
64,192,52715,1,0,0:0:0:0:
320,192,52877,1,0,0:0:0:0:
192,192,53039,1,0,0:0:0:0:
448,192,53201,1,0,0:0:0:0:
320,192,53525,1,0,0:0:0:0:
192,192,53850,1,0,0:0:0:0:
64,192,54174,1,0,0:0:0:0:
448,192,55471,1,0,0:0:0:0:
64,192,55634,1,0,0:0:0:0:
320,192,55796,1,0,0:0:0:0:
192,192,56120,1,0,0:0:0:0:
320,192,56444,1,0,0:0:0:0:
448,192,56769,1,0,0:0:0:0:
448,192,58066,1,0,0:0:0:0:
64,192,58228,1,0,0:0:0:0:
320,192,58390,1,0,0:0:0:0:
192,192,58715,1,0,0:0:0:0:
320,192,59039,1,0,0:0:0:0:
448,192,59363,1,0,0:0:0:0:
320,192,60661,1,0,0:0:0:0:
64,192,60823,1,0,0:0:0:0:
192,192,60985,1,0,0:0:0:0:
448,192,61309,1,0,0:0:0:0:
320,192,61634,1,0,0:0:0:0:
192,192,61958,1,0,0:0:0:0:
64,192,62282,1,0,0:0:0:0:
320,192,62444,1,0,0:0:0:0:
192,192,62606,1,0,0:0:0:0:
448,192,62769,1,0,0:0:0:0:
192,192,62931,1,0,0:0:0:0:
320,192,63093,1,0,0:0:0:0:
64,192,63255,1,0,0:0:0:0:
448,192,63417,1,0,0:0:0:0:
320,192,63579,1,0,0:0:0:0:
192,192,63579,128,0,64228:0:0:0:0:
448,192,64228,128,0,64877:0:0:0:0:
64,192,64228,1,0,0:0:0:0:
320,192,64877,1,4,0:0:0:0:
64,192,65363,5,4,0:0:0:0:
192,192,65363,1,4,0:0:0:0:
448,192,65688,128,0,66174:0:0:0:0:
64,192,66174,1,4,0:0:0:0:
192,192,66661,1,4,0:0:0:0:
320,192,66661,1,4,0:0:0:0:
64,192,66985,128,0,67471:0:0:0:0:
448,192,67471,1,4,0:0:0:0:
192,192,67958,1,4,0:0:0:0:
64,192,67958,1,4,0:0:0:0:
320,192,68282,128,0,68769:0:0:0:0:
448,192,68769,1,4,0:0:0:0:
192,192,68769,128,4,69417:0:0:0:0:
64,192,69417,128,4,70066:0:0:0:0:
320,192,69417,1,4,0:0:0:0:
192,192,70066,1,4,0:0:0:0:
448,192,70552,5,4,0:0:0:0:
320,192,70552,1,4,0:0:0:0:
64,192,70877,128,0,71363:0:0:0:0:
448,192,71363,1,4,0:0:0:0:
192,192,71850,1,4,0:0:0:0:
320,192,71850,1,4,0:0:0:0:
448,192,72174,128,0,72661:0:0:0:0:
64,192,72661,1,4,0:0:0:0:
448,192,73147,1,4,0:0:0:0:
320,192,73147,1,4,0:0:0:0:
192,192,73471,128,0,73958:0:0:0:0:
320,192,73958,128,4,74606:0:0:0:0:
64,192,73958,1,4,0:0:0:0:
448,192,74606,128,4,75255:0:0:0:0:
192,192,74606,1,4,0:0:0:0:
320,192,75255,1,4,0:0:0:0:
192,192,75579,1,4,0:0:0:0:
64,192,75904,1,4,0:0:0:0:
192,192,76228,1,4,0:0:0:0:
448,192,76552,1,0,0:0:0:20:normal-hitnormal.wav
320,192,76552,1,4,0:0:0:0:
192,192,76877,1,4,0:0:0:0:
64,192,77201,1,4,0:0:0:0:
448,192,77525,1,4,0:0:0:0:
320,192,77688,1,8,0:0:0:0:
192,192,77850,1,0,0:0:0:20:normal-hitnormal.wav
64,192,77850,1,4,0:0:0:0:
320,192,78174,1,8,0:0:0:0:
192,192,78498,1,4,0:0:0:0:
448,192,78498,1,0,0:0:0:20:normal-hitnormal.wav
64,192,78823,1,4,0:0:0:0:
192,192,78985,1,8,0:0:0:0:
448,192,79147,1,0,0:0:0:20:normal-hitnormal.wav
320,192,79147,1,4,0:0:0:0:
192,192,79471,1,8,0:0:0:0:
448,192,79634,1,8,0:0:0:0:
64,192,79715,1,8,0:0:0:0:
448,192,79796,1,4,0:0:0:0:
64,192,80039,1,8,0:0:0:0:
448,192,80120,1,4,0:0:0:0:
320,192,80282,1,8,0:0:0:0:
192,192,80444,1,0,0:0:0:20:normal-hitnormal.wav
64,192,80444,1,4,0:0:0:0:
320,192,80606,1,0,0:0:0:20:normal-hitnormal.wav
448,192,80769,1,8,0:0:0:0:
64,192,80931,1,0,0:0:0:20:normal-hitnormal.wav
320,192,81093,1,4,0:0:0:0:
192,192,81255,1,0,0:0:0:20:normal-hitnormal.wav
448,192,81417,1,0,0:0:0:20:normal-hitnormal.wav
64,192,81579,1,8,0:0:0:0:
192,192,81742,1,4,0:0:0:0:
448,192,81742,1,0,0:0:0:20:normal-hitnormal.wav
320,192,81904,1,0,0:0:0:20:normal-hitnormal.wav
64,192,82066,1,8,0:0:0:0:
192,192,82228,1,0,0:0:0:20:normal-hitnormal.wav
320,192,82390,1,8,0:0:0:0:
448,192,82552,1,0,0:0:0:20:normal-hitnormal.wav
64,192,82634,1,8,0:0:0:0:
448,192,82715,1,4,0:0:0:0:
320,192,82877,1,8,0:0:0:0:
64,192,83039,128,4,84336:0:0:0:0:
192,192,83039,1,0,0:0:0:20:normal-hitnormal.wav
448,192,83363,1,8,0:0:0:0:
192,192,84012,1,8,0:0:0:0:
320,192,84336,128,8,84985:0:0:0:0:
448,192,84336,1,0,0:0:0:20:normal-hitnormal.wav
64,192,84661,1,8,0:0:0:0:
64,192,84985,1,8,0:0:0:0:
192,192,84985,128,8,85634:0:0:0:0:
320,192,85634,1,4,0:0:0:0:
448,192,85634,128,4,86931:0:0:0:0:
64,192,86931,1,0,0:0:0:20:normal-hitfinish5.ogg
320,192,86931,1,0,0:0:0:20:normal-hitnormal3.ogg
192,192,87417,1,0,0:0:0:0:
320,192,87904,1,0,0:0:0:0:
64,192,88228,1,4,0:0:0:0:
448,192,88228,1,4,0:0:0:0:
192,192,88390,1,0,0:0:0:0:
448,192,88552,1,8,0:0:0:0:
320,192,88715,1,0,0:0:0:20:normal-hitnormal3.ogg
64,192,89039,1,4,0:0:0:0:
192,192,89201,1,8,0:0:0:0:
320,192,89525,1,4,0:0:0:0:
448,192,89525,1,4,0:0:0:0:
192,192,89688,1,4,0:0:0:0:
64,192,89850,1,8,0:0:0:0:
64,192,90174,1,0,0:0:0:0:
192,192,90174,1,0,0:0:0:0:
320,192,90336,1,4,0:0:0:0:
448,192,90498,1,8,0:0:0:0:
320,192,90823,1,4,0:0:0:0:
64,192,90823,1,4,0:0:0:0:
448,192,90985,1,0,0:0:0:0:
320,192,91147,1,0,0:0:0:0:
192,192,91309,1,8,0:0:0:0:
64,192,91634,1,4,0:0:0:0:
320,192,91796,1,8,0:0:0:0:
192,192,91958,1,0,0:0:0:0:
448,192,92120,1,4,0:0:0:0:
64,192,92120,1,4,0:0:0:0:
64,192,92444,1,8,0:0:0:0:
192,192,92606,1,4,0:0:0:0:
448,192,92769,1,4,0:0:0:0:
320,192,92931,1,4,0:0:0:0:
192,192,93093,1,8,0:0:0:0:
64,192,93417,1,4,0:0:0:0:
448,192,93417,1,4,0:0:0:0:
192,192,93579,1,4,0:0:0:0:
320,192,93742,1,8,0:0:0:0:
448,192,93904,1,0,0:0:0:20:normal-hitnormal.wav
192,192,94228,1,4,0:0:0:0:
64,192,94390,1,8,0:0:0:0:
320,192,94715,1,4,0:0:0:0:
448,192,94715,1,4,0:0:0:0:
192,192,94877,1,4,0:0:0:0:
64,192,95039,1,8,0:0:0:0:
448,192,95201,1,0,0:0:0:0:
320,192,95201,1,0,0:0:0:20:normal-hitnormal.wav
64,192,95525,1,4,0:0:0:0:
192,192,95525,1,4,0:0:0:0:
448,192,95688,1,8,0:0:0:0:
320,192,95850,1,0,0:0:0:20:normal-hitnormal.wav
192,192,96012,1,4,0:0:0:0:
64,192,96012,1,4,0:0:0:0:
320,192,96174,1,4,0:0:0:0:
448,192,96336,1,8,0:0:0:0:
64,192,96498,1,0,0:0:0:0:
320,192,96498,1,0,0:0:0:20:normal-hitnormal.wav
192,192,96823,1,4,0:0:0:0:
448,192,96985,1,8,0:0:0:0:
320,192,96985,1,8,0:0:0:0:
192,192,97309,128,4,97958:0:0:0:0:
64,192,97309,1,4,0:0:0:0:
320,192,97958,1,4,0:0:0:0:
448,192,97958,128,4,98444:0:0:0:0:
192,192,98444,1,8,0:0:0:0:
64,192,98444,128,8,99904:0:0:0:0:
448,192,98931,1,0,0:0:0:20:normal-hitnormal.wav
320,192,98931,1,4,0:0:0:0:
448,192,99904,128,4,100552:0:0:0:0:
192,192,99904,1,4,0:0:0:0:
192,192,100552,128,0,101201:0:0:0:0:
320,192,100552,1,8,0:0:0:0:
320,192,101201,128,4,101688:0:0:0:0:
64,192,101201,1,4,0:0:0:0:
448,192,101688,1,4,0:0:0:0:
64,192,101688,128,4,102174:0:0:0:0:
192,192,102174,1,4,0:0:0:0:
448,192,102174,128,4,103147:0:0:0:0:
320,192,103147,1,4,0:0:0:0:
192,192,103634,1,4,0:0:0:0:
64,192,103634,1,4,0:0:0:0:
320,192,104120,1,8,0:0:0:0:
448,192,104444,1,4,0:0:0:0:
320,192,104606,1,0,0:0:0:20:normal-hitnormal.wav
64,192,104769,1,8,0:0:0:0:
448,192,104931,1,0,0:0:0:20:normal-hitnormal.wav
192,192,104931,1,4,0:0:0:0:
320,192,105255,1,0,0:0:0:20:normal-hitnormal.wav
192,192,105417,1,8,0:0:0:0:
64,192,105742,1,4,0:0:0:0:
192,192,105904,1,0,0:0:0:20:normal-hitnormal.wav
448,192,106066,1,8,0:0:0:0:
64,192,106228,1,4,0:0:0:0:
320,192,106228,1,0,0:0:0:20:normal-hitnormal.wav
448,192,106552,1,0,0:0:0:20:normal-hitnormal.wav
320,192,106715,1,8,0:0:0:0:
64,192,106877,1,8,0:0:0:0:
192,192,107039,1,4,0:0:0:0:
320,192,107201,1,4,0:0:0:0:
448,192,107201,1,0,0:0:0:20:normal-hitnormal.wav
192,192,107363,1,8,0:0:0:0:
64,192,107525,1,4,0:0:0:0:
448,192,107525,1,0,0:0:0:20:normal-hitnormal.wav
448,192,107850,1,0,0:0:0:20:normal-hitnormal.wav
64,192,107931,1,0,0:0:0:20:normal-hitnormal.wav
448,192,108012,1,8,0:0:0:0:
64,192,108174,1,0,0:0:0:20:normal-hitnormal.wav
192,192,108336,1,0,0:0:0:20:normal-hitnormal.wav
448,192,108498,1,4,0:0:0:0:
320,192,108661,1,8,0:0:0:0:
192,192,108823,1,0,0:0:0:20:normal-hitnormal.wav
64,192,108823,1,4,0:0:0:0:
192,192,109147,1,0,0:0:0:20:normal-hitnormal.wav
320,192,109309,1,8,0:0:0:0:
192,192,109634,1,4,0:0:0:0:
64,192,109796,1,0,0:0:0:20:normal-hitnormal.wav
320,192,109958,1,8,0:0:0:0:
448,192,110120,1,0,0:0:0:20:normal-hitnormal.wav
64,192,110120,1,4,0:0:0:0:
192,192,110931,1,0,0:0:0:0:
448,192,110931,1,0,0:0:0:0:
64,192,111417,1,4,0:0:0:0:
320,192,111417,1,0,0:0:0:20:normal-hitnormal.wav
64,192,111742,1,4,0:0:0:0:
448,192,111742,1,0,0:0:0:20:normal-hitnormal.wav
192,192,111904,1,0,0:0:0:20:normal-hitnormal.wav
320,192,111904,1,4,0:0:0:0:
64,192,112066,1,4,0:0:0:0:
448,192,112066,1,0,0:0:0:20:normal-hitnormal.wav
320,192,112228,1,0,0:0:0:20:normal-hitnormal.wav
192,192,112228,1,4,0:0:0:0:
192,192,112471,1,0,0:0:0:20:normal-hitnormal.wav
320,192,112471,1,4,0:0:0:0:
448,192,112715,128,4,114174:0:0:0:0:
64,192,112715,1,0,0:0:0:20:normal-hitnormal.wav
320,192,114174,1,4,0:0:0:0:
64,192,114174,1,0,0:0:0:20:normal-hitfinish5.ogg
192,192,114498,1,0,0:0:0:0:
320,192,114661,1,0,0:0:0:0:
64,192,115471,1,0,0:0:0:0:
192,192,115634,1,0,0:0:0:0:
320,192,115796,1,0,0:0:0:0:
448,192,115958,1,0,0:0:0:0:
448,192,116769,1,0,0:0:0:0:
320,192,116931,1,0,0:0:0:0:
192,192,117093,1,0,0:0:0:0:
64,192,117255,1,0,0:0:0:0:
320,192,118066,1,0,0:0:0:0:
64,192,118806,1,0,0:0:0:0:
192,192,118806,1,0,0:0:0:0:
64,192,119547,1,0,0:0:0:0:
192,192,119736,1,0,0:0:0:0:
448,192,119926,1,0,0:0:0:0:
320,192,120116,1,0,0:0:0:0:
64,192,120917,1,0,0:0:0:0:
320,192,121123,1,0,0:0:0:0:
192,192,121330,1,0,0:0:0:0:
448,192,121537,1,0,0:0:0:0:
64,192,122439,1,0,0:0:0:0:
448,192,122684,1,0,0:0:0:0:
192,192,122869,1,0,0:0:0:0:
320,192,123176,1,0,0:0:0:0:
64,192,123545,1,0,0:0:0:0:
192,192,124037,1,0,0:0:0:0:
320,192,124590,1,0,0:0:0:0:
448,192,124590,128,0,126373:0:0:0:0:
