osu file format v14

[General]
AudioFilename: -+.mp3
AudioLeadIn: 0
PreviewTime:86931
Countdown: 0
SampleSet: Soft
StackLeniency: 0.7
Mode: 3
LetterboxInBreaks: 0
WidescreenStoryboard: 1
EpilepsyWarning: 1
SpecialStyle: 0

[Editor]
DistanceSpacing: 0.5
BeatDivisor: 8
GridSize: 4
TimelineZoom: 1.8

[Metadata]
Title:-+
TitleUnicode:-+
Artist:daisan
ArtistUnicode:daisan
Creator:Starfy
Version:hk's 4K Hyper
Source:BOF2013
Tags:minus plus konzertsaal - THE BMS OF FIGHTERS 2013 Dirt Art Color Teller xellox piano StarForYou Kyle Y IamKwaN happy623 -N_a_n_a_k_o- Nanako Kencho Chaoslitz [ Drop ] choikapo Regou Rizia Kawaiwkyik Nakano Itsuki StarrStyx Prophecy aabc271 Nardoxyribonucleic Skylish ll-oscar autofanboy alienflybot hokin1995 pwhk hong kong hk muse dash electronic instrumental
BeatmapID:883087
BeatmapSetID:389617

[Difficulty]
HPDrainRate:8
CircleSize:4
OverallDifficulty:8
ApproachRate:8
SliderMultiplier:1.2
SliderTickRate:1

[Events]
//Background and Video events
0,0,"BG.png",0,0
//Break Periods
//Storyboard Layer 0 (Background)
//Storyboard Layer 1 (Fail)
//Storyboard Layer 2 (Pass)
//Storyboard Layer 3 (Foreground)
//Storyboard Layer 4 (Overlay)
//Storyboard Sound Samples
Sample,1297,0,"BG_001.wav",70

[TimingPoints]
2607,324.324324324324,4,2,1,20,1,0
23363,-100,4,2,1,20,0,1
33742,-100,4,2,1,20,0,0
86931,-100,4,2,1,20,0,1
114012,-100,4,2,1,20,0,1
114174,-100,4,2,1,20,0,0
118066,370.37037037037,4,2,1,20,1,0
119547,379.746835443038,4,2,1,20,1,0
120917,413.793103448276,4,2,1,20,1,0
122439,491.803278688525,4,2,1,20,1,0

[Colours]
Combo1 : 41,214,166
Combo2 : 128,0,255
Combo3 : 128,255,255
Combo4 : 3,90,252

[HitObjects]
320,192,2607,5,0,0:0:0:0:
448,192,2607,128,0,3255:0:0:0:0:
64,192,2607,1,0,0:0:0:0:
192,192,3255,128,0,3904:0:0:0:0:
64,192,3255,1,0,0:0:0:0:
448,192,3904,128,0,4552:0:0:0:0:
320,192,3904,1,0,0:0:0:0:
64,192,4552,128,0,5201:0:0:0:0:
192,192,4552,1,0,0:0:0:0:
448,192,5201,1,0,0:0:0:0:
320,192,5201,128,0,6498:0:0:0:0:
192,192,5201,1,0,0:0:0:0:
64,192,6498,1,0,0:0:0:0:
448,192,6498,128,0,7796:0:0:0:0:
320,192,7796,1,0,0:0:0:0:
64,192,7796,128,0,8444:0:0:0:0:
192,192,7796,1,0,0:0:0:0:
320,192,8444,1,0,0:0:0:0:
448,192,8444,128,0,9093:0:0:0:0:
192,192,9093,128,0,9742:0:0:0:0:
64,192,9093,1,0,0:0:0:0:
448,192,9742,1,0,0:0:0:0:
320,192,9742,128,0,10390:0:0:0:0:
448,192,10390,1,0,0:0:0:0:
192,192,10390,1,0,0:0:0:0:
64,192,10390,128,0,11688:0:0:0:0:
448,192,11688,1,0,0:0:0:0:
320,192,11688,1,0,0:0:0:0:
192,192,11688,128,0,12985:0:0:0:0:
64,192,12985,5,4,0:0:0:0:
320,192,12985,1,0,0:0:0:20:drum-hitwhistle20.wav
448,192,12985,128,0,13634:0:0:0:0:
64,192,13634,1,0,0:0:0:0:
192,192,13634,128,0,14282:0:0:0:0:
320,192,14282,1,0,0:0:0:0:
448,192,14282,128,0,14931:0:0:0:0:
64,192,14931,128,0,15579:0:0:0:0:
192,192,14931,1,0,0:0:0:0:
448,192,15579,1,0,0:0:0:0:
320,192,15579,128,0,16877:0:0:0:0:
192,192,15579,1,0,0:0:0:0:
64,192,16228,1,0,0:0:0:0:
448,192,16877,128,0,18174:0:0:0:0:
192,192,16877,1,0,0:0:0:0:
64,192,16877,1,0,0:0:0:0:
192,192,17525,1,0,0:0:0:0:
64,192,18174,128,0,18823:0:0:0:0:
192,192,18174,1,0,0:0:0:0:
320,192,18174,1,0,0:0:0:0:
448,192,18498,1,0,0:0:0:0:
320,192,18823,1,0,0:0:0:0:
448,192,18823,128,0,19471:0:0:0:0:
192,192,19147,1,0,0:0:0:0:
64,192,19471,1,0,0:0:0:0:
192,192,19471,128,0,20120:0:0:0:0:
320,192,19796,1,0,0:0:0:0:
448,192,20120,5,0,0:0:0:0:
320,192,20120,128,0,20769:0:0:0:0:
192,192,20444,1,0,0:0:0:0:
64,192,20769,5,0,0:0:0:0:
448,192,20769,1,0,0:0:0:0:
192,192,20931,1,0,0:0:0:0:
448,192,21093,1,0,0:0:0:0:
320,192,21255,1,0,0:0:0:0:
192,192,21417,1,0,0:0:0:0:
64,192,21579,1,0,0:0:0:0:
320,192,21742,1,0,0:0:0:0:
448,192,21904,1,0,0:0:0:0:
320,192,22066,1,0,0:0:0:0:
64,192,22066,1,0,0:0:0:0:
192,192,22066,128,0,22715:0:0:0:0:
448,192,22715,1,0,0:0:0:0:
64,192,22796,1,0,0:0:0:0:
320,192,22877,1,0,0:0:0:0:
192,192,22958,1,0,0:0:0:0:
64,192,23039,1,0,0:0:0:0:
192,192,23079,1,0,0:0:0:0:
320,192,23120,1,0,0:0:0:0:
448,192,23161,1,0,0:0:0:0:
64,192,23201,1,0,0:0:0:0:
192,192,23242,1,0,0:0:0:0:
320,192,23282,1,0,0:0:0:0:
448,192,23323,1,0,0:0:0:0:
64,192,23363,1,4,0:0:0:0:
192,192,23363,1,4,0:0:0:0:
448,192,23525,1,0,0:0:0:20:normal-hitnormal.wav
320,192,23525,1,4,0:0:0:0:
64,192,23688,1,8,0:0:0:0:
448,192,23688,1,8,0:0:0:0:
192,192,23769,1,0,0:0:0:0:
320,192,23850,1,0,0:0:0:0:
448,192,23931,1,0,0:0:0:0:
192,192,24012,1,0,0:0:0:0:
64,192,24093,1,0,0:0:0:0:
320,192,24174,1,4,0:0:0:0:
448,192,24255,1,0,0:0:0:0:
64,192,24336,1,8,0:0:0:0:
192,192,24417,1,0,0:0:0:0:
448,192,24498,1,0,0:0:0:0:
320,192,24579,1,0,0:0:0:0:
192,192,24661,1,0,0:0:0:20:normal-hitnormal.wav
64,192,24661,1,4,0:0:0:0:
320,192,24823,1,4,0:0:0:0:
448,192,24823,1,0,0:0:0:20:normal-hitnormal.wav
192,192,24904,1,0,0:0:0:0:
64,192,24985,1,8,0:0:0:0:
320,192,25066,1,0,0:0:0:0:
448,192,25147,1,0,0:0:0:0:
64,192,25228,1,4,0:0:0:0:
192,192,25309,1,0,0:0:0:0:
320,192,25390,1,0,0:0:0:0:
448,192,25471,1,4,0:0:0:0:
192,192,25552,1,0,0:0:0:0:
64,192,25634,1,8,0:0:0:0:
448,192,25715,1,0,0:0:0:0:
320,192,25796,1,0,0:0:0:0:
192,192,25877,1,4,0:0:0:0:
64,192,25958,1,4,0:0:0:0:
448,192,25958,1,0,0:0:0:20:normal-hitnormal.wav
192,192,26120,1,4,0:0:0:0:
320,192,26120,1,0,0:0:0:70:normal-hitnormal.wav
64,192,26181,1,0,0:0:0:0:
320,192,26221,1,0,0:0:0:0:
448,192,26282,1,8,0:0:0:0:
64,192,26444,1,0,0:0:0:0:
192,192,26505,1,0,0:0:0:0:
448,192,26546,1,0,0:0:0:0:
320,192,26606,1,0,0:0:0:0:
192,192,26769,1,4,0:0:0:0:
64,192,26829,1,0,0:0:0:0:
320,192,26870,1,0,0:0:0:0:
448,192,26931,1,8,0:0:0:0:
64,192,27012,1,0,0:0:0:0:
192,192,27093,1,0,0:0:0:0:
320,192,27174,1,0,0:0:0:0:
448,192,27255,1,4,0:0:0:0:
192,192,27336,1,0,0:0:0:0:
320,192,27417,1,0,0:0:0:0:
64,192,27498,1,4,0:0:0:0:
192,192,27579,1,8,0:0:0:0:
448,192,27661,1,0,0:0:0:0:
320,192,27742,1,4,0:0:0:0:
192,192,27823,1,8,0:0:0:0:
64,192,27904,1,4,0:0:0:0:
320,192,27985,1,8,0:0:0:0:
448,192,28066,1,4,0:0:0:0:
192,192,28147,1,4,0:0:0:0:
64,192,28228,1,8,0:0:0:0:
448,192,28309,1,0,0:0:0:0:
192,192,28390,1,0,0:0:0:20:normal-hitnormal.wav
64,192,28390,1,8,0:0:0:0:
320,192,28471,1,8,0:0:0:0:
448,192,28471,1,0,0:0:0:20:normal-hitnormal.wav
64,192,28552,1,8,0:0:0:0:
192,192,28552,1,0,0:0:0:20:normal-hitnormal.wav
320,192,28634,1,0,0:0:0:0:
448,192,28715,1,4,0:0:0:0:
192,192,28796,1,0,0:0:0:0:
64,192,28877,1,8,0:0:0:0:
448,192,28958,1,0,0:0:0:0:
320,192,29039,1,0,0:0:0:0:
64,192,29120,1,0,0:0:0:0:
192,192,29201,1,0,0:0:0:0:
320,192,29282,1,0,0:0:0:0:
448,192,29363,1,4,0:0:0:0:
192,192,29444,1,0,0:0:0:0:
64,192,29525,1,8,0:0:0:0:
320,192,29606,1,0,0:0:0:0:
448,192,29688,1,0,0:0:0:0:
192,192,29769,1,0,0:0:0:0:
64,192,29850,1,4,0:0:0:0:
448,192,29931,1,0,0:0:0:0:
320,192,30012,1,4,0:0:0:0:
192,192,30093,1,0,0:0:0:0:
64,192,30174,1,8,0:0:0:0:
320,192,30255,1,0,0:0:0:0:
448,192,30336,5,0,0:0:0:20:normal-hitnormal.wav
192,192,30417,1,4,0:0:0:0:
64,192,30498,1,0,0:0:0:20:normal-hitnormal.wav
320,192,30579,1,0,0:0:0:20:normal-hitnormal.wav
448,192,30661,1,4,0:0:0:0:
192,192,30742,1,0,0:0:0:20:normal-hitnormal.wav
64,192,30823,1,8,0:0:0:0:
448,192,30904,1,0,0:0:0:20:normal-hitnormal.wav
320,192,30985,1,0,0:0:0:20:normal-hitnormal.wav
64,192,31066,5,4,0:0:0:0:
192,192,31147,1,4,0:0:0:0:
320,192,31228,1,0,0:0:0:20:normal-hitnormal.wav
448,192,31309,1,4,0:0:0:20:normal-hitnormal.wav
320,192,31390,1,0,0:0:0:0:
192,192,31471,1,8,0:0:0:0:
64,192,31552,1,0,0:0:0:0:
320,192,31634,5,0,0:0:0:20:normal-hitnormal.wav
448,192,31715,1,4,0:0:0:0:
192,192,31796,1,0,0:0:0:20:normal-hitnormal.wav
64,192,31877,1,0,0:0:0:20:normal-hitnormal.wav
448,192,31958,1,4,0:0:0:0:
320,192,32039,1,0,0:0:0:20:normal-hitnormal.wav
64,192,32120,1,8,0:0:0:0:
192,192,32201,1,0,0:0:0:20:normal-hitnormal.wav
320,192,32282,1,0,0:0:0:20:normal-hitnormal.wav
448,192,32363,1,8,0:0:0:0:
320,192,32444,1,4,0:0:0:0:
192,192,32525,1,8,0:0:0:0:
64,192,32606,1,0,0:0:0:0:
320,192,32688,1,4,0:0:0:0:
448,192,32769,1,8,0:0:0:0:
192,192,32850,1,0,0:0:0:20:normal-hitnormal.wav
64,192,32931,1,4,0:0:0:0:
320,192,33012,1,8,0:0:0:0:
448,192,33093,1,0,0:0:0:20:normal-hitnormal.wav
192,192,33174,1,8,0:0:0:0:
64,192,33255,1,0,0:0:0:20:normal-hitnormal.wav
448,192,33336,1,4,0:0:0:0:
320,192,33417,1,8,0:0:0:0:
64,192,33498,1,8,0:0:0:0:
192,192,33579,1,8,0:0:0:0:
320,192,33661,1,8,0:0:0:0:
64,192,33742,1,4,0:0:0:0:
448,192,33742,1,0,0:0:0:20:normal-hitnormal.wav
320,192,33904,1,4,0:0:0:0:
192,192,34066,1,8,0:0:0:0:
64,192,34066,1,8,0:0:0:0:
320,192,34228,1,0,0:0:0:0:
448,192,34390,1,0,0:0:0:0:
64,192,34552,1,4,0:0:0:0:
448,192,34715,1,8,0:0:0:0:
192,192,34715,1,8,0:0:0:0:
320,192,34877,1,0,0:0:0:20:normal-hitnormal.wav
64,192,35039,1,4,0:0:0:0:
192,192,35039,1,0,0:0:0:20:normal-hitnormal.wav
448,192,35201,1,4,0:0:0:0:
64,192,35363,1,8,0:0:0:0:
320,192,35363,1,8,0:0:0:0:
192,192,35525,1,0,0:0:0:20:normal-hitnormal.wav
64,192,35606,1,4,0:0:0:0:
448,192,35688,1,0,0:0:0:20:normal-hitnormal.wav
192,192,35850,1,4,0:0:0:0:
320,192,36012,1,8,0:0:0:0:
64,192,36012,1,8,0:0:0:0:
448,192,36174,1,0,0:0:0:20:normal-hitnormal.wav
320,192,36255,1,4,0:0:0:0:
64,192,36336,1,4,0:0:0:0:
192,192,36336,1,0,0:0:0:20:normal-hitnormal.wav
448,192,36498,1,4,0:0:0:0:
320,192,36661,1,8,0:0:0:0:
64,192,36661,1,8,0:0:0:0:
192,192,36823,1,0,0:0:0:20:normal-hitnormal.wav
320,192,36904,1,4,0:0:0:0:
64,192,36985,1,0,0:0:0:20:normal-hitnormal.wav
192,192,37147,1,4,0:0:0:0:
320,192,37309,1,8,0:0:0:0:
448,192,37309,1,8,0:0:0:0:
192,192,37471,1,0,0:0:0:20:normal-hitnormal.wav
64,192,37634,1,4,0:0:0:0:
448,192,37634,1,0,0:0:0:20:normal-hitnormal.wav
64,192,37796,1,0,0:0:0:20:normal-hitnormal.wav
192,192,37877,1,0,0:0:0:20:normal-hitnormal.wav
320,192,37958,1,8,0:0:0:0:
448,192,37958,1,8,0:0:0:0:
64,192,38120,1,4,0:0:0:0:
320,192,38201,1,8,0:0:0:0:
192,192,38282,1,4,0:0:0:0:
448,192,38363,1,8,0:0:0:0:
192,192,38444,1,4,0:0:0:0:
320,192,38525,1,4,0:0:0:0:
64,192,38606,1,8,0:0:0:0:
448,192,38769,1,8,0:0:0:0:
320,192,38850,1,8,0:0:0:0:
64,192,38931,1,4,0:0:0:0:
192,192,38931,1,0,0:0:0:20:normal-hitnormal.wav
320,192,39093,1,4,0:0:0:0:
448,192,39255,1,8,0:0:0:0:
64,192,39255,1,8,0:0:0:0:
192,192,39417,1,0,0:0:0:20:normal-hitnormal.wav
448,192,39579,1,0,0:0:0:0:
320,192,39742,1,0,0:0:0:20:normal-hitnormal.wav
64,192,39904,1,8,0:0:0:0:
192,192,39904,1,8,0:0:0:0:
320,192,40066,1,0,0:0:0:20:normal-hitnormal.wav
448,192,40228,1,0,0:0:0:20:normal-hitnormal.wav
64,192,40228,1,4,0:0:0:0:
192,192,40390,1,4,0:0:0:0:
320,192,40552,1,8,0:0:0:0:
448,192,40552,1,8,0:0:0:0:
192,192,40715,1,0,0:0:0:20:normal-hitnormal.wav
320,192,40796,1,4,0:0:0:0:
64,192,40877,1,0,0:0:0:20:normal-hitnormal.wav
448,192,41039,1,4,0:0:0:0:
192,192,41201,1,8,0:0:0:0:
320,192,41201,1,8,0:0:0:0:
448,192,41363,1,0,0:0:0:20:normal-hitnormal.wav
320,192,41444,1,4,0:0:0:0:
64,192,41525,1,4,0:0:0:0:
192,192,41525,1,0,0:0:0:20:normal-hitnormal.wav
320,192,41688,1,4,0:0:0:0:
448,192,41850,1,8,0:0:0:0:
64,192,41850,1,8,0:0:0:0:
192,192,42012,1,8,0:0:0:0:
64,192,42093,1,8,0:0:0:0:
320,192,42174,1,8,0:0:0:0:
448,192,42336,1,8,0:0:0:0:
64,192,42498,1,8,0:0:0:0:
320,192,42498,1,8,0:0:0:0:
192,192,42661,1,8,0:0:0:0:
448,192,42823,1,8,0:0:0:0:
320,192,42904,1,8,0:0:0:0:
192,192,42985,1,8,0:0:0:0:
448,192,43147,1,8,0:0:0:0:
320,192,43228,1,8,0:0:0:0:
64,192,43309,1,8,0:0:0:0:
192,192,43390,1,8,0:0:0:0:
320,192,43471,1,8,0:0:0:0:
64,192,43634,1,8,0:0:0:0:
320,192,43715,1,8,0:0:0:0:
192,192,43796,1,8,0:0:0:0:
448,192,43877,1,8,0:0:0:0:
192,192,43958,1,8,0:0:0:0:
320,192,44039,1,8,0:0:0:0:
64,192,44120,1,4,0:0:0:0:
448,192,44120,128,4,46715:0:0:0:0:
64,192,45093,1,0,0:0:0:0:
320,192,45255,1,0,0:0:0:0:
192,192,45417,1,0,0:0:0:0:
320,192,45742,1,0,0:0:0:0:
192,192,46066,1,0,0:0:0:0:
64,192,46390,1,0,0:0:0:0:
320,192,46715,128,0,48012:0:0:0:0:
192,192,46715,1,0,0:0:0:0:
192,192,47688,1,0,0:0:0:0:
448,192,47850,1,0,0:0:0:0:
64,192,48012,1,0,0:0:0:0:
192,192,48012,128,0,49309:0:0:0:0:
448,192,48336,1,0,0:0:0:0:
320,192,48661,1,0,0:0:0:0:
64,192,48985,1,0,0:0:0:0:
320,192,49309,128,0,50606:0:0:0:0:
448,192,49309,1,0,0:0:0:0:
64,192,50282,1,0,0:0:0:0:
448,192,50444,1,0,0:0:0:0:
192,192,50606,1,0,0:0:0:0:
64,192,50606,128,0,54498:0:0:0:0:
448,192,50931,1,0,0:0:0:0:
320,192,51255,1,0,0:0:0:0:
192,192,51579,1,0,0:0:0:0:
320,192,52715,1,0,0:0:0:0:
448,192,52877,1,0,0:0:0:0:
192,192,53039,1,0,0:0:0:0:
320,192,53201,1,0,0:0:0:0:
192,192,53525,1,0,0:0:0:0:
320,192,53850,1,0,0:0:0:0:
448,192,54174,1,0,0:0:0:0:
320,192,54498,128,0,55796:0:0:0:0:
448,192,54498,1,0,0:0:0:0:
192,192,55147,1,0,0:0:0:0:
64,192,55471,1,0,0:0:0:0:
448,192,55634,1,0,0:0:0:0:
192,192,55796,1,0,0:0:0:0:
64,192,55796,128,0,57093:0:0:0:0:
192,192,56120,1,0,0:0:0:0:
320,192,56444,1,0,0:0:0:0:
448,192,56769,1,0,0:0:0:0:
448,192,57093,128,0,57742:0:0:0:0:
192,192,57093,1,0,0:0:0:0:
192,192,57742,128,0,58390:0:0:0:0:
64,192,57742,1,0,0:0:0:0:
320,192,58066,1,0,0:0:0:0:
448,192,58228,1,0,0:0:0:0:
320,192,58390,128,0,59688:0:0:0:0:
64,192,58390,1,0,0:0:0:0:
192,192,58715,1,0,0:0:0:0:
64,192,59039,1,0,0:0:0:0:
448,192,59363,1,0,0:0:0:0:
64,192,59688,1,0,0:0:0:0:
192,192,59688,128,0,60985:0:0:0:0:
64,192,60012,1,0,0:0:0:0:
320,192,60336,1,0,0:0:0:0:
448,192,60661,1,0,0:0:0:0:
64,192,60823,1,0,0:0:0:0:
320,192,60985,1,0,0:0:0:0:
448,192,60985,128,0,62282:0:0:0:0:
192,192,61147,1,0,0:0:0:0:
64,192,61309,1,0,0:0:0:0:
192,192,61471,1,0,0:0:0:0:
320,192,61634,1,0,0:0:0:0:
64,192,61796,1,0,0:0:0:0:
192,192,61958,1,0,0:0:0:0:
320,192,62120,1,0,0:0:0:0:
192,192,62282,1,0,0:0:0:0:
64,192,62282,128,0,64877:0:0:0:0:
320,192,62444,1,0,0:0:0:0:
448,192,62606,1,0,0:0:0:0:
320,192,62769,1,0,0:0:0:0:
192,192,62931,1,0,0:0:0:0:
448,192,63093,1,0,0:0:0:0:
192,192,63255,1,0,0:0:0:0:
320,192,63417,1,0,0:0:0:0:
192,192,63579,1,0,0:0:0:0:
448,192,63742,1,0,0:0:0:0:
192,192,63904,1,0,0:0:0:0:
320,192,64066,1,0,0:0:0:0:
448,192,64228,1,0,0:0:0:0:
320,192,64309,1,0,0:0:0:0:
192,192,64390,128,0,64877:0:0:0:0:
448,192,64877,1,4,0:0:0:0:
320,192,64877,1,4,0:0:0:0:
320,192,65363,1,4,0:0:0:0:
192,192,65363,1,4,0:0:0:0:
64,192,65688,1,0,0:0:0:0:
192,192,65748,1,0,0:0:0:0:
320,192,65789,1,0,0:0:0:0:
448,192,65850,1,0,0:0:0:0:
192,192,65911,1,0,0:0:0:0:
64,192,65951,1,0,0:0:0:0:
448,192,66012,1,0,0:0:0:0:
320,192,66073,1,0,0:0:0:0:
192,192,66113,1,0,0:0:0:0:
448,192,66174,1,4,0:0:0:0:
64,192,66174,1,4,0:0:0:0:
64,192,66661,1,4,0:0:0:0:
448,192,66661,1,4,0:0:0:0:
448,192,66985,1,0,0:0:0:0:
320,192,67046,1,0,0:0:0:0:
192,192,67086,1,0,0:0:0:0:
64,192,67147,1,0,0:0:0:0:
320,192,67208,1,0,0:0:0:0:
448,192,67248,1,0,0:0:0:0:
64,192,67309,1,0,0:0:0:0:
192,192,67370,1,0,0:0:0:0:
320,192,67411,1,0,0:0:0:0:
64,192,67471,1,4,0:0:0:0:
448,192,67471,1,4,0:0:0:0:
320,192,67958,1,4,0:0:0:0:
192,192,67958,1,4,0:0:0:0:
64,192,68282,1,0,0:0:0:0:
192,192,68343,1,0,0:0:0:0:
320,192,68384,1,0,0:0:0:0:
448,192,68444,1,0,0:0:0:0:
192,192,68505,1,0,0:0:0:0:
64,192,68546,1,0,0:0:0:0:
448,192,68606,1,0,0:0:0:0:
320,192,68667,1,0,0:0:0:0:
192,192,68715,1,0,0:0:0:0:
448,192,68769,1,4,0:0:0:0:
64,192,68769,128,4,69417:0:0:0:0:
448,192,69417,128,4,70066:0:0:0:0:
192,192,69417,1,4,0:0:0:0:
320,192,70066,1,4,0:0:0:0:
64,192,70066,1,4,0:0:0:0:
192,192,70552,1,4,0:0:0:0:
320,192,70552,1,4,0:0:0:0:
64,192,70877,1,0,0:0:0:0:
192,192,70938,1,0,0:0:0:0:
448,192,70978,1,0,0:0:0:0:
320,192,71039,1,0,0:0:0:0:
64,192,71100,1,0,0:0:0:0:
192,192,71140,1,0,0:0:0:0:
448,192,71201,1,0,0:0:0:0:
320,192,71262,1,0,0:0:0:0:
64,192,71302,1,0,0:0:0:0:
192,192,71363,1,4,0:0:0:0:
448,192,71363,1,4,0:0:0:0:
448,192,71850,1,4,0:0:0:0:
64,192,71850,1,4,0:0:0:0:
448,192,72174,1,0,0:0:0:0:
320,192,72235,1,0,0:0:0:0:
64,192,72275,1,0,0:0:0:0:
192,192,72336,1,0,0:0:0:0:
448,192,72397,1,0,0:0:0:0:
320,192,72438,1,0,0:0:0:0:
64,192,72498,1,0,0:0:0:0:
192,192,72559,1,0,0:0:0:0:
448,192,72600,1,0,0:0:0:0:
320,192,72661,1,4,0:0:0:0:
64,192,72661,1,4,0:0:0:0:
320,192,73147,1,4,0:0:0:0:
192,192,73147,1,4,0:0:0:0:
64,192,73471,1,0,0:0:0:0:
192,192,73532,1,0,0:0:0:0:
448,192,73573,1,0,0:0:0:0:
320,192,73634,1,0,0:0:0:0:
64,192,73694,1,0,0:0:0:0:
192,192,73742,1,0,0:0:0:0:
448,192,73796,1,0,0:0:0:0:
320,192,73856,1,0,0:0:0:0:
64,192,73897,1,0,0:0:0:0:
448,192,73958,128,4,74606:0:0:0:0:
192,192,73958,1,4,0:0:0:0:
64,192,74606,128,4,75255:0:0:0:0:
320,192,74606,1,4,0:0:0:0:
448,192,75255,5,4,0:0:0:0:
192,192,75255,1,4,0:0:0:0:
320,192,75417,1,0,0:0:0:20:normal-hitnormal.wav
192,192,75579,1,0,0:0:0:20:normal-hitnormal.wav
64,192,75579,1,4,0:0:0:0:
448,192,75742,1,0,0:0:0:20:normal-hitnormal.wav
320,192,75904,1,0,0:0:0:20:normal-hitnormal.wav
192,192,75904,1,4,0:0:0:0:
448,192,76066,1,0,0:0:0:20:normal-hitnormal.wav
320,192,76228,1,0,0:0:0:20:normal-hitnormal.wav
64,192,76228,1,4,0:0:0:0:
192,192,76390,1,0,0:0:0:20:normal-hitnormal.wav
448,192,76552,1,0,0:0:0:20:normal-hitnormal.wav
64,192,76552,1,4,0:0:0:0:
320,192,76715,1,0,0:0:0:20:normal-hitnormal.wav
64,192,76877,1,4,0:0:0:0:
192,192,76877,1,0,0:0:0:20:normal-hitnormal.wav
448,192,77039,1,0,0:0:0:20:normal-hitnormal.wav
64,192,77201,1,4,0:0:0:0:
320,192,77201,1,0,0:0:0:20:normal-hitnormal.wav
192,192,77363,1,0,0:0:0:20:normal-hitnormal.wav
448,192,77525,1,0,0:0:0:20:normal-hitnormal.wav
320,192,77525,1,4,0:0:0:0:
192,192,77688,1,8,0:0:0:0:
320,192,77688,1,8,0:0:0:0:
192,192,77850,1,0,0:0:0:20:normal-hitnormal.wav
64,192,77850,1,4,0:0:0:0:
448,192,78012,1,0,0:0:0:20:normal-hitnormal.wav
64,192,78174,1,8,0:0:0:0:
320,192,78174,1,8,0:0:0:0:
192,192,78336,1,0,0:0:0:20:normal-hitnormal.wav
448,192,78498,1,4,0:0:0:0:
320,192,78498,1,0,0:0:0:20:normal-hitnormal.wav
192,192,78661,1,0,0:0:0:20:normal-hitnormal.wav
448,192,78823,1,0,0:0:0:20:normal-hitnormal.wav
64,192,78823,1,4,0:0:0:0:
192,192,78985,1,8,0:0:0:0:
320,192,78985,1,8,0:0:0:0:
448,192,79147,1,0,0:0:0:20:normal-hitnormal.wav
64,192,79147,1,4,0:0:0:0:
192,192,79309,1,0,0:0:0:20:normal-hitnormal.wav
320,192,79471,1,8,0:0:0:0:
448,192,79471,1,8,0:0:0:0:
64,192,79634,1,8,0:0:0:0:
192,192,79634,1,8,0:0:0:0:
320,192,79715,1,8,0:0:0:0:
448,192,79715,1,8,0:0:0:0:
192,192,79796,1,0,0:0:0:20:normal-hitnormal.wav
64,192,79796,1,4,0:0:0:0:
448,192,79958,1,0,0:0:0:20:normal-hitnormal.wav
320,192,80039,1,8,0:0:0:0:
64,192,80039,1,8,0:0:0:0:
448,192,80120,1,4,0:0:0:0:
192,192,80282,1,8,0:0:0:0:
320,192,80282,1,8,0:0:0:0:
448,192,80444,1,0,0:0:0:20:normal-hitnormal.wav
64,192,80444,1,4,0:0:0:0:
192,192,80606,1,0,0:0:0:20:normal-hitnormal.wav
320,192,80769,1,8,0:0:0:0:
448,192,80769,1,8,0:0:0:0:
64,192,80931,1,0,0:0:0:20:normal-hitnormal.wav
192,192,81093,1,4,0:0:0:0:
448,192,81093,1,0,0:0:0:20:normal-hitnormal.wav
320,192,81255,1,0,0:0:0:20:normal-hitnormal.wav
448,192,81417,1,0,0:0:0:20:normal-hitnormal.wav
64,192,81417,1,0,0:0:0:20:normal-hitnormal.wav
320,192,81579,1,8,0:0:0:0:
192,192,81579,1,8,0:0:0:0:
64,192,81742,1,4,0:0:0:0:
448,192,81742,1,0,0:0:0:20:normal-hitnormal.wav
320,192,81904,1,0,0:0:0:20:normal-hitnormal.wav
448,192,81904,1,0,0:0:0:20:normal-hitnormal.wav
192,192,82066,1,8,0:0:0:0:
64,192,82066,1,8,0:0:0:0:
320,192,82228,1,0,0:0:0:20:normal-hitnormal.wav
448,192,82228,1,0,0:0:0:20:normal-hitnormal.wav
192,192,82390,1,8,0:0:0:0:
64,192,82390,1,8,0:0:0:0:
64,192,82552,1,0,0:0:0:20:normal-hitnormal.wav
448,192,82552,1,0,0:0:0:20:normal-hitnormal.wav
320,192,82634,1,8,0:0:0:0:
192,192,82634,1,8,0:0:0:0:
448,192,82715,1,0,0:0:0:20:normal-hitnormal.wav
64,192,82715,1,4,0:0:0:0:
320,192,82877,1,8,0:0:0:0:
192,192,82877,1,8,0:0:0:0:
448,192,83039,1,0,0:0:0:20:normal-hitnormal.wav
64,192,83039,1,4,0:0:0:0:
320,192,83120,1,0,0:0:0:20:normal-hitnormal.wav
64,192,83201,1,0,0:0:0:20:normal-hitnormal.wav
192,192,83282,1,0,0:0:0:20:normal-hitnormal.wav
448,192,83363,1,8,0:0:0:0:
320,192,83444,1,0,0:0:0:20:normal-hitnormal.wav
192,192,83525,1,0,0:0:0:20:normal-hitnormal.wav
64,192,83606,1,0,0:0:0:20:normal-hitnormal.wav
320,192,83688,1,4,0:0:0:0:
448,192,83769,1,0,0:0:0:20:normal-hitnormal.wav
64,192,83850,1,0,0:0:0:20:normal-hitnormal.wav
192,192,83931,1,0,0:0:0:20:normal-hitnormal.wav
448,192,84012,1,8,0:0:0:0:
320,192,84093,1,0,0:0:0:20:normal-hitnormal.wav
64,192,84174,1,8,0:0:0:0:
192,192,84255,1,0,0:0:0:20:normal-hitnormal.wav
448,192,84336,1,0,0:0:0:20:normal-hitnormal.wav
320,192,84336,1,8,0:0:0:0:
192,192,84417,1,0,0:0:0:20:normal-hitnormal.wav
64,192,84498,1,0,0:0:0:20:normal-hitnormal.wav
448,192,84579,1,0,0:0:0:20:normal-hitnormal.wav
320,192,84661,1,8,0:0:0:0:
64,192,84742,1,8,0:0:0:0:
192,192,84823,1,8,0:0:0:0:
320,192,84904,1,8,0:0:0:0:
64,192,84985,1,8,0:0:0:0:
448,192,84985,1,8,0:0:0:0:
192,192,85066,1,8,0:0:0:0:
448,192,85147,1,8,0:0:0:0:
320,192,85228,1,8,0:0:0:0:
64,192,85309,1,8,0:0:0:0:
192,192,85390,1,8,0:0:0:0:
448,192,85471,1,8,0:0:0:0:
320,192,85552,1,8,0:0:0:0:
192,192,85634,1,4,0:0:0:0:
64,192,85634,128,4,86931:0:0:0:0:
448,192,86931,1,0,0:0:0:20:normal-hitnormal3.ogg
192,192,86931,128,0,87417:0:0:0:20:normal-hitfinish5.ogg
64,192,87417,1,0,0:0:0:0:
448,192,87417,128,0,87904:0:0:0:0:
192,192,87904,1,0,0:0:0:0:
320,192,87904,128,0,88228:0:0:0:0:
64,192,88228,1,4,0:0:0:0:
448,192,88228,1,4,0:0:0:0:
320,192,88390,1,0,0:0:0:0:
192,192,88552,1,8,0:0:0:0:
64,192,88552,1,8,0:0:0:0:
448,192,88715,1,0,0:0:0:20:normal-hitnormal.wav
320,192,88796,1,0,0:0:0:20:normal-hitnormal.wav
192,192,88877,1,0,0:0:0:20:normal-hitnormal.wav
448,192,89039,1,4,0:0:0:0:
64,192,89039,1,4,0:0:0:0:
320,192,89201,1,8,0:0:0:0:
192,192,89201,1,8,0:0:0:0:
64,192,89363,1,0,0:0:0:20:normal-hitnormal.wav
192,192,89525,1,4,0:0:0:0:
448,192,89525,1,4,0:0:0:0:
320,192,89688,1,4,0:0:0:0:
192,192,89850,1,8,0:0:0:0:
64,192,89850,1,8,0:0:0:0:
448,192,90012,1,0,0:0:0:20:normal-hitnormal.wav
320,192,90093,1,4,0:0:0:0:
192,192,90093,1,4,0:0:0:0:
448,192,90336,1,4,0:0:0:0:
64,192,90336,1,4,0:0:0:0:
192,192,90498,1,8,0:0:0:0:
320,192,90498,1,8,0:0:0:0:
448,192,90661,1,0,0:0:0:20:normal-hitnormal.wav
320,192,90742,1,4,0:0:0:0:
192,192,90823,1,4,0:0:0:0:
64,192,90823,1,4,0:0:0:0:
448,192,90985,1,0,0:0:0:0:
320,192,91147,1,8,0:0:0:0:
64,192,91147,1,8,0:0:0:0:
448,192,91309,1,0,0:0:0:0:
192,192,91390,1,4,0:0:0:0:
64,192,91390,1,4,0:0:0:0:
448,192,91634,1,4,0:0:0:0:
320,192,91634,1,4,0:0:0:0:
192,192,91796,1,8,0:0:0:0:
64,192,91796,1,8,0:0:0:0:
448,192,91958,1,0,0:0:0:0:
320,192,92120,1,4,0:0:0:0:
192,192,92120,1,4,0:0:0:0:
64,192,92282,1,0,0:0:0:20:normal-hitnormal.wav
192,192,92363,1,4,0:0:0:0:
320,192,92444,1,8,0:0:0:0:
448,192,92444,1,8,0:0:0:0:
64,192,92606,1,4,0:0:0:0:
192,192,92688,1,8,0:0:0:0:
448,192,92769,1,4,0:0:0:0:
320,192,92850,1,8,0:0:0:0:
192,192,92931,1,4,0:0:0:0:
64,192,93012,1,4,0:0:0:0:
320,192,93093,1,8,0:0:0:0:
448,192,93093,1,8,0:0:0:0:
192,192,93255,1,8,0:0:0:0:
64,192,93336,1,8,0:0:0:0:
320,192,93417,1,4,0:0:0:0:
448,192,93417,1,4,0:0:0:0:
192,192,93579,1,4,0:0:0:0:
320,192,93742,1,8,0:0:0:0:
64,192,93742,1,8,0:0:0:0:
192,192,93904,1,0,0:0:0:20:normal-hitnormal.wav
320,192,93985,1,0,0:0:0:20:normal-hitnormal.wav
448,192,94066,1,0,0:0:0:20:normal-hitnormal.wav
320,192,94228,1,4,0:0:0:0:
64,192,94228,1,4,0:0:0:0:
448,192,94390,1,8,0:0:0:0:
192,192,94390,1,8,0:0:0:0:
320,192,94552,1,0,0:0:0:20:normal-hitnormal.wav
192,192,94634,1,0,0:0:0:20:normal-hitnormal.wav
448,192,94715,1,4,0:0:0:0:
64,192,94715,1,4,0:0:0:0:
320,192,94877,1,4,0:0:0:0:
192,192,94877,1,4,0:0:0:0:
448,192,95039,1,8,0:0:0:0:
64,192,95039,1,8,0:0:0:0:
320,192,95201,1,0,0:0:0:20:normal-hitnormal.wav
64,192,95282,1,4,0:0:0:0:
192,192,95282,1,0,0:0:0:20:normal-hitnormal.wav
320,192,95525,1,4,0:0:0:0:
192,192,95525,1,4,0:0:0:0:
64,192,95688,1,8,0:0:0:0:
448,192,95688,1,8,0:0:0:0:
320,192,95850,1,0,0:0:0:20:normal-hitnormal.wav
448,192,95931,1,4,0:0:0:0:
192,192,96012,1,4,0:0:0:0:
64,192,96012,1,4,0:0:0:0:
192,192,96174,1,4,0:0:0:0:
320,192,96174,1,4,0:0:0:0:
64,192,96336,1,8,0:0:0:0:
448,192,96336,1,8,0:0:0:0:
192,192,96498,1,0,0:0:0:20:normal-hitnormal.wav
448,192,96579,1,0,0:0:0:20:normal-hitnormal.wav
320,192,96579,1,4,0:0:0:0:
64,192,96823,1,4,0:0:0:0:
320,192,96823,1,4,0:0:0:0:
192,192,96985,1,8,0:0:0:0:
448,192,96985,1,8,0:0:0:0:
64,192,97147,1,8,0:0:0:0:
192,192,97228,1,8,0:0:0:0:
320,192,97309,1,4,0:0:0:0:
448,192,97309,1,4,0:0:0:0:
192,192,97471,1,8,0:0:0:0:
64,192,97552,1,8,0:0:0:0:
320,192,97634,1,8,0:0:0:0:
448,192,97715,1,8,0:0:0:0:
64,192,97796,1,8,0:0:0:0:
192,192,97877,1,8,0:0:0:0:
320,192,97958,1,4,0:0:0:0:
448,192,97958,1,4,0:0:0:0:
192,192,98120,1,8,0:0:0:0:
320,192,98201,1,8,0:0:0:0:
192,192,98282,1,8,0:0:0:0:
64,192,98444,1,0,0:0:0:20:normal-hitnormal.wav
448,192,98444,1,0,0:0:0:20:normal-hitnormal.wav
64,192,98931,1,4,0:0:0:0:
448,192,98931,1,0,0:0:0:20:normal-hitnormal.wav
320,192,98931,1,0,0:0:0:20:normal-hitnormal.wav
64,192,99255,1,0,0:0:0:20:normal-hitnormal.wav
192,192,99336,1,8,0:0:0:0:
448,192,99417,1,4,0:0:0:0:
320,192,99498,1,0,0:0:0:0:
64,192,99579,1,8,0:0:0:0:
192,192,99661,1,0,0:0:0:0:
448,192,99742,1,0,0:0:0:20:normal-hitnormal.wav
320,192,99823,1,0,0:0:0:20:normal-hitnormal.wav
64,192,99904,1,4,0:0:0:0:
192,192,99904,1,4,0:0:0:0:
192,192,100066,1,4,0:0:0:0:
320,192,100066,1,4,0:0:0:0:
320,192,100228,1,8,0:0:0:0:
448,192,100228,1,8,0:0:0:0:
64,192,100390,1,4,0:0:0:0:
192,192,100471,1,8,0:0:0:0:
448,192,100552,1,8,0:0:0:0:
320,192,100634,1,8,0:0:0:0:
192,192,100715,1,4,0:0:0:0:
64,192,100715,1,4,0:0:0:0:
448,192,100877,1,8,0:0:0:0:
320,192,100877,1,8,0:0:0:0:
192,192,101039,1,8,0:0:0:0:
64,192,101120,1,8,0:0:0:0:
320,192,101201,1,4,0:0:0:0:
448,192,101201,1,4,0:0:0:0:
64,192,101363,1,8,0:0:0:0:
192,192,101444,1,8,0:0:0:0:
320,192,101525,1,8,0:0:0:0:
64,192,101688,1,4,0:0:0:0:
192,192,101688,1,4,0:0:0:0:
448,192,101850,1,8,0:0:0:0:
320,192,101931,1,8,0:0:0:0:
192,192,102012,1,8,0:0:0:0:
448,192,102174,1,4,0:0:0:0:
320,192,102174,1,4,0:0:0:0:
64,192,102336,1,8,0:0:0:0:
192,192,102417,5,8,0:0:0:0:
320,192,102498,1,8,0:0:0:0:
64,192,102661,1,4,0:0:0:0:
192,192,102661,1,4,0:0:0:0:
448,192,102823,1,8,0:0:0:0:
320,192,102904,1,8,0:0:0:0:
64,192,102985,1,8,0:0:0:0:
192,192,103066,1,8,0:0:0:0:
448,192,103147,128,4,103634:0:0:0:0:
320,192,103147,1,4,0:0:0:0:
192,192,103634,1,4,0:0:0:0:
64,192,103634,1,4,0:0:0:0:
448,192,103958,1,0,0:0:0:20:normal-hitnormal.wav
64,192,104120,1,8,0:0:0:0:
320,192,104120,1,8,0:0:0:0:
192,192,104282,1,0,0:0:0:20:normal-hitnormal.wav
448,192,104444,1,4,0:0:0:0:
320,192,104444,1,4,0:0:0:0:
192,192,104606,1,0,0:0:0:20:normal-hitnormal.wav
448,192,104769,1,8,0:0:0:0:
64,192,104769,1,8,0:0:0:0:
192,192,104931,1,4,0:0:0:0:
320,192,104931,1,0,0:0:0:20:normal-hitnormal.wav
448,192,105255,1,0,0:0:0:20:normal-hitnormal.wav
64,192,105417,1,8,0:0:0:0:
192,192,105417,1,8,0:0:0:0:
448,192,105579,1,0,0:0:0:20:normal-hitnormal.wav
320,192,105661,1,0,0:0:0:20:normal-hitnormal.wav
64,192,105742,1,4,0:0:0:0:
192,192,105742,1,0,0:0:0:20:normal-hitnormal.wav
448,192,105823,1,0,0:0:0:20:normal-hitnormal.wav
320,192,105823,1,8,0:0:0:0:
192,192,105904,1,0,0:0:0:20:normal-hitnormal.wav
320,192,106066,1,8,0:0:0:0:
448,192,106066,1,8,0:0:0:0:
192,192,106228,1,0,0:0:0:20:normal-hitnormal.wav
64,192,106228,1,4,0:0:0:0:
448,192,106552,1,0,0:0:0:20:normal-hitnormal.wav
64,192,106715,1,8,0:0:0:0:
320,192,106715,1,8,0:0:0:0:
192,192,106877,1,8,0:0:0:0:
448,192,107039,1,4,0:0:0:0:
320,192,107201,1,8,0:0:0:0:
64,192,107363,1,8,0:0:0:0:
192,192,107363,1,8,0:0:0:0:
320,192,107525,1,4,0:0:0:0:
448,192,107525,1,0,0:0:0:20:normal-hitnormal.wav
64,192,107850,1,0,0:0:0:20:normal-hitnormal.wav
192,192,107931,1,0,0:0:0:20:normal-hitnormal.wav
320,192,108012,1,8,0:0:0:0:
448,192,108012,1,8,0:0:0:0:
64,192,108093,1,0,0:0:0:20:normal-hitnormal.wav
320,192,108174,1,0,0:0:0:20:normal-hitnormal.wav
192,192,108255,1,8,0:0:0:0:
448,192,108336,1,4,0:0:0:0:
192,192,108417,1,8,0:0:0:0:
320,192,108498,1,0,0:0:0:20:normal-hitnormal.wav
64,192,108661,1,8,0:0:0:0:
192,192,108661,1,8,0:0:0:0:
448,192,108823,1,0,0:0:0:20:normal-hitnormal.wav
320,192,108823,1,4,0:0:0:0:
448,192,109147,1,0,0:0:0:20:normal-hitnormal.wav
320,192,109309,1,8,0:0:0:0:
64,192,109309,1,8,0:0:0:0:
192,192,109390,1,0,0:0:0:0:
448,192,109471,1,0,0:0:0:20:normal-hitnormal.wav
320,192,109552,1,0,0:0:0:20:normal-hitnormal.wav
64,192,109634,1,4,0:0:0:0:
192,192,109715,1,0,0:0:0:20:normal-hitnormal.wav
320,192,109796,1,0,0:0:0:20:normal-hitnormal.wav
448,192,109877,1,0,0:0:0:20:normal-hitnormal.wav
192,192,109958,1,8,0:0:0:0:
64,192,110039,1,0,0:0:0:20:normal-hitnormal.wav
320,192,110120,1,4,0:0:0:0:
448,192,110120,1,0,0:0:0:20:normal-hitnormal.wav
448,192,110444,1,0,0:0:0:0:
320,192,110525,1,0,0:0:0:0:
64,192,110606,1,0,0:0:0:0:
192,192,110688,1,0,0:0:0:0:
448,192,110769,1,0,0:0:0:0:
320,192,110850,1,0,0:0:0:0:
64,192,110931,1,0,0:0:0:0:
192,192,110931,1,0,0:0:0:0:
448,192,111255,1,0,0:0:0:0:
64,192,111255,1,0,0:0:0:0:
192,192,111417,5,4,0:0:0:0:
320,192,111417,1,0,0:0:0:20:normal-hitnormal.wav
448,192,111742,5,0,0:0:0:20:normal-hitnormal.wav
320,192,111742,1,4,0:0:0:0:
320,192,111904,1,4,0:0:0:0:
448,192,111904,1,0,0:0:0:20:normal-hitnormal.wav
448,192,112066,1,0,0:0:0:20:normal-hitnormal.wav
320,192,112066,1,4,0:0:0:0:
448,192,112228,1,0,0:0:0:20:normal-hitnormal.wav
320,192,112228,1,4,0:0:0:0:
320,192,112471,1,4,0:0:0:0:
448,192,112471,1,0,0:0:0:20:normal-hitnormal.wav
64,192,112715,1,4,0:0:0:0:
192,192,112715,128,0,114174:0:0:0:20:normal-hitnormal.wav
448,192,112715,1,0,0:0:0:20:normal-hitnormal.wav
320,192,114174,1,4,0:0:0:0:
448,192,114174,1,0,0:0:0:20:normal-hitfinish5.ogg
64,192,114498,1,0,0:0:0:0:
192,192,114661,1,0,0:0:0:0:
448,192,115471,1,0,0:0:0:0:
320,192,115634,1,0,0:0:0:0:
192,192,115796,1,0,0:0:0:0:
64,192,115958,1,0,0:0:0:0:
64,192,116769,1,0,0:0:0:0:
192,192,116931,1,0,0:0:0:0:
320,192,117093,1,0,0:0:0:0:
448,192,117255,1,0,0:0:0:0:
192,192,118066,1,0,0:0:0:0:
320,192,118806,1,0,0:0:0:0:
448,192,118806,1,0,0:0:0:0:
64,192,119547,1,0,0:0:0:0:
192,192,119594,1,0,0:0:0:0:
320,192,119641,1,0,0:0:0:0:
448,192,119736,1,0,0:0:0:0:
192,192,119926,1,0,0:0:0:0:
320,192,120116,1,0,0:0:0:0:
448,192,120917,1,0,0:0:0:0:
320,192,120968,1,0,0:0:0:0:
192,192,121020,1,0,0:0:0:0:
64,192,121123,1,0,0:0:0:0:
320,192,121330,1,0,0:0:0:0:
192,192,121537,1,0,0:0:0:0:
64,192,122439,1,0,0:0:0:0:
192,192,122500,1,0,0:0:0:0:
320,192,122561,1,0,0:0:0:0:
448,192,122684,1,0,0:0:0:0:
320,192,122930,1,0,0:0:0:0:
64,192,123176,1,0,0:0:0:0:
192,192,123545,1,0,0:0:0:0:
320,192,124037,1,0,0:0:0:0:
64,192,124590,1,0,0:0:0:0:
320,192,124590,128,0,126373:0:0:0:0:
